osu file format v9

[General]
AudioFilename: nehanshika.MP3
AudioLeadIn: 0
PreviewTime: 55060
Countdown: 0
SampleSet: Normal
StackLeniency: 0.7
Mode: 0
LetterboxInBreaks: 1

[Editor]
Bookmarks: 27646,57460,77017,77860
DistanceSpacing: 1
BeatDivisor: 4
GridSize: 4

[Metadata]
Title:Nehanshika
Artist:Hatsune Miku
Creator:Shiirn
Version:Insane
Source:nehanshikaP
Tags:gakupo vocaloid saten-san onosakihito deino gab

[Difficulty]
HPDrainRate:5
CircleSize:4
OverallDifficulty:6
ApproachRate:8
SliderMultiplier:1.9
SliderTickRate:1

[Events]
//Background and Video events
Video,2700,"nehanshika.avi"
0,0,"sample_b1fae240604166501322dcf78aee1268a0dade70.jpg"
//Break Periods
2,62774,70767
//Storyboard Layer 0 (Background)
//Storyboard Layer 1 (Fail)
//Storyboard Layer 2 (Pass)
//Storyboard Layer 3 (Foreground)
//Storyboard Sound Samples
//Background Colour Transformations
3,100,163,162,255

[TimingPoints]
5689,342.857142857143,4,2,0,45,1,0
7060,-100,4,1,0,45,0,0
8431,-100,4,1,0,40,0,0
19403,-100,4,1,0,40,0,1
20774,-100,4,1,0,40,0,1
22146,-100,4,1,0,40,0,0
61917,-100,4,2,0,45,0,0
71517,-100,4,2,0,55,0,0
72889,-100,4,1,0,45,0,0
74260,-100,4,1,0,45,0,0
96203,-100,4,1,0,40,0,1
107089,-100,4,1,0,40,0,0
107174,-100,4,1,0,40,0,1
118060,-100,4,1,0,40,0,0
118146,-100,4,1,0,40,0,1
129117,-100,4,1,0,44,0,1
129203,-100,4,1,0,49,0,1
129289,-100,4,1,0,54,0,1
129374,-100,4,1,0,57,0,1
129460,-100,4,1,0,60,0,1
129546,-100,4,1,0,63,0,1
129631,-100,4,1,0,66,0,1
129717,-100,4,1,0,69,0,1
129803,-100,4,1,0,72,0,1
129889,-100,4,1,0,75,0,1
129974,-100,4,1,0,78,0,1
130060,-100,4,1,0,81,0,1
130146,-100,4,1,0,84,0,1
130231,-100,4,1,0,87,0,1
130317,-100,4,1,0,91,0,1
130403,-100,4,1,0,95,0,1
130489,-100,4,1,0,100,0,1
130574,-100,4,1,0,90,0,1
130660,-100,4,1,0,80,0,1
130746,-100,4,1,0,70,0,1
130831,-100,4,1,0,60,0,1
130917,-100,4,1,0,50,0,1
131003,-100,4,1,0,40,0,1
131089,-100,4,1,0,30,0,1
131174,-100,4,1,0,20,0,1
131260,-100,4,1,0,10,0,1
131346,-100,4,1,0,5,0,1
131517,-100,4,1,0,45,0,0
133231,-100,4,2,0,65,0,0

[Colours]
Combo1 : 157,0,157
Combo2 : 128,0,0
Combo3 : 0,0,72
Combo4 : 0,157,0

[HitObjects]
144,91,5688,5,4
223,163,6031,1,4
301,233,6374,1,4
379,303,6717,1,4
208,324,7060,6,0,B|192:368,2,47.5
320,328,7403,2,0,B|336:372,2,47.5
424,304,7746,2,0,B|464:328,2,47.5
464,208,8088,2,0,B|508:188,2,47.5
396,136,8431,6,0,B|388:80|340:60,1,95
316,136,8774,2,0,B|280:176|236:184,1,95
184,112,9117,2,0,B|220:72|264:64,1,95
104,112,9460,2,0,B|112:168|160:188,1,95
72,260,9803,6,0,B|128:336,2,95
40,192,10317,1,0
72,124,10489,2,0,B|128:48,2,95
104,192,11003,1,0
176,192,11174,6,0,B|320:176|224:208|368:192,1,190
444,184,11689,2,0,B|444:128|408:100,2,95
440,256,12203,2,0,B|440:312|404:340,1,95
336,344,12546,6,0,B|280:264,1,95
240,332,12889,2,0,B|188:252,1,95
148,320,13231,1,0
148,320,13403,1,0
148,320,13574,2,0,B|96:240,1,95
36,192,13917,6,0,B|88:112|204:124,1,190
176,196,14431,1,0
212,264,14603,1,0
300,264,14774,1,0
336,196,14946,2,0,B|360:152|416:152,1,95
256,192,15289,6,0,B|237:93|131:58,1,190
104,116,15803,2,0,B|186:172|286:121,1,190
376,64,16317,2,0,B|416:44|468:60,1,95
444,160,16660,5,0
444,160,16831,1,0
432,304,17003,1,0
432,304,17174,1,0
336,192,17346,1,0
336,192,17517,1,0
252,280,17689,1,0
252,280,17860,1,0
256,56,18031,6,0,B|352:52,1,95
256,124,18374,2,0,B|160:128,1,95,0|0
264,192,18717,2,0,B|360:188,1,95
264,260,19060,2,0,B|168:264,1,95,0|0
256,336,19403,6,0,B|296:312,3,47.5
360,308,19746,2,0,B|336:268,3,47.5
388,240,20089,6,0,B|396:188,3,47.5
364,148,20431,2,0,B|324:116,3,47.5
256,192,20774,12,0,22145
256,68,23517,5,0
292,56,23603,2,0,B|336:68|344:132,1,95
256,316,24031,1,0
220,328,24117,2,0,B|176:316|168:252,1,95
212,272,24374,2,0,B|192:228|200:180,1,95
240,216,24631,1,0
280,208,24717,1,0
320,200,24803,1,0
360,192,24889,6,2,B|318:164|268:162,1,95,0|0
256,88,25231,2,2,B|228:129|226:179,1,95,2|8
152,192,25574,2,0,B|193:219|243:221,1,95,0|8
256,296,25917,2,2,B|283:254|285:204,1,95,10|0
184,148,26260,6,0,B|204:104|252:84,1,95
328,236,26603,2,0,B|308:280|260:300,1,95,2|8
226,112,26946,2,0,B|269:90|319:104,1,95,0|8
285,271,27289,2,0,B|242:293|192:279,1,95,10|0
280,192,27631,6,0,B|320:168|368:152,1,95
232,192,27974,2,0,B|192:216|144:232,1,95,2|8
312,196,28317,2,0,B|356:212|400:236,1,95,0|8
200,188,28660,2,0,B|156:172|112:148,1,95,10|0
248,176,29003,5,0
240,200,29174,1,8
264,208,29346,1,2
272,184,29517,1,8
206,93,29689,1,6
157,241,29860,1,12
305,290,30032,1,14
354,142,30203,1,12
76,96,30374,6,0,B|112:68|160:44,1,95
208,156,30717,2,0,B|248:125|280:92,1,95,2|8
120,164,31060,2,2,B|106:240|120:356,1,190,0|10
216,328,31574,1,0
368,288,31746,6,0,B|408:264|408:208,1,95
352,112,32089,2,0,B|312:136|312:192,1,95,2|0
432,272,32431,2,0,B|472:248|472:192,1,95,0|8
288,128,32774,2,0,B|248:152|248:208,1,95,10|0
344,208,33117,5,0
344,208,33289,2,0,B|296:292,1,95,0|2
248,208,33631,1,2
248,208,33803,2,0,B|200:292,1,95,8|2
152,208,34145,1,8
152,208,34317,1,0
152,208,34489,6,0,B|84:140,1,95,8|2
272,296,34831,2,0,B|204:364,1,95,0|8
360,176,35174,2,0,B|428:244,1,95,2|0
240,88,35516,2,0,B|308:20,1,95,0|8
64,96,35860,5,8
64,96,36031,1,0
144,96,36203,2,0,B|144:192,1,95,2|0
79,239,36546,1,0
79,239,36717,1,0
144,192,36889,2,0,B|200:269,1,95,2|0
320,304,37231,5,0
320,304,37402,1,0
400,304,37574,2,0,B|400:208,1,95,2|0
335,161,37917,1,0
335,161,38088,1,0
400,208,38260,2,0,B|456:130,1,95,2|0
144,160,38603,6,0,B|200:240,1,95
368,160,38946,2,0,B|312:240,1,95,2|0
116,84,39289,1,2
172,104,39460,1,0
396,84,39631,1,2
340,104,39802,1,0
256,324,39974,6,2,B|224:236|256:136,1,190,2|0
360,140,40489,1,0
452,192,40660,2,0,B|448:248|432:284,1,95,2|8
232,232,41003,2,0,B|236:176|252:140,1,95,8|8
80,132,41346,6,0,B|28:48,2,95,2|0|4
468,340,42031,1,4
52,344,42374,1,4
368,192,42717,6,0,B|448:136,2,95,0|0|10
204,244,43403,2,0,B|124:300,2,95,2|0|8
256,192,43917,1,0
256,120,44089,6,0,B|176:72|72:72,1,190
48,120,44603,1,0
20,168,44774,2,0,B|20:264|76:348,1,190,4|0
128,340,45289,1,0
184,340,45460,6,0,B|264:284|244:172,1,190,4|0
192,160,45974,1,0
140,168,46146,2,0,B|176:256|288:276,1,190,4|0
336,244,46660,1,0
348,192,46831,6,0,B|404:116,1,95
256,192,47174,2,0,B|256:96,1,95,2|8
164,192,47517,2,0,B|108:116,1,95
256,192,47860,2,0,B|252:240|256:288,1,95,10|0
388,136,48203,6,0,B|444:60,1,95
256,136,48546,2,0,B|256:40,1,95,2|8
124,136,48889,2,0,B|68:60,1,95,2|8
256,136,49231,2,2,B|260:232|256:328,1,190,10|0
256,364,49746,5,0
184,284,49917,2,0,B|128:264|92:288,2,95,2|8|2
328,284,50431,2,0,B|384:264|420:288,2,95,0|2|2
204,208,50946,6,0,B|132:148,1,95,8|10
308,208,51289,2,0,B|380:148,1,95
120,224,51631,2,0,B|48:284,1,95,2|10
392,224,51974,2,0,B|464:284,1,95,0|2
260,152,52317,6,0,B|296:128|280:64,1,95,2|8
252,232,52660,2,0,B|216:256|232:320,1,95,8|8
176,180,53003,2,0,B|152:144|88:160,1,95,2|8
336,204,53346,2,0,B|360:240|424:224,1,95,8|0
340,128,53689,6,0,B|260:76,1,95
172,256,54031,2,0,B|252:308,1,95,2|8
256,196,54374,1,0
256,196,54546,1,0
164,200,54717,1,10
348,184,54889,1,8
176,140,55060,6,0,B|256:84,3,95,0|0|2|0
336,244,55746,2,0,B|256:300,3,95,0|2|2|0
200,336,56431,6,0,B|108:300,1,95,0|10
20,248,56774,2,2,B|112:212,1,95,2|8
200,160,57117,2,0,B|108:124,1,95,8|8
20,72,57460,2,0,B|112:36,1,95,2|10
256,192,57803,12,2,60203
256,192,61917,37,2
151,87,71517,5,4
210,237,71860,1,4
360,296,72203,1,4
301,146,72546,1,4
151,87,72889,6,0,B|132:140,3,47.5
164,152,73231,2,0,B|152:208,3,47.5
180,232,73574,2,0,B|180:284,3,47.5
228,272,73917,2,0,B|264:308,3,47.5
280,300,74260,6,0,B|443:234|443:103|280:37,1,380
36,192,75631,2,0,B|228:172|416:192,1,380
292,336,76660,1,0
460,252,77003,2,0,B|248:168|248:296|88:216,1,380
192,56,78031,1,0
352,144,78374,6,0,B|388:176,3,47.5
316,200,78717,2,0,B|332:244,3,47.5
260,237,79060,2,0,B|276:284,3,47.5
193,248,79403,2,0,B|188:296,3,47.5
224,208,79746,6,0,B|204:116,1,95,4|0
256,64,80089,2,0,B|344:232,1,190
404,200,80603,2,0,B|416:104,2,95,0|4|0
416,296,81117,6,0,B|236:360,1,190,4|0
140,356,81631,1,0
60,304,81803,2,0,B|32:220|64:116,1,190,0|4
124,188,82317,1,0
216,156,82489,6,0,B|256:72,1,95,4|0
296,228,82831,2,0,B|256:312,1,95
168,192,83174,2,0,B|232:232|296:120|416:212,1,190,0|4
256,64,83860,6,0,B|232:116|192:136,1,95,4|0
256,320,84203,2,0,B|280:268|320:248,1,95
320,120,84546,2,0,B|312:184|232:196|164:304,1,190,0|4
72,192,85231,6,0,B|92:144|140:128,1,95,4|0
72,192,85574,2,0,B|24:172|8:124,1,95
72,192,85917,2,0,B|52:240|4:256,1,95
72,192,86260,2,0,B|120:212|136:260,1,95,4|0
256,192,86603,6,0,B|236:144|188:128,1,95,4|0
256,192,86946,2,0,B|304:172|320:124,1,95
256,192,87289,2,0,B|276:240|324:256,1,95
256,192,87632,2,0,B|208:212|192:260,1,95,4|0
368,125,87974,6,0,B|384:172|432:192,1,95,4|0
498,128,88317,2,0,B|452:144|432:192,1,95
495,258,88660,2,0,B|480:212|432:192,1,95
365,255,89003,2,0,B|412:240|432:192,1,95,4|0
368,124,89346,6,0,B|284:84|180:96,1,190,4|0
264,180,89860,1,0
264,180,90031,2,0,B|248:276,2,95
280,96,90546,1,0
136,68,90717,6,4,B|96:104|140:148|100:172|100:172|52:200|68:244,1,190
376,316,91403,2,4,B|416:280|372:236|412:212|412:212|460:184|444:140,1,190
256,192,91917,12,0,93459
256,68,94831,5,0
220,56,94917,2,0,B|176:68|168:132,1,95
256,316,95345,1,0
292,328,95431,2,0,B|336:316|344:252,1,95
304,256,95688,6,0,B|324:212|316:164,1,95
320,120,95945,1,0
296,84,96031,1,0
256,68,96117,1,0
218,71,96203,6,0,B|128:44,1,95
214,135,96546,2,0,B|124:108,1,95,2|8
210,199,96889,2,0,B|120:172,1,95,0|8
206,263,97231,2,0,B|116:236,1,95,10|0
336,296,97574,6,0,B|266:231,1,95
389,260,97916,2,0,B|319:195,1,95,2|8
442,225,98259,2,0,B|372:160,1,95,0|8
496,189,98602,2,0,B|426:124,1,95,10|0
256,44,98946,6,2,B|184:108|84:124,1,190,2|8
88,44,99460,2,2,B|172:88|200:192,1,190,2|0
124,192,99974,2,0,B|144:284,1,95,8|2
192,340,100317,6,2,B|276:372|380:344,1,190,2|0
256,192,100831,1,8
320,44,101003,2,2,B|236:12|132:40,1,190,0|2
256,192,101517,1,0
328,164,101689,6,0,B|408:216,1,95,0|8
228,120,102031,2,2,B|280:40,1,95,0|2
184,220,102374,2,2,B|100:152|8:220,1,190,8|10
96,268,102889,1,8
96,268,103060,6,2,B|96:172|164:92,1,190,2|0
228,136,103574,1,8
228,136,103746,2,0,B|296:72,2,95,2|2|0
320,160,104260,1,8
396,184,104431,6,2,B|436:208|440:264,1,95,0|10
356,256,104774,2,0,B|372:308|332:340,1,95,2|0
272,284,105117,2,0,B|232:328|192:328,1,95,8|0
196,244,105460,2,0,B|144:264|100:264,1,95,2|8
56,192,105803,6,2,B|16:168|12:112,1,95,8|2
96,120,106146,2,0,B|80:68|120:36,1,95,2|0
180,92,106489,2,0,B|220:48|260:48,1,95,0|8
256,132,106832,2,0,B|308:112|352:112,1,95,10|8
248,216,107174,6,0,B|232:268|208:304,2,95,2|0|8
196,160,107689,2,0,B|160:200|123:224,2,95,2|0|0
80,115,108203,2,0,B|121:109|171:87,1,95,10|0
256,112,108546,6,0,B|272:60|296:24,2,95,0|0|8
308,168,109061,2,0,B|343:127|380:103,2,95,2|0|0
423,212,109575,2,0,B|382:217|332:240,1,95,10|0
284,316,109917,5,0
284,316,110089,2,0,B|192:344,1,95,0|2
208,260,110431,1,8
208,260,110603,2,0,B|116:288,1,95,8|2
28,200,110946,2,0,B|124:216,1,95,0|8
168,88,111289,5,2
168,88,111460,1,8
292,124,111631,1,10
292,124,111803,1,0
168,160,111974,1,10
168,160,112145,1,8
292,196,112317,1,2
292,196,112489,1,10
168,232,112660,6,0,B|232:304|336:320,1,190,10|0
384,256,113174,1,0
456,184,113346,2,0,B|428:92,1,95,10|0
372,168,113689,2,0,B|344:76,1,95,8|2
172,88,114031,6,0,B|128:76|76:92,2,95,0|0|10
80,216,114717,2,2,B|96:308|212:336,1,190,2|8
256,336,115231,1,0
304,336,115403,6,2,B|408:328|448:228,1,190,2|0
448,160,115917,1,0
432,96,116089,2,0,B|364:164,1,95,10|0
224,96,116431,2,0,B|292:164,1,95,8|2
328,80,116774,6,2,B|348:176|304:268,1,190,0|2
232,240,117289,2,0,B|220:292|196:328,2,95,8|10|0
248,168,117803,2,2,B|255:125|244:73,1,95,0|10
116,88,118146,6,2,B|200:44|300:44,1,190,2|8
320,136,118660,1,2
412,164,118831,2,0,B|396:256,1,95,0|2
236,288,119174,2,0,B|328:304,1,95,10|10
240,192,119517,6,2,B|148:176,1,95,0|2
56,208,119860,2,2,B|96:292|208:312,1,190,8|2
296,280,120374,1,8
296,280,120546,1,8
296,280,120717,1,2
296,280,120889,6,0,B|364:216,1,95,0|10
196,144,121231,2,0,B|168:104|168:56,2,95,2|0|8
88,240,121746,1,2
140,332,121917,2,2,B|136:236,1,95,2|10
312,76,122260,6,0,B|380:140,1,95,8|0
256,252,122602,2,0,B|228:292|228:340,2,95,2|0|0
108,176,123117,1,2
160,76,123288,2,0,B|156:172,1,95,8|0
180,328,123631,5,2
308,328,123803,1,0
172,328,123974,1,0
316,328,124146,1,10
244,348,124317,2,0,B|240:304|244:252,1,95,0|10
260,100,124660,2,0,B|264:144|260:196,1,95,8|2
164,188,125003,6,0,B|120:184|68:188,1,95,2|8
319,192,125346,2,2,B|406:199|508:192,1,190,8|2
412,112,125860,1,0
412,112,126031,2,2,B|424:208,1,95,8|2
256,348,126374,6,0,B|164:368,1,95,0|8
256,272,126717,2,0,B|348:296,1,95,2|0
256,196,127060,2,0,B|164:228,1,95,8|0
256,116,127403,2,0,B|336:168,1,95,2|8
388,208,127746,5,0
440,128,127917,1,0
352,164,128089,1,2
444,180,128260,1,8
380,112,128431,1,0
344,52,128603,1,8
280,52,128774,1,2
248,112,128946,1,0
252,164,129117,5,0
281,176,129203,1,0
246,179,129289,1,0
275,190,129374,1,0
240,193,129460,5,0
269,205,129546,1,0
235,209,129631,1,0
264,220,129717,1,0
229,223,129802,5,0
258,234,129888,1,0
223,238,129974,1,0
252,249,130060,1,0
217,253,130145,5,0
247,264,130231,1,0
220,284,130317,2,4,B|202:328,2,47.5,0|0|4
256,192,130574,12,6,131517
256,192,133231,5,2
