osu file format v14

[General]
AudioFilename: Vocaloid_Negative ThinkingDubstep.mp3
AudioLeadIn: 0
PreviewTime: 85230
Countdown: 0
SampleSet: Soft
StackLeniency: 0.7
Mode: 3
LetterboxInBreaks: 1
EpilepsyWarning: 1
SpecialStyle: 1
WidescreenStoryboard: 1

[Editor]
DistanceSpacing: 1
BeatDivisor: 8
GridSize: 4
TimelineZoom: 1.2

[Metadata]
Title:Negative Thinking
TitleUnicode:Negative Thinking
Artist:Hatsune Miku
ArtistUnicode:Hatsune Miku
Creator:nyaaa-
Version:so dewa njing
Source:Vocaloid
Tags:Dubstep
BeatmapID:726563
BeatmapSetID:318397

[Difficulty]
HPDrainRate:8
CircleSize:6
OverallDifficulty:8
ApproachRate:8
SliderMultiplier:1.59999990463257
SliderTickRate:1

[Events]
//Background and Video events
0,0,"26174_vocaloid_hatsune_miku.jpg",0,0
//Break Periods
//Storyboard Layer 0 (Background)
//Storyboard Layer 1 (Fail)
//Storyboard Layer 2 (Pass)
//Storyboard Layer 3 (Foreground)
//Storyboard Sound Samples

[TimingPoints]
1230,375,4,2,1,55,1,0
1230,-76.9230769230769,4,2,1,55,0,0
7792,-250,4,2,1,55,0,0
8042,-76.9230769230769,4,2,1,55,0,0
9292,-250,4,2,1,55,0,0
9542,-76.9230769230769,4,2,1,55,0,0
10792,-250,4,2,1,55,0,0
11042,-76.9230769230769,4,2,1,55,0,0
12292,-250,4,2,1,55,0,0
12542,-76.9230769230769,4,2,1,55,0,0
36073,-250,4,2,1,55,0,0
36151,-76.9230769230769,4,2,1,55,0,0
36417,-250,4,2,1,55,0,0
36542,-76.9230769230769,4,2,1,55,0,0
36792,-250,4,2,1,55,0,0
36917,-76.9230769230769,4,2,1,55,0,0
37933,-250,4,2,1,55,0,0
38026,-76.9230769230769,4,2,1,55,0,0
38308,-250,4,2,1,55,0,0
38401,-76.9230769230769,4,2,1,55,0,0
38495,-250,4,2,1,55,0,0
38589,-76.9230769230769,4,2,1,55,0,0
40542,-250,4,2,1,55,0,0
41042,-76.9230769230769,4,2,1,55,0,0
41292,-250,4,2,1,55,0,0
41417,-76.9230769230769,4,2,1,55,0,0
41480,-250,4,2,1,55,0,0
41605,-76.9230769230769,4,2,1,55,0,0
43542,-250,4,2,1,55,0,0
43667,-76.9230769230769,4,2,1,55,0,0
43917,-250,4,2,1,55,0,0
44042,-76.9230769230769,4,2,1,55,0,0
44292,-250,4,2,1,55,0,0
44417,-76.9230769230769,4,2,1,55,0,0
44480,-250,4,2,1,55,0,0
44605,-76.9230769230769,4,2,1,55,0,0
46542,-250,4,2,1,55,0,0
47042,-76.9230769230769,4,2,1,55,0,0
48792,-250,4,2,1,55,0,0
48917,-76.9230769230769,4,2,1,55,0,0
48980,-250,4,2,1,55,0,0
49105,-76.9230769230769,4,2,1,55,0,0
49167,-166.666666666667,4,2,1,55,0,0
50042,-76.923076923077,4,2,1,55,0,0
50292,-250,4,2,1,55,0,0
50417,-76.9230769230769,4,2,1,55,0,0
50480,-250,4,2,1,55,0,0
50605,-76.9230769230769,4,2,1,55,0,0
52464,-250,4,2,1,55,0,0
52558,-76.9230769230769,4,2,1,55,0,0
52745,-250,4,2,1,55,0,0
52839,-76.9230769230769,4,2,1,55,0,0
52933,-250,4,2,1,55,0,0
53026,-76.9230769230769,4,2,1,55,0,0
53308,-250,4,2,1,55,0,0
53401,-76.9230769230769,4,2,1,55,0,0
53495,-250,4,2,1,55,0,0
53589,-76.9230769230769,4,2,1,55,0,0
55558,-250,4,2,1,55,0,0
55651,-76.9230769230769,4,2,1,55,0,0
55933,-250,4,2,1,55,0,0
56026,-76.9230769230769,4,2,1,55,0,0
58558,-250,4,2,1,55,0,0
59026,-76.9230769230769,4,2,1,55,0,0
59308,-250,4,2,1,55,0,0
59401,-76.9230769230769,4,2,1,55,0,0
59495,-250,4,2,1,55,0,0
59589,-76.9230769230769,4,2,1,55,0,0
60808,-250,4,2,1,55,0,0
60901,-76.9230769230769,4,2,1,55,0,0
60995,-250,4,2,1,55,0,0
61089,-76.9230769230769,4,2,1,55,0,0
61183,-250,4,2,1,55,0,0
62026,-76.9230769230769,4,2,1,55,0,0
62120,-250,4,2,1,55,0,0
62214,-76.9230769230769,4,2,1,55,0,0
62308,-250,4,2,1,55,0,0
62401,-76.9230769230769,4,2,1,55,0,0
62495,-250,4,2,1,55,0,0
62589,-76.9230769230769,4,2,1,55,0,0
62683,-250,4,2,1,55,0,0
62776,-76.9230769230769,4,2,1,55,0,0
62870,-250,4,2,1,55,0,0
62964,-76.9230769230769,4,2,1,55,0,0
63058,-250,4,2,1,55,0,0
63151,-76.9230769230769,4,2,1,55,0,0
63245,-250,4,2,1,55,0,0
63339,-76.9230769230769,4,2,1,55,0,0
63433,-250,4,2,1,55,0,0
64183,-76.9230769230769,4,2,1,55,0,0
64558,-200,4,2,1,55,0,0
65026,-76.9230769230769,4,2,1,55,0,0
65120,-250,4,2,1,55,0,0
65214,-76.9230769230769,4,2,1,55,0,0
65308,-250,4,2,1,55,0,0
65401,-76.9230769230769,4,2,1,55,0,0
65495,-250,4,2,1,55,0,0
65589,-76.9230769230769,4,2,1,55,0,0
67558,-250,4,2,1,55,0,0
67651,-76.9230769230769,4,2,1,55,0,0
67933,-250,4,2,1,55,0,0
68026,-76.9230769230769,4,2,1,55,0,0
68120,-250,4,2,1,55,0,0
68214,-76.9230769230769,4,2,1,55,0,0
68308,-250,4,2,1,55,0,0
68401,-76.9230769230769,4,2,1,55,0,0
68495,-250,4,2,1,55,0,0
68589,-76.9230769230769,4,2,1,55,0,0
68683,-250,4,2,1,55,0,0
69434,-76.9230769230769,4,2,1,55,0,0
70558,-250,4,2,1,55,0,0
71026,-76.9230769230769,4,2,1,55,0,0
71308,-250,4,2,1,55,0,0
71401,-76.9230769230769,4,2,1,55,0,0
71495,-250,4,2,1,55,0,0
71589,-76.9230769230769,4,2,1,55,0,0
72808,-250,4,2,1,55,0,0
72901,-76.9230769230769,4,2,1,55,0,0
72995,-250,4,2,1,55,0,0
73089,-76.9230769230769,4,2,1,55,0,0
74120,-250,4,2,1,55,0,0
74214,-76.9230769230769,4,2,1,55,0,0
74308,-250,4,2,1,55,0,0
74401,-76.9230769230769,4,2,1,55,0,0
74495,-250,4,2,1,55,0,0
74589,-76.9230769230769,4,2,1,55,0,0
75433,-250,4,2,1,55,0,0
76183,-76.9230769230769,4,2,1,55,0,0
76558,-250,4,2,1,55,0,0
77026,-76.9230769230769,4,2,1,55,0,0
77120,-250,4,2,1,55,0,0
77214,-76.9230769230769,4,2,1,55,0,0
77308,-76.9230769230769,4,2,1,55,0,0
77495,-250,4,2,1,55,0,0
77589,-76.9230769230769,4,2,1,55,0,0
77683,-250,4,2,1,55,0,0
77776,-76.9230769230769,4,2,1,55,0,0
77870,-250,4,2,1,55,0,0
77964,-76.9230769230769,4,2,1,55,0,0
78058,-250,4,2,1,55,0,0
78151,-76.9230769230769,4,2,1,55,0,0
78245,-250,4,2,1,55,0,0
78339,-76.9230769230769,4,2,1,55,0,0
79558,-250,4,2,1,55,0,0
79651,-76.9230769230769,4,2,1,55,0,0
79933,-250,4,2,1,55,0,0
80026,-76.9230769230769,4,2,1,55,0,0
80308,-250,4,2,1,55,0,0
80401,-76.9230769230769,4,2,1,55,0,0
80495,-250,4,2,1,55,0,0
80589,-76.9230769230769,4,2,1,55,0,0
80683,-200,4,2,1,55,0,0
81433,-76.9230769230769,4,2,1,55,0,0
82558,-250,4,2,1,55,0,0
83026,-76.9230769230769,4,2,1,55,0,0
83308,-250,4,2,1,55,0,0
83401,-76.9230769230769,4,2,1,55,0,0
83495,-250,4,2,1,55,0,0
83589,-76.9230769230769,4,2,1,55,0,0
96433,-250,4,2,1,55,0,0
96526,-76.9230769230769,4,2,1,55,0,0
96620,-250,4,2,1,55,0,0
96714,-76.9230769230769,4,2,1,55,0,0
96808,-250,4,2,1,55,0,0
96901,-76.9230769230769,4,2,1,55,0,0
145183,-250,4,2,1,55,0,0
146026,-76.9230769230769,4,2,1,55,0,0
146308,-250,4,2,1,55,0,0
146401,-76.9230769230769,4,2,1,55,0,0
146495,-250,4,2,1,55,0,0
146589,-76.9230769230769,4,2,1,55,0,0
148558,-250,4,2,1,55,0,0
149026,-76.9230769230769,4,2,1,55,0,0
149308,-250,4,2,1,55,0,0
149401,-76.9230769230769,4,2,1,55,0,0
149495,-250,4,2,1,55,0,0
149589,-76.9230769230769,4,2,1,55,0,0
151558,-250,4,2,1,55,0,0
151651,-76.9230769230769,4,2,1,55,0,0
151933,-250,4,2,1,55,0,0
152026,-76.9230769230769,4,2,1,55,0,0
152308,-250,4,2,1,55,0,0
152401,-76.9230769230769,4,2,1,55,0,0
152495,-250,4,2,1,55,0,0
152589,-76.9230769230769,4,2,1,55,0,0
154558,-250,4,2,1,55,0,0
155026,-76.9230769230769,4,2,1,55,0,0
155308,-250,4,2,1,55,0,0
155401,-76.9230769230769,4,2,1,55,0,0
155495,-250,4,2,1,55,0,0
155589,-76.9230769230769,4,2,1,55,0,0
156808,-250,4,2,1,55,0,0
156901,-76.9230769230769,4,2,1,55,0,0
156995,-250,4,2,1,55,0,0
157089,-76.9230769230769,4,2,1,55,0,0
157933,-250,4,2,1,55,0,0
158026,-76.9230769230769,4,2,1,55,0,0
158308,-250,4,2,1,55,0,0
158401,-76.9230769230769,4,2,1,55,0,0
158495,-250,4,2,1,55,0,0
158589,-76.9230769230769,4,2,1,55,0,0
160464,-250,4,2,1,55,0,0
160558,-76.9230769230769,4,2,1,55,0,0
160745,-250,4,2,1,55,0,0
160839,-76.9230769230769,4,2,1,55,0,0
160933,-250,4,2,1,55,0,0
161026,-76.9230769230769,4,2,1,55,0,0
161308,-250,4,2,1,55,0,0
161401,-76.9230769230769,4,2,1,55,0,0
161495,-250,4,2,1,55,0,0
161589,-76.9230769230769,4,2,1,55,0,0
163558,-250,4,2,1,55,0,0
163651,-76.9230769230769,4,2,1,55,0,0
163933,-250,4,2,1,55,0,0
164026,-76.9230769230769,4,2,1,55,0,0
164308,-250,4,2,1,55,0,0
164401,-76.9230769230769,4,2,1,55,0,0
164495,-250,4,2,1,55,0,0
164589,-76.9230769230769,4,2,1,55,0,0
166558,-250,4,2,1,55,0,0
167026,-76.9230769230769,4,2,1,55,0,0
167308,-250,4,2,1,55,0,0
167401,-76.9230769230769,4,2,1,55,0,0
167495,-250,4,2,1,55,0,0
167589,-76.9230769230769,4,2,1,55,0,0
169183,-250,4,2,1,55,0,0
170026,-76.9230769230769,4,2,1,55,0,0
170120,-200,4,2,1,55,0,0
170214,-76.9230769230769,4,2,1,55,0,0
170308,-200,4,2,1,55,0,0
170401,-76.9230769230769,4,2,1,55,0,0
170495,-200,4,2,1,55,0,0
170589,-76.9230769230769,4,2,1,55,0,0
170683,-200,4,2,1,55,0,0
170776,-76.9230769230769,4,2,1,55,0,0
170870,-200,4,2,1,55,0,0
170964,-76.9230769230769,4,2,1,55,0,0
171058,-200,4,2,1,55,0,0
171151,-76.9230769230769,4,2,1,55,0,0
171245,-200,4,2,1,55,0,0
171339,-76.9230769230769,4,2,1,55,0,0
171433,-166.666666666667,4,2,1,55,0,0
172136,-76.9230769230769,4,2,1,55,0,0
172558,-250,4,2,1,55,0,0
173026,-76.9230769230769,4,2,1,55,0,0
173120,-250,4,2,1,55,0,0
173214,-76.9230769230769,4,2,1,55,0,0
173308,-250,4,2,1,55,0,0
173401,-76.9230769230769,4,2,1,55,0,0
173495,-250,4,2,1,55,0,0
173589,-76.9230769230769,4,2,1,55,0,0
175558,-250,4,2,1,55,0,0
175651,-76.9230769230769,4,2,1,55,0,0
175933,-250,4,2,1,55,0,0
176026,-76.9230769230769,4,2,1,55,0,0
176120,-250,4,2,1,55,0,0
176214,-76.9230769230769,4,2,1,55,0,0
176308,-250,4,2,1,55,0,0
176401,-76.9230769230769,4,2,1,55,0,0
176495,-250,4,2,1,55,0,0
176589,-76.9230769230769,4,2,1,55,0,0
176683,-250,4,2,1,55,0,0
177386,-76.9230769230769,4,2,1,55,0,0
178560,-250,4,2,1,55,0,0
179026,-76.9230769230769,4,2,1,55,0,0
180808,-250,4,2,1,55,0,0
180901,-76.9230769230769,4,2,1,55,0,0
180995,-250,4,2,1,55,0,0
181089,-76.9230769230769,4,2,1,55,0,0
181183,-250,4,2,1,55,0,0
182026,-76.9230769230769,4,2,1,55,0,0
182120,-250,4,2,1,55,0,0
182214,-76.9230769230769,4,2,1,55,0,0
182308,-250,4,2,1,55,0,0
182401,-76.9230769230769,4,2,1,55,0,0
182495,-250,4,2,1,55,0,0
182589,-76.9230769230769,4,2,1,55,0,0
182683,-200,4,2,1,55,0,0
183386,-76.9230769230769,4,2,1,55,0,0
184136,-200,4,2,1,55,0,0
185026,-76.9230769230769,4,2,1,55,0,0
185131,-200,4,2,1,55,0,0
185214,-76.9230769230769,4,2,1,55,0,0
185308,-200,4,2,1,55,0,0
185401,-76.9230769230769,4,2,1,55,0,0
185495,-200,4,2,1,55,0,0
185589,-76.9230769230769,4,2,1,55,0,0
187558,-250,4,2,1,55,0,0
187651,-76.9230769230769,4,2,1,55,0,0
187933,-250,4,2,1,55,0,0
188026,-76.9230769230769,4,2,1,55,0,0
188308,-76.9230769230769,4,2,1,55,0,0
188495,-250,4,2,1,55,0,0
188589,-76.9230769230769,4,2,1,55,0,0
188683,-166.666666666667,4,2,1,55,0,0
189386,-76.9230769230769,4,2,1,55,0,0
190558,-200,4,2,1,55,0,0
191308,-250,4,2,1,55,0,0
191401,-76.9230769230769,4,2,1,55,0,0
191495,-250,4,2,1,55,0,0
191589,-76.9230769230769,4,2,1,55,0,0
192808,-250,4,2,1,55,0,0
192901,-76.9230769230769,4,2,1,55,0,0
192995,-250,4,2,1,55,0,0
193089,-76.9230769230769,4,2,1,55,0,0
204433,-250,4,2,1,55,0,0
204526,-76.9230769230769,4,2,1,55,0,0
204620,-250,4,2,1,55,0,0
204714,-76.9230769230769,4,2,1,55,0,0
204808,-250,4,2,1,55,0,0
204901,-76.9230769230769,4,2,1,55,0,0

[Colours]
Combo1 : 0,53,79
Combo2 : 255,149,79
Combo3 : 189,98,121
Combo4 : 255,255,174

[HitObjects]
448,192,1230,128,0,7230:0:0:0:0:
64,192,1230,128,0,7230:0:0:0:0:
213,192,1230,128,0,7230:0:0:0:0:
298,192,1230,128,0,7230:0:0:0:0:
320,192,7980,1,0,0:0:0:0:
192,192,7980,1,0,0:0:0:0:
42,192,7980,1,0,0:0:0:0:
469,192,7980,1,0,0:0:0:0:
320,192,9480,1,0,0:0:0:0:
192,192,9480,1,0,0:0:0:0:
469,192,9480,1,0,0:0:0:0:
42,192,9480,1,0,0:0:0:0:
64,192,10230,128,0,13230:0:0:0:0:
448,192,10230,128,0,13230:0:0:0:0:
128,192,10230,128,0,13230:0:0:0:0:
384,192,10230,128,0,13230:0:0:0:0:
192,192,10980,1,0,0:0:0:0:
320,192,10980,1,0,0:0:0:0:
192,192,12480,1,0,0:0:0:0:
320,192,12480,1,0,0:0:0:0:
320,192,13230,1,0,0:0:0:0:
448,192,13417,1,0,0:0:0:0:
320,192,13417,1,0,0:0:0:0:
64,192,13605,1,0,0:0:0:0:
192,192,13605,1,0,0:0:0:0:
448,192,13792,1,0,0:0:0:0:
320,192,13792,1,0,0:0:0:0:
448,192,13980,1,0,0:0:0:0:
320,192,13980,1,0,0:0:0:0:
320,192,14167,1,0,0:0:0:0:
192,192,14355,1,0,0:0:0:0:
64,192,14542,1,0,0:0:0:0:
192,192,14542,1,0,0:0:0:0:
64,192,14730,1,0,0:0:0:0:
192,192,14730,1,0,0:0:0:0:
192,192,14917,1,0,0:0:0:0:
320,192,15105,1,0,0:0:0:0:
448,192,15292,1,0,0:0:0:0:
320,192,15292,1,0,0:0:0:0:
320,192,15480,1,0,0:0:0:0:
192,192,15667,1,0,0:0:0:0:
320,192,15855,1,0,0:0:0:0:
448,192,16042,1,0,0:0:0:0:
320,192,16042,1,0,0:0:0:0:
448,192,16230,1,0,0:0:0:0:
320,192,16230,1,0,0:0:0:0:
320,192,16417,1,0,0:0:0:0:
192,192,16605,1,0,0:0:0:0:
64,192,16792,1,0,0:0:0:0:
192,192,16980,1,0,0:0:0:0:
448,192,17167,1,0,0:0:0:0:
320,192,17167,1,0,0:0:0:0:
64,192,17355,1,0,0:0:0:0:
192,192,17355,1,0,0:0:0:0:
320,192,17542,1,0,0:0:0:0:
448,192,17730,1,0,0:0:0:0:
320,192,17730,1,0,0:0:0:0:
320,192,17917,1,0,0:0:0:0:
192,192,18105,1,0,0:0:0:0:
448,192,18292,1,0,0:0:0:0:
320,192,18292,1,0,0:0:0:0:
192,192,18480,1,0,0:0:0:0:
448,192,18667,1,0,0:0:0:0:
320,192,18667,1,0,0:0:0:0:
192,192,18855,1,0,0:0:0:0:
320,192,19042,1,0,0:0:0:0:
448,192,19230,1,0,0:0:0:0:
320,192,19230,1,0,0:0:0:0:
320,192,19417,1,0,0:0:0:0:
192,192,19605,1,0,0:0:0:0:
320,192,19792,1,0,0:0:0:0:
448,192,19792,1,0,0:0:0:0:
320,192,19980,1,0,0:0:0:0:
448,192,19980,1,0,0:0:0:0:
64,192,20167,1,0,0:0:0:0:
192,192,20167,1,0,0:0:0:0:
448,192,20355,1,0,0:0:0:0:
320,192,20355,1,0,0:0:0:0:
64,192,20542,1,0,0:0:0:0:
192,192,20542,1,0,0:0:0:0:
64,192,20730,1,0,0:0:0:0:
192,192,20730,1,0,0:0:0:0:
192,192,20917,1,0,0:0:0:0:
320,192,21105,1,0,0:0:0:0:
192,192,21292,1,0,0:0:0:0:
320,192,21480,1,0,0:0:0:0:
448,192,21667,1,0,0:0:0:0:
320,192,21667,1,0,0:0:0:0:
64,192,21855,1,0,0:0:0:0:
192,192,21855,1,0,0:0:0:0:
448,192,22042,1,0,0:0:0:0:
320,192,22042,1,0,0:0:0:0:
64,192,22230,1,0,0:0:0:0:
192,192,22230,1,0,0:0:0:0:
320,192,22417,1,0,0:0:0:0:
192,192,22605,1,0,0:0:0:0:
64,192,22792,1,0,0:0:0:0:
192,192,22792,1,0,0:0:0:0:
192,192,22980,1,0,0:0:0:0:
64,192,23167,1,0,0:0:0:0:
192,192,23167,1,0,0:0:0:0:
320,192,23355,1,0,0:0:0:0:
448,192,23542,1,0,0:0:0:0:
320,192,23542,1,0,0:0:0:0:
64,192,23730,1,0,0:0:0:0:
192,192,23730,1,0,0:0:0:0:
320,192,23917,1,0,0:0:0:0:
64,192,24105,1,0,0:0:0:0:
192,192,24105,1,0,0:0:0:0:
320,192,24292,1,0,0:0:0:0:
192,192,24480,1,0,0:0:0:0:
64,192,24855,1,0,0:0:0:0:
448,192,24855,1,0,0:0:0:0:
192,192,25230,1,0,0:0:0:0:
320,192,25230,1,0,0:0:0:0:
448,192,25230,1,0,0:0:0:0:
64,192,25230,1,0,0:0:0:0:
448,192,26730,1,0,0:0:0:0:
320,192,26730,1,0,0:0:0:0:
64,192,27105,1,0,0:0:0:0:
192,192,27105,1,0,0:0:0:0:
448,192,27292,1,0,0:0:0:0:
320,192,27292,1,0,0:0:0:0:
64,192,27480,1,0,0:0:0:0:
192,192,27480,1,0,0:0:0:0:
448,192,27855,1,0,0:0:0:0:
320,192,27855,1,0,0:0:0:0:
192,192,28230,1,0,0:0:0:0:
64,192,28230,1,0,0:0:0:0:
448,192,28417,1,0,0:0:0:0:
320,192,28417,1,0,0:0:0:0:
192,192,28605,1,0,0:0:0:0:
64,192,28605,1,0,0:0:0:0:
448,192,28792,1,0,0:0:0:0:
320,192,28792,1,0,0:0:0:0:
192,192,28980,1,0,0:0:0:0:
64,192,28980,1,0,0:0:0:0:
448,192,29355,1,0,0:0:0:0:
320,192,29355,1,0,0:0:0:0:
64,192,29730,1,0,0:0:0:0:
448,192,29730,1,0,0:0:0:0:
64,192,29917,1,0,0:0:0:0:
448,192,29917,1,0,0:0:0:0:
64,192,30105,1,0,0:0:0:0:
448,192,30105,1,0,0:0:0:0:
64,192,30292,1,0,0:0:0:0:
448,192,30292,1,0,0:0:0:0:
64,192,30480,1,0,0:0:0:0:
448,192,30480,1,0,0:0:0:0:
64,192,30855,1,0,0:0:0:0:
192,192,30855,1,0,0:0:0:0:
192,192,31230,1,0,0:0:0:0:
64,192,31230,1,0,0:0:0:0:
448,192,31417,1,0,0:0:0:0:
320,192,31417,1,0,0:0:0:0:
192,192,31605,1,0,0:0:0:0:
64,192,31605,1,0,0:0:0:0:
64,192,31792,1,0,0:0:0:0:
192,192,31792,1,0,0:0:0:0:
448,192,31886,1,0,0:0:0:0:
192,192,31980,1,0,0:0:0:0:
64,192,31980,1,0,0:0:0:0:
448,192,32167,1,0,0:0:0:0:
320,192,32167,1,0,0:0:0:0:
448,192,32355,1,0,0:0:0:0:
320,192,32355,1,0,0:0:0:0:
448,192,32542,1,0,0:0:0:0:
320,192,32542,1,0,0:0:0:0:
64,192,32730,1,0,0:0:0:0:
192,192,32730,1,0,0:0:0:0:
64,192,32917,1,0,0:0:0:0:
192,192,32917,1,0,0:0:0:0:
64,192,33105,1,0,0:0:0:0:
192,192,33105,1,0,0:0:0:0:
64,192,33292,1,0,0:0:0:0:
192,192,33292,1,0,0:0:0:0:
448,192,33386,1,0,0:0:0:0:
64,192,33480,1,0,0:0:0:0:
192,192,33480,1,0,0:0:0:0:
64,192,33667,1,0,0:0:0:0:
192,192,33667,1,0,0:0:0:0:
64,192,33855,1,0,0:0:0:0:
192,192,33855,1,0,0:0:0:0:
64,192,34042,1,0,0:0:0:0:
192,192,34042,1,0,0:0:0:0:
320,192,34230,128,0,35730:0:0:0:0:
192,192,34230,128,0,35730:0:0:0:0:
64,192,36105,1,0,0:0:0:0:
448,192,36105,1,0,0:0:0:0:
192,192,36480,1,0,0:0:0:0:
320,192,36480,1,0,0:0:0:0:
64,192,36855,1,0,0:0:0:0:
448,192,36855,1,0,0:0:0:0:
64,192,37230,128,0,37980:0:0:0:0:
192,192,37230,128,0,37980:0:0:0:0:
128,192,37230,128,0,37980:0:0:0:0:
320,192,37980,1,0,0:0:0:0:
448,192,38355,1,0,0:0:0:0:
320,192,38355,1,0,0:0:0:0:
384,192,38355,1,0,0:0:0:0:
448,192,38542,1,0,0:0:0:0:
320,192,38542,1,0,0:0:0:0:
384,192,38542,1,0,0:0:0:0:
64,192,38730,1,0,0:0:0:0:
192,192,38730,1,0,0:0:0:0:
128,192,38730,1,0,0:0:0:0:
320,192,38917,1,0,0:0:0:0:
192,192,39105,1,0,0:0:0:0:
320,192,39292,1,0,0:0:0:0:
64,192,39480,1,0,0:0:0:0:
192,192,39480,1,0,0:0:0:0:
320,192,39667,1,0,0:0:0:0:
192,192,39855,1,0,0:0:0:0:
64,192,40230,128,0,40980:0:0:0:0:
192,192,40230,128,0,40980:0:0:0:0:
128,192,40230,128,0,40980:0:0:0:0:
320,192,40605,128,0,40980:0:0:0:0:
384,192,40605,128,0,40980:0:0:0:0:
448,192,41355,1,0,0:0:0:0:
320,192,41355,1,0,0:0:0:0:
384,192,41355,1,0,0:0:0:0:
448,192,41542,1,0,0:0:0:0:
320,192,41542,1,0,0:0:0:0:
384,192,41542,1,0,0:0:0:0:
192,192,41730,1,0,0:0:0:0:
64,192,41917,1,0,0:0:0:0:
192,192,42105,1,0,0:0:0:0:
320,192,42292,1,0,0:0:0:0:
192,192,42480,1,0,0:0:0:0:
320,192,42667,1,0,0:0:0:0:
64,192,42855,1,0,0:0:0:0:
448,192,43042,1,0,0:0:0:0:
64,192,43230,128,0,43980:0:0:0:0:
320,192,43230,128,0,43980:0:0:0:0:
128,192,43230,128,0,43980:0:0:0:0:
384,192,43230,128,0,43980:0:0:0:0:
192,192,43605,1,0,0:0:0:0:
448,192,43605,1,0,0:0:0:0:
192,192,43980,1,0,0:0:0:0:
448,192,43980,1,0,0:0:0:0:
448,192,44355,1,0,0:0:0:0:
320,192,44355,1,0,0:0:0:0:
213,192,44355,1,0,0:0:0:0:
448,192,44542,1,0,0:0:0:0:
320,192,44542,1,0,0:0:0:0:
213,192,44542,1,0,0:0:0:0:
64,192,44730,1,0,0:0:0:0:
192,192,44917,1,0,0:0:0:0:
64,192,45105,1,0,0:0:0:0:
448,192,45292,1,0,0:0:0:0:
320,192,45292,1,0,0:0:0:0:
192,192,45480,1,0,0:0:0:0:
64,192,45480,1,0,0:0:0:0:
448,192,45667,1,0,0:0:0:0:
320,192,45667,1,0,0:0:0:0:
192,192,45855,1,0,0:0:0:0:
64,192,45855,1,0,0:0:0:0:
64,192,46230,128,0,46980:0:0:0:0:
192,192,46230,128,0,46980:0:0:0:0:
128,192,46230,128,0,46980:0:0:0:0:
320,192,46605,128,0,46980:0:0:0:0:
448,192,46980,1,0,0:0:0:0:
448,192,47355,1,0,0:0:0:0:
320,192,47355,1,0,0:0:0:0:
448,192,47542,1,0,0:0:0:0:
320,192,47542,1,0,0:0:0:0:
64,192,47730,1,0,0:0:0:0:
192,192,47917,1,0,0:0:0:0:
320,192,48105,1,0,0:0:0:0:
448,192,48292,1,0,0:0:0:0:
320,192,48480,1,0,0:0:0:0:
64,192,48855,1,0,0:0:0:0:
320,192,48855,1,0,0:0:0:0:
320,192,49042,1,0,0:0:0:0:
64,192,49042,1,0,0:0:0:0:
64,192,49230,128,0,49980:0:0:0:0:
320,192,49230,128,0,49980:0:0:0:0:
384,192,49230,128,0,49980:0:0:0:0:
128,192,49230,128,0,49980:0:0:0:0:
448,192,50355,1,0,0:0:0:0:
320,192,50355,1,0,0:0:0:0:
448,192,50542,1,0,0:0:0:0:
320,192,50542,1,0,0:0:0:0:
64,192,50730,1,0,0:0:0:0:
192,192,50917,1,0,0:0:0:0:
320,192,51105,1,0,0:0:0:0:
448,192,51292,1,0,0:0:0:0:
64,192,51480,1,0,0:0:0:0:
320,192,51667,1,0,0:0:0:0:
448,192,51855,1,0,0:0:0:0:
64,192,52230,128,0,52980:0:0:0:0:
128,192,52230,128,0,52980:0:0:0:0:
320,192,52511,1,0,0:0:0:0:
192,192,52792,1,0,0:0:0:0:
320,192,52980,1,0,0:0:0:0:
448,192,53355,1,0,0:0:0:0:
320,192,53355,1,0,0:0:0:0:
448,192,53542,1,0,0:0:0:0:
320,192,53542,1,0,0:0:0:0:
64,192,53730,1,0,0:0:0:0:
192,192,53917,1,0,0:0:0:0:
320,192,54105,1,0,0:0:0:0:
448,192,54292,1,0,0:0:0:0:
192,192,54480,1,0,0:0:0:0:
320,192,54667,1,0,0:0:0:0:
64,192,54855,1,0,0:0:0:0:
448,192,55042,1,0,0:0:0:0:
64,192,55230,128,0,55980:0:0:0:0:
192,192,55230,128,0,55980:0:0:0:0:
128,192,55230,128,0,55980:0:0:0:0:
320,192,55605,1,0,0:0:0:0:
448,192,55605,1,0,0:0:0:0:
320,192,55980,1,0,0:0:0:0:
448,192,55980,1,0,0:0:0:0:
448,192,56355,1,0,0:0:0:0:
320,192,56542,1,0,0:0:0:0:
64,192,56730,1,0,0:0:0:0:
192,192,56917,1,0,0:0:0:0:
64,192,57105,1,0,0:0:0:0:
448,192,57292,1,0,0:0:0:0:
320,192,57480,1,0,0:0:0:0:
448,192,57667,1,0,0:0:0:0:
320,192,57855,1,0,0:0:0:0:
64,192,58230,128,0,58980:0:0:0:0:
128,192,58230,128,0,58980:0:0:0:0:
192,192,58605,128,0,58980:0:0:0:0:
320,192,58980,1,0,0:0:0:0:
448,192,58980,1,0,0:0:0:0:
448,192,59355,1,0,0:0:0:0:
64,192,59355,1,0,0:0:0:0:
448,192,59542,1,0,0:0:0:0:
64,192,59542,1,0,0:0:0:0:
448,192,59730,1,0,0:0:0:0:
320,192,59917,1,0,0:0:0:0:
192,192,60105,1,0,0:0:0:0:
64,192,60292,1,0,0:0:0:0:
320,192,60480,1,0,0:0:0:0:
448,192,60855,1,0,0:0:0:0:
64,192,60855,1,0,0:0:0:0:
64,192,61042,1,0,0:0:0:0:
448,192,61042,1,0,0:0:0:0:
64,192,61230,128,0,61980:0:0:0:0:
448,192,61230,128,0,61980:0:0:0:0:
128,192,61230,128,0,61980:0:0:0:0:
384,192,61230,128,0,61980:0:0:0:0:
448,192,62167,1,0,0:0:0:0:
448,192,62355,1,0,0:0:0:0:
448,192,62542,1,0,0:0:0:0:
192,192,62730,1,0,0:0:0:0:
192,192,62917,1,0,0:0:0:0:
192,192,63105,1,0,0:0:0:0:
192,192,63292,1,0,0:0:0:0:
192,192,63480,128,0,64230:0:0:0:0:
298,192,63480,128,0,64230:0:0:0:0:
64,192,64230,128,0,64980:0:0:0:0:
448,192,64230,128,0,64980:0:0:0:0:
320,192,64605,128,0,64980:0:0:0:0:
448,192,65167,1,0,0:0:0:0:
448,192,65355,1,0,0:0:0:0:
448,192,65542,1,0,0:0:0:0:
320,192,65730,128,0,66105:0:0:0:0:
192,192,65730,128,0,66105:0:0:0:0:
128,192,65730,128,0,66105:0:0:0:0:
384,192,65730,128,0,66105:0:0:0:0:
192,192,66292,1,0,0:0:0:0:
448,192,66480,1,0,0:0:0:0:
64,192,66667,1,0,0:0:0:0:
320,192,66855,1,0,0:0:0:0:
192,192,67042,1,0,0:0:0:0:
64,192,67230,128,0,67980:0:0:0:0:
448,192,67230,128,0,67980:0:0:0:0:
128,192,67230,128,0,67980:0:0:0:0:
384,192,67230,128,0,67980:0:0:0:0:
320,192,67605,1,0,0:0:0:0:
192,192,67605,1,0,0:0:0:0:
192,192,67980,1,0,0:0:0:0:
320,192,67980,1,0,0:0:0:0:
192,192,68167,1,0,0:0:0:0:
64,192,68167,1,0,0:0:0:0:
448,192,68355,1,0,0:0:0:0:
320,192,68355,1,0,0:0:0:0:
192,192,68542,1,0,0:0:0:0:
64,192,68542,1,0,0:0:0:0:
320,192,68730,128,0,69480:0:0:0:0:
384,192,68730,128,0,69480:0:0:0:0:
192,192,69480,128,0,70230:0:0:0:0:
448,192,69480,128,0,70230:0:0:0:0:
128,192,69480,128,0,70230:0:0:0:0:
64,192,70230,128,0,70980:0:0:0:0:
192,192,70605,128,0,70980:0:0:0:0:
128,192,70605,128,0,70980:0:0:0:0:
320,192,70980,1,0,0:0:0:0:
448,192,71355,1,0,0:0:0:0:
320,192,71355,1,0,0:0:0:0:
192,192,71355,1,0,0:0:0:0:
448,192,71542,1,0,0:0:0:0:
320,192,71542,1,0,0:0:0:0:
192,192,71542,1,0,0:0:0:0:
64,192,71730,1,0,0:0:0:0:
320,192,71917,1,0,0:0:0:0:
192,192,72105,1,0,0:0:0:0:
448,192,72480,1,0,0:0:0:0:
192,192,72855,1,0,0:0:0:0:
448,192,72855,1,0,0:0:0:0:
192,192,73042,1,0,0:0:0:0:
448,192,73042,1,0,0:0:0:0:
64,192,73230,128,0,73980:0:0:0:0:
320,192,73230,128,0,73980:0:0:0:0:
128,192,73230,128,0,73980:0:0:0:0:
384,192,73230,128,0,73980:0:0:0:0:
448,192,74167,1,0,0:0:0:0:
448,192,74355,1,0,0:0:0:0:
448,192,74542,1,0,0:0:0:0:
320,192,74730,128,0,76230:0:0:0:0:
384,192,74730,128,0,76230:0:0:0:0:
192,192,75480,128,0,76230:0:0:0:0:
128,192,75480,128,0,76230:0:0:0:0:
64,192,76230,128,0,76980:0:0:0:0:
192,192,76605,128,0,76980:0:0:0:0:
128,192,76605,128,0,76980:0:0:0:0:
320,192,76980,1,0,0:0:0:0:
192,192,77167,1,0,0:0:0:0:
64,192,77167,1,0,0:0:0:0:
320,192,77355,1,0,0:0:0:0:
192,192,77355,1,0,0:0:0:0:
448,192,77542,1,0,0:0:0:0:
320,192,77542,1,0,0:0:0:0:
192,192,77730,1,0,0:0:0:0:
320,192,77730,1,0,0:0:0:0:
64,192,77917,1,0,0:0:0:0:
192,192,77917,1,0,0:0:0:0:
192,192,78105,1,0,0:0:0:0:
320,192,78105,1,0,0:0:0:0:
448,192,78292,1,0,0:0:0:0:
320,192,78292,1,0,0:0:0:0:
448,192,78480,1,0,0:0:0:0:
64,192,78667,1,0,0:0:0:0:
320,192,78855,1,0,0:0:0:0:
192,192,79042,1,0,0:0:0:0:
64,192,79230,128,0,79980:0:0:0:0:
448,192,79230,128,0,79980:0:0:0:0:
128,192,79230,128,0,79980:0:0:0:0:
384,192,79230,128,0,79980:0:0:0:0:
192,192,79605,1,0,0:0:0:0:
320,192,79605,1,0,0:0:0:0:
192,192,79980,1,0,0:0:0:0:
320,192,79980,1,0,0:0:0:0:
448,192,80355,1,0,0:0:0:0:
320,192,80355,1,0,0:0:0:0:
448,192,80542,1,0,0:0:0:0:
320,192,80542,1,0,0:0:0:0:
320,192,80730,128,0,81480:0:0:0:0:
384,192,80730,128,0,81480:0:0:0:0:
192,192,81480,128,0,82230:0:0:0:0:
448,192,81480,128,0,82230:0:0:0:0:
128,192,81480,128,0,82230:0:0:0:0:
64,192,82230,128,0,82980:0:0:0:0:
192,192,82605,128,0,82980:0:0:0:0:
128,192,82605,128,0,82980:0:0:0:0:
320,192,82980,1,0,0:0:0:0:
448,192,83355,1,0,0:0:0:0:
320,192,83355,1,0,0:0:0:0:
192,192,83355,1,0,0:0:0:0:
448,192,83542,1,0,0:0:0:0:
320,192,83542,1,0,0:0:0:0:
192,192,83542,1,0,0:0:0:0:
64,192,83730,1,0,0:0:0:0:
192,192,83730,1,0,0:0:0:0:
448,192,83917,1,0,0:0:0:0:
320,192,83917,1,0,0:0:0:0:
192,192,84105,1,0,0:0:0:0:
64,192,84105,1,0,0:0:0:0:
448,192,84480,1,0,0:0:0:0:
320,192,84480,1,0,0:0:0:0:
320,192,84855,1,0,0:0:0:0:
320,192,85042,1,0,0:0:0:0:
64,192,85230,1,0,0:0:0:0:
192,192,85230,1,0,0:0:0:0:
320,192,85417,1,0,0:0:0:0:
192,192,85417,1,0,0:0:0:0:
320,192,85605,1,0,0:0:0:0:
448,192,85605,1,0,0:0:0:0:
320,192,85792,1,0,0:0:0:0:
192,192,85792,1,0,0:0:0:0:
192,192,85980,1,0,0:0:0:0:
64,192,85980,1,0,0:0:0:0:
192,192,86167,1,0,0:0:0:0:
320,192,86167,1,0,0:0:0:0:
64,192,86355,1,0,0:0:0:0:
192,192,86355,1,0,0:0:0:0:
64,192,86542,1,0,0:0:0:0:
192,192,86542,1,0,0:0:0:0:
448,192,86730,1,0,0:0:0:0:
320,192,86730,1,0,0:0:0:0:
64,192,86917,1,0,0:0:0:0:
192,192,86917,1,0,0:0:0:0:
448,192,87105,1,0,0:0:0:0:
320,192,87105,1,0,0:0:0:0:
320,192,87292,1,0,0:0:0:0:
192,192,87480,1,0,0:0:0:0:
320,192,87480,1,0,0:0:0:0:
448,192,87667,1,0,0:0:0:0:
320,192,87667,1,0,0:0:0:0:
64,192,87855,1,0,0:0:0:0:
192,192,87855,1,0,0:0:0:0:
448,192,88042,1,0,0:0:0:0:
320,192,88042,1,0,0:0:0:0:
192,192,88230,1,0,0:0:0:0:
320,192,88417,1,0,0:0:0:0:
192,192,88605,1,0,0:0:0:0:
320,192,88792,1,0,0:0:0:0:
64,192,88980,1,0,0:0:0:0:
192,192,88980,1,0,0:0:0:0:
448,192,89167,1,0,0:0:0:0:
320,192,89167,1,0,0:0:0:0:
64,192,89355,1,0,0:0:0:0:
192,192,89355,1,0,0:0:0:0:
320,192,89542,1,0,0:0:0:0:
64,192,89730,1,0,0:0:0:0:
192,192,89730,1,0,0:0:0:0:
192,192,89917,1,0,0:0:0:0:
448,192,90105,1,0,0:0:0:0:
320,192,90105,1,0,0:0:0:0:
192,192,90292,1,0,0:0:0:0:
320,192,90480,1,0,0:0:0:0:
64,192,90667,1,0,0:0:0:0:
192,192,90667,1,0,0:0:0:0:
448,192,90855,1,0,0:0:0:0:
320,192,90855,1,0,0:0:0:0:
192,192,91042,1,0,0:0:0:0:
64,192,91042,1,0,0:0:0:0:
448,192,91230,1,0,0:0:0:0:
320,192,91230,1,0,0:0:0:0:
192,192,91417,1,0,0:0:0:0:
64,192,91417,1,0,0:0:0:0:
320,192,91605,1,0,0:0:0:0:
64,192,91792,1,0,0:0:0:0:
192,192,91792,1,0,0:0:0:0:
448,192,91980,1,0,0:0:0:0:
320,192,91980,1,0,0:0:0:0:
64,192,92167,1,0,0:0:0:0:
192,192,92167,1,0,0:0:0:0:
448,192,92355,1,0,0:0:0:0:
320,192,92355,1,0,0:0:0:0:
64,192,92542,1,0,0:0:0:0:
192,192,92542,1,0,0:0:0:0:
320,192,92730,1,0,0:0:0:0:
192,192,92917,1,0,0:0:0:0:
192,192,93105,1,0,0:0:0:0:
448,192,93292,1,0,0:0:0:0:
320,192,93292,1,0,0:0:0:0:
448,192,93480,1,0,0:0:0:0:
320,192,93480,1,0,0:0:0:0:
64,192,93667,1,0,0:0:0:0:
192,192,93667,1,0,0:0:0:0:
320,192,93855,1,0,0:0:0:0:
64,192,94042,1,0,0:0:0:0:
192,192,94042,1,0,0:0:0:0:
192,192,94230,1,0,0:0:0:0:
448,192,94417,1,0,0:0:0:0:
320,192,94417,1,0,0:0:0:0:
448,192,94605,1,0,0:0:0:0:
320,192,94605,1,0,0:0:0:0:
448,192,94792,1,0,0:0:0:0:
320,192,94792,1,0,0:0:0:0:
64,192,94980,1,0,0:0:0:0:
192,192,94980,1,0,0:0:0:0:
320,192,95167,1,0,0:0:0:0:
192,192,95355,1,0,0:0:0:0:
448,192,95542,1,0,0:0:0:0:
320,192,95542,1,0,0:0:0:0:
64,192,95730,1,0,0:0:0:0:
192,192,95730,1,0,0:0:0:0:
320,192,95917,1,0,0:0:0:0:
64,192,96105,1,0,0:0:0:0:
192,192,96105,1,0,0:0:0:0:
64,192,96292,1,0,0:0:0:0:
192,192,96292,1,0,0:0:0:0:
448,192,96480,1,0,0:0:0:0:
192,192,96480,1,0,0:0:0:0:
320,192,96480,1,0,0:0:0:0:
192,192,96667,1,0,0:0:0:0:
448,192,96667,1,0,0:0:0:0:
320,192,96667,1,0,0:0:0:0:
448,192,96855,1,0,0:0:0:0:
192,192,96855,1,0,0:0:0:0:
320,192,96855,1,0,0:0:0:0:
320,192,97230,1,0,0:0:0:0:
448,192,97230,1,0,0:0:0:0:
64,192,97417,1,0,0:0:0:0:
192,192,97417,1,0,0:0:0:0:
448,192,97605,1,0,0:0:0:0:
320,192,97605,1,0,0:0:0:0:
192,192,97792,1,0,0:0:0:0:
64,192,97792,1,0,0:0:0:0:
320,192,97980,1,0,0:0:0:0:
448,192,97980,1,0,0:0:0:0:
64,192,98167,1,0,0:0:0:0:
192,192,98167,1,0,0:0:0:0:
448,192,98355,1,0,0:0:0:0:
320,192,98355,1,0,0:0:0:0:
64,192,98542,1,0,0:0:0:0:
192,192,98542,1,0,0:0:0:0:
320,192,98730,1,0,0:0:0:0:
192,192,98917,1,0,0:0:0:0:
448,192,99105,1,0,0:0:0:0:
320,192,99105,1,0,0:0:0:0:
64,192,99292,1,0,0:0:0:0:
192,192,99292,1,0,0:0:0:0:
320,192,99480,1,0,0:0:0:0:
192,192,99667,1,0,0:0:0:0:
448,192,99855,1,0,0:0:0:0:
320,192,99855,1,0,0:0:0:0:
64,192,100042,1,0,0:0:0:0:
192,192,100042,1,0,0:0:0:0:
448,192,100230,1,0,0:0:0:0:
320,192,100230,1,0,0:0:0:0:
64,192,100417,1,0,0:0:0:0:
192,192,100417,1,0,0:0:0:0:
320,192,100605,1,0,0:0:0:0:
192,192,100792,1,0,0:0:0:0:
448,192,100980,1,0,0:0:0:0:
320,192,100980,1,0,0:0:0:0:
192,192,101167,1,0,0:0:0:0:
448,192,101355,1,0,0:0:0:0:
320,192,101355,1,0,0:0:0:0:
64,192,101542,1,0,0:0:0:0:
192,192,101542,1,0,0:0:0:0:
448,192,101730,1,0,0:0:0:0:
320,192,101730,1,0,0:0:0:0:
192,192,101917,1,0,0:0:0:0:
192,192,102105,1,0,0:0:0:0:
320,192,102292,1,0,0:0:0:0:
64,192,102480,1,0,0:0:0:0:
192,192,102480,1,0,0:0:0:0:
448,192,102667,1,0,0:0:0:0:
320,192,102667,1,0,0:0:0:0:
448,192,102855,1,0,0:0:0:0:
320,192,102855,1,0,0:0:0:0:
192,192,103042,1,0,0:0:0:0:
320,192,103230,1,0,0:0:0:0:
192,192,103417,1,0,0:0:0:0:
448,192,103605,1,0,0:0:0:0:
320,192,103605,1,0,0:0:0:0:
64,192,103792,1,0,0:0:0:0:
192,192,103792,1,0,0:0:0:0:
448,192,103980,1,0,0:0:0:0:
320,192,103980,1,0,0:0:0:0:
64,192,104167,1,0,0:0:0:0:
192,192,104167,1,0,0:0:0:0:
64,192,104355,1,0,0:0:0:0:
192,192,104355,1,0,0:0:0:0:
320,192,104542,1,0,0:0:0:0:
448,192,104730,1,0,0:0:0:0:
320,192,104730,1,0,0:0:0:0:
64,192,104917,1,0,0:0:0:0:
192,192,104917,1,0,0:0:0:0:
320,192,105105,1,0,0:0:0:0:
192,192,105292,1,0,0:0:0:0:
192,192,105480,1,0,0:0:0:0:
448,192,105667,1,0,0:0:0:0:
320,192,105667,1,0,0:0:0:0:
64,192,105855,1,0,0:0:0:0:
192,192,105855,1,0,0:0:0:0:
448,192,106042,1,0,0:0:0:0:
320,192,106042,1,0,0:0:0:0:
192,192,106230,1,0,0:0:0:0:
320,192,106417,1,0,0:0:0:0:
64,192,106605,1,0,0:0:0:0:
192,192,106605,1,0,0:0:0:0:
448,192,106792,1,0,0:0:0:0:
320,192,106792,1,0,0:0:0:0:
192,192,106980,1,0,0:0:0:0:
448,192,107167,1,0,0:0:0:0:
320,192,107167,1,0,0:0:0:0:
320,192,107355,1,0,0:0:0:0:
448,192,107542,1,0,0:0:0:0:
320,192,107542,1,0,0:0:0:0:
64,192,107730,1,0,0:0:0:0:
192,192,107730,1,0,0:0:0:0:
320,192,107917,1,0,0:0:0:0:
192,192,108105,1,0,0:0:0:0:
448,192,108292,1,0,0:0:0:0:
320,192,108292,1,0,0:0:0:0:
64,192,108480,1,0,0:0:0:0:
192,192,108480,1,0,0:0:0:0:
192,192,108667,1,0,0:0:0:0:
64,192,108855,1,0,0:0:0:0:
192,192,109042,1,0,0:0:0:0:
64,192,109230,128,0,118230:0:0:0:0:
448,192,109230,1,0,0:0:0:0:
320,192,109230,1,0,0:0:0:0:
320,192,109417,1,0,0:0:0:0:
192,192,109417,1,0,0:0:0:0:
448,192,109605,1,0,0:0:0:0:
320,192,109605,1,0,0:0:0:0:
192,192,109792,1,0,0:0:0:0:
320,192,109792,1,0,0:0:0:0:
448,192,109980,1,0,0:0:0:0:
320,192,110167,1,0,0:0:0:0:
192,192,110355,1,0,0:0:0:0:
448,192,110542,1,0,0:0:0:0:
320,192,110730,1,0,0:0:0:0:
448,192,110917,1,0,0:0:0:0:
320,192,111105,1,0,0:0:0:0:
192,192,111292,1,0,0:0:0:0:
448,192,111480,1,0,0:0:0:0:
320,192,111667,1,0,0:0:0:0:
320,192,111855,1,0,0:0:0:0:
192,192,112042,1,0,0:0:0:0:
448,192,112230,1,0,0:0:0:0:
320,192,112417,1,0,0:0:0:0:
192,192,112605,1,0,0:0:0:0:
448,192,112792,1,0,0:0:0:0:
320,192,112980,1,0,0:0:0:0:
192,192,113167,1,0,0:0:0:0:
320,192,113355,1,0,0:0:0:0:
448,192,113542,1,0,0:0:0:0:
320,192,113730,1,0,0:0:0:0:
448,192,113917,1,0,0:0:0:0:
320,192,114105,1,0,0:0:0:0:
192,192,114292,1,0,0:0:0:0:
320,192,114480,1,0,0:0:0:0:
192,192,114667,1,0,0:0:0:0:
320,192,114855,1,0,0:0:0:0:
192,192,115042,1,0,0:0:0:0:
448,192,115230,1,0,0:0:0:0:
320,192,115230,1,0,0:0:0:0:
192,192,115417,1,0,0:0:0:0:
320,192,115417,1,0,0:0:0:0:
448,192,115605,1,0,0:0:0:0:
320,192,115605,1,0,0:0:0:0:
192,192,115792,1,0,0:0:0:0:
320,192,115792,1,0,0:0:0:0:
448,192,115980,1,0,0:0:0:0:
320,192,115980,1,0,0:0:0:0:
448,192,116167,1,0,0:0:0:0:
320,192,116167,1,0,0:0:0:0:
192,192,116355,1,0,0:0:0:0:
320,192,116355,1,0,0:0:0:0:
192,192,116542,1,0,0:0:0:0:
320,192,116542,1,0,0:0:0:0:
448,192,116730,1,0,0:0:0:0:
320,192,116730,1,0,0:0:0:0:
192,192,116917,1,0,0:0:0:0:
320,192,116917,1,0,0:0:0:0:
448,192,117105,1,0,0:0:0:0:
320,192,117292,1,0,0:0:0:0:
192,192,117480,1,0,0:0:0:0:
448,192,117667,1,0,0:0:0:0:
448,192,117855,1,0,0:0:0:0:
192,192,118042,1,0,0:0:0:0:
448,192,118230,128,0,121230:0:0:0:0:
320,192,118417,1,0,0:0:0:0:
192,192,118605,1,0,0:0:0:0:
64,192,118792,1,0,0:0:0:0:
320,192,118980,1,0,0:0:0:0:
192,192,119167,1,0,0:0:0:0:
64,192,119355,1,0,0:0:0:0:
320,192,119542,1,0,0:0:0:0:
192,192,119730,1,0,0:0:0:0:
320,192,119917,1,0,0:0:0:0:
192,192,120105,1,0,0:0:0:0:
64,192,120292,1,0,0:0:0:0:
192,192,120292,1,0,0:0:0:0:
64,192,120480,1,0,0:0:0:0:
192,192,120480,1,0,0:0:0:0:
192,192,120667,1,0,0:0:0:0:
320,192,120667,1,0,0:0:0:0:
64,192,120855,1,0,0:0:0:0:
192,192,121042,1,0,0:0:0:0:
320,192,121230,1,0,0:0:0:0:
64,192,121417,1,0,0:0:0:0:
320,192,121605,1,0,0:0:0:0:
448,192,121792,1,0,0:0:0:0:
320,192,121792,1,0,0:0:0:0:
64,192,121980,1,0,0:0:0:0:
192,192,121980,1,0,0:0:0:0:
320,192,122167,1,0,0:0:0:0:
192,192,122355,1,0,0:0:0:0:
448,192,122542,1,0,0:0:0:0:
320,192,122542,1,0,0:0:0:0:
64,192,122730,1,0,0:0:0:0:
192,192,122730,1,0,0:0:0:0:
448,192,122917,1,0,0:0:0:0:
320,192,122917,1,0,0:0:0:0:
192,192,123105,1,0,0:0:0:0:
64,192,123105,1,0,0:0:0:0:
448,192,123292,1,0,0:0:0:0:
320,192,123292,1,0,0:0:0:0:
192,192,123480,1,0,0:0:0:0:
320,192,123667,1,0,0:0:0:0:
64,192,123855,1,0,0:0:0:0:
192,192,123855,1,0,0:0:0:0:
320,192,124042,1,0,0:0:0:0:
64,192,124230,1,0,0:0:0:0:
192,192,124230,1,0,0:0:0:0:
192,192,124417,1,0,0:0:0:0:
320,192,124605,1,0,0:0:0:0:
192,192,124792,1,0,0:0:0:0:
448,192,124980,1,0,0:0:0:0:
320,192,124980,1,0,0:0:0:0:
64,192,125167,1,0,0:0:0:0:
192,192,125167,1,0,0:0:0:0:
448,192,125355,1,0,0:0:0:0:
320,192,125355,1,0,0:0:0:0:
192,192,125542,1,0,0:0:0:0:
448,192,125730,1,0,0:0:0:0:
320,192,125730,1,0,0:0:0:0:
192,192,125917,1,0,0:0:0:0:
192,192,126105,1,0,0:0:0:0:
448,192,126292,1,0,0:0:0:0:
320,192,126292,1,0,0:0:0:0:
64,192,126480,1,0,0:0:0:0:
192,192,126480,1,0,0:0:0:0:
448,192,126667,1,0,0:0:0:0:
320,192,126667,1,0,0:0:0:0:
192,192,126855,1,0,0:0:0:0:
320,192,127042,1,0,0:0:0:0:
192,192,127230,1,0,0:0:0:0:
64,192,127417,1,0,0:0:0:0:
192,192,127417,1,0,0:0:0:0:
192,192,127605,1,0,0:0:0:0:
320,192,127605,1,0,0:0:0:0:
64,192,127792,1,0,0:0:0:0:
192,192,127792,1,0,0:0:0:0:
320,192,127980,1,0,0:0:0:0:
448,192,128167,1,0,0:0:0:0:
320,192,128167,1,0,0:0:0:0:
320,192,128355,1,0,0:0:0:0:
448,192,128542,1,0,0:0:0:0:
320,192,128542,1,0,0:0:0:0:
320,192,128730,1,0,0:0:0:0:
192,192,128730,1,0,0:0:0:0:
448,192,128917,1,0,0:0:0:0:
320,192,128917,1,0,0:0:0:0:
192,192,129105,1,0,0:0:0:0:
64,192,129292,1,0,0:0:0:0:
192,192,129292,1,0,0:0:0:0:
320,192,129480,1,0,0:0:0:0:
192,192,129667,1,0,0:0:0:0:
448,192,129855,1,0,0:0:0:0:
320,192,129855,1,0,0:0:0:0:
320,192,130042,1,0,0:0:0:0:
320,192,130230,1,0,0:0:0:0:
64,192,130417,1,0,0:0:0:0:
192,192,130605,1,0,0:0:0:0:
320,192,130792,1,0,0:0:0:0:
448,192,130980,1,0,0:0:0:0:
320,192,131167,1,0,0:0:0:0:
64,192,131355,1,0,0:0:0:0:
192,192,131355,1,0,0:0:0:0:
192,192,131542,1,0,0:0:0:0:
448,192,131730,1,0,0:0:0:0:
320,192,131730,1,0,0:0:0:0:
192,192,131917,1,0,0:0:0:0:
64,192,132105,1,0,0:0:0:0:
192,192,132105,1,0,0:0:0:0:
320,192,132292,1,0,0:0:0:0:
448,192,132480,1,0,0:0:0:0:
320,192,132480,1,0,0:0:0:0:
64,192,132667,1,0,0:0:0:0:
192,192,132667,1,0,0:0:0:0:
320,192,132855,1,0,0:0:0:0:
64,192,133042,1,0,0:0:0:0:
192,192,133042,1,0,0:0:0:0:
192,192,133230,1,0,0:0:0:0:
64,192,134730,1,0,0:0:0:0:
192,192,134730,1,0,0:0:0:0:
320,192,134730,1,0,0:0:0:0:
64,192,135105,1,0,0:0:0:0:
192,192,135105,1,0,0:0:0:0:
320,192,135105,1,0,0:0:0:0:
64,192,135480,1,0,0:0:0:0:
192,192,135480,1,0,0:0:0:0:
320,192,135480,1,0,0:0:0:0:
64,192,135855,1,0,0:0:0:0:
192,192,135855,1,0,0:0:0:0:
320,192,135855,1,0,0:0:0:0:
320,192,136230,1,0,0:0:0:0:
448,192,136230,1,0,0:0:0:0:
320,192,136417,1,0,0:0:0:0:
448,192,136417,1,0,0:0:0:0:
320,192,136605,1,0,0:0:0:0:
448,192,136605,1,0,0:0:0:0:
320,192,136792,1,0,0:0:0:0:
448,192,136792,1,0,0:0:0:0:
320,192,136980,1,0,0:0:0:0:
448,192,136980,1,0,0:0:0:0:
320,192,137355,1,0,0:0:0:0:
192,192,137355,1,0,0:0:0:0:
64,192,137355,1,0,0:0:0:0:
448,192,137355,1,0,0:0:0:0:
192,192,137730,1,0,0:0:0:0:
64,192,137730,1,0,0:0:0:0:
192,192,137917,1,0,0:0:0:0:
64,192,137917,1,0,0:0:0:0:
192,192,138105,1,0,0:0:0:0:
64,192,138105,1,0,0:0:0:0:
192,192,138292,1,0,0:0:0:0:
64,192,138292,1,0,0:0:0:0:
192,192,138480,1,0,0:0:0:0:
64,192,138480,1,0,0:0:0:0:
192,192,138855,1,0,0:0:0:0:
64,192,138855,1,0,0:0:0:0:
320,192,138855,1,0,0:0:0:0:
448,192,138855,1,0,0:0:0:0:
448,192,139230,1,0,0:0:0:0:
64,192,139417,1,0,0:0:0:0:
192,192,139605,1,0,0:0:0:0:
320,192,139605,1,0,0:0:0:0:
192,192,139792,1,0,0:0:0:0:
448,192,139792,1,0,0:0:0:0:
192,192,139980,1,0,0:0:0:0:
320,192,139980,1,0,0:0:0:0:
192,192,140355,1,0,0:0:0:0:
64,192,140730,1,0,0:0:0:0:
320,192,140917,1,0,0:0:0:0:
448,192,141105,1,0,0:0:0:0:
192,192,141105,1,0,0:0:0:0:
448,192,141292,1,0,0:0:0:0:
320,192,141292,1,0,0:0:0:0:
448,192,141480,1,0,0:0:0:0:
192,192,141480,1,0,0:0:0:0:
448,192,141855,1,0,0:0:0:0:
320,192,141855,1,0,0:0:0:0:
320,192,142230,1,0,0:0:0:0:
64,192,142417,1,0,0:0:0:0:
192,192,142605,1,0,0:0:0:0:
64,192,142605,1,0,0:0:0:0:
192,192,142792,1,0,0:0:0:0:
320,192,142792,1,0,0:0:0:0:
192,192,142980,1,0,0:0:0:0:
64,192,142980,1,0,0:0:0:0:
192,192,143355,1,0,0:0:0:0:
64,192,143730,1,0,0:0:0:0:
448,192,143730,1,0,0:0:0:0:
192,192,143730,1,0,0:0:0:0:
64,192,143917,1,0,0:0:0:0:
448,192,143917,1,0,0:0:0:0:
320,192,143917,1,0,0:0:0:0:
64,192,144105,1,0,0:0:0:0:
448,192,144105,1,0,0:0:0:0:
192,192,144105,1,0,0:0:0:0:
64,192,144292,1,0,0:0:0:0:
448,192,144292,1,0,0:0:0:0:
320,192,144292,1,0,0:0:0:0:
64,192,144480,1,0,0:0:0:0:
448,192,144480,1,0,0:0:0:0:
192,192,144480,1,0,0:0:0:0:
64,192,144855,1,0,0:0:0:0:
448,192,144855,1,0,0:0:0:0:
192,192,144855,1,0,0:0:0:0:
320,192,144855,1,0,0:0:0:0:
192,192,145230,128,0,145980:0:0:0:0:
320,192,145230,128,0,145980:0:0:0:0:
448,192,146355,1,0,0:0:0:0:
320,192,146355,1,0,0:0:0:0:
448,192,146542,1,0,0:0:0:0:
320,192,146542,1,0,0:0:0:0:
320,192,146730,1,0,0:0:0:0:
192,192,146917,1,0,0:0:0:0:
320,192,147105,1,0,0:0:0:0:
64,192,147292,1,0,0:0:0:0:
448,192,147480,1,0,0:0:0:0:
192,192,147667,1,0,0:0:0:0:
320,192,147855,1,0,0:0:0:0:
192,192,148230,128,0,148980:0:0:0:0:
64,192,148605,128,0,148980:0:0:0:0:
320,192,148980,1,0,0:0:0:0:
448,192,149355,1,0,0:0:0:0:
320,192,149355,1,0,0:0:0:0:
448,192,149542,1,0,0:0:0:0:
320,192,149542,1,0,0:0:0:0:
320,192,149730,1,0,0:0:0:0:
64,192,149917,1,0,0:0:0:0:
192,192,149917,1,0,0:0:0:0:
448,192,150105,1,0,0:0:0:0:
320,192,150105,1,0,0:0:0:0:
192,192,150292,1,0,0:0:0:0:
320,192,150480,1,0,0:0:0:0:
192,192,150667,1,0,0:0:0:0:
320,192,150855,1,0,0:0:0:0:
64,192,151042,1,0,0:0:0:0:
320,192,151230,128,0,151980:0:0:0:0:
192,192,151230,128,0,151980:0:0:0:0:
448,192,151605,1,0,0:0:0:0:
64,192,151605,1,0,0:0:0:0:
448,192,151980,1,0,0:0:0:0:
64,192,151980,1,0,0:0:0:0:
192,192,152355,1,0,0:0:0:0:
64,192,152355,1,0,0:0:0:0:
320,192,152542,1,0,0:0:0:0:
192,192,152542,1,0,0:0:0:0:
320,192,152730,1,0,0:0:0:0:
192,192,152917,1,0,0:0:0:0:
64,192,153105,1,0,0:0:0:0:
192,192,153105,1,0,0:0:0:0:
320,192,153292,1,0,0:0:0:0:
448,192,153480,1,0,0:0:0:0:
320,192,153480,1,0,0:0:0:0:
192,192,153667,1,0,0:0:0:0:
320,192,153855,1,0,0:0:0:0:
320,192,154230,128,0,154980:0:0:0:0:
192,192,154605,128,0,154980:0:0:0:0:
64,192,154605,128,0,154980:0:0:0:0:
448,192,154980,1,0,0:0:0:0:
448,192,155355,1,0,0:0:0:0:
192,192,155355,1,0,0:0:0:0:
64,192,155355,1,0,0:0:0:0:
448,192,155542,1,0,0:0:0:0:
320,192,155542,1,0,0:0:0:0:
192,192,155542,1,0,0:0:0:0:
192,192,155730,1,0,0:0:0:0:
320,192,155917,1,0,0:0:0:0:
64,192,156105,1,0,0:0:0:0:
320,192,156292,1,0,0:0:0:0:
448,192,156480,1,0,0:0:0:0:
192,192,156855,1,0,0:0:0:0:
64,192,156855,1,0,0:0:0:0:
320,192,156855,1,0,0:0:0:0:
192,192,157042,1,0,0:0:0:0:
320,192,157042,1,0,0:0:0:0:
448,192,157042,1,0,0:0:0:0:
192,192,157230,128,0,157980:0:0:0:0:
320,192,157230,128,0,157980:0:0:0:0:
64,192,157980,1,0,0:0:0:0:
448,192,157980,1,0,0:0:0:0:
448,192,158355,1,0,0:0:0:0:
320,192,158355,1,0,0:0:0:0:
448,192,158542,1,0,0:0:0:0:
320,192,158542,1,0,0:0:0:0:
192,192,158542,1,0,0:0:0:0:
320,192,158730,1,0,0:0:0:0:
192,192,158917,1,0,0:0:0:0:
448,192,159105,1,0,0:0:0:0:
320,192,159105,1,0,0:0:0:0:
64,192,159292,1,0,0:0:0:0:
192,192,159292,1,0,0:0:0:0:
320,192,159480,1,0,0:0:0:0:
192,192,159667,1,0,0:0:0:0:
320,192,159855,1,0,0:0:0:0:
320,192,160230,128,0,160980:0:0:0:0:
64,192,160511,1,0,0:0:0:0:
192,192,160792,1,0,0:0:0:0:
64,192,160980,1,0,0:0:0:0:
448,192,161355,1,0,0:0:0:0:
192,192,161355,1,0,0:0:0:0:
320,192,161542,1,0,0:0:0:0:
448,192,161542,1,0,0:0:0:0:
192,192,161730,1,0,0:0:0:0:
320,192,161917,1,0,0:0:0:0:
64,192,162105,1,0,0:0:0:0:
192,192,162105,1,0,0:0:0:0:
448,192,162292,1,0,0:0:0:0:
320,192,162292,1,0,0:0:0:0:
192,192,162480,1,0,0:0:0:0:
320,192,162667,1,0,0:0:0:0:
64,192,162855,1,0,0:0:0:0:
192,192,162855,1,0,0:0:0:0:
448,192,163042,1,0,0:0:0:0:
320,192,163230,128,0,163980:0:0:0:0:
192,192,163605,1,0,0:0:0:0:
64,192,163605,1,0,0:0:0:0:
64,192,163980,1,0,0:0:0:0:
192,192,163980,1,0,0:0:0:0:
448,192,164355,1,0,0:0:0:0:
64,192,164355,1,0,0:0:0:0:
448,192,164542,1,0,0:0:0:0:
192,192,164542,1,0,0:0:0:0:
320,192,164730,1,0,0:0:0:0:
192,192,164917,1,0,0:0:0:0:
448,192,165105,1,0,0:0:0:0:
320,192,165105,1,0,0:0:0:0:
192,192,165292,1,0,0:0:0:0:
320,192,165480,1,0,0:0:0:0:
448,192,165667,1,0,0:0:0:0:
320,192,165667,1,0,0:0:0:0:
320,192,165855,1,0,0:0:0:0:
320,192,166230,128,0,166980:0:0:0:0:
192,192,166605,128,0,166980:0:0:0:0:
448,192,166980,1,0,0:0:0:0:
64,192,166980,1,0,0:0:0:0:
448,192,167355,1,0,0:0:0:0:
64,192,167355,1,0,0:0:0:0:
192,192,167355,1,0,0:0:0:0:
448,192,167542,1,0,0:0:0:0:
320,192,167542,1,0,0:0:0:0:
64,192,167542,1,0,0:0:0:0:
320,192,167730,1,0,0:0:0:0:
64,192,167917,1,0,0:0:0:0:
192,192,167917,1,0,0:0:0:0:
448,192,168105,1,0,0:0:0:0:
320,192,168105,1,0,0:0:0:0:
64,192,168292,1,0,0:0:0:0:
192,192,168292,1,0,0:0:0:0:
320,192,168480,1,0,0:0:0:0:
64,192,168855,1,0,0:0:0:0:
192,192,168855,1,0,0:0:0:0:
64,192,169042,1,0,0:0:0:0:
192,192,169042,1,0,0:0:0:0:
64,192,169230,128,0,169980:0:0:0:0:
320,192,169230,128,0,169980:0:0:0:0:
448,192,170167,1,0,0:0:0:0:
320,192,170167,1,0,0:0:0:0:
192,192,170355,1,0,0:0:0:0:
320,192,170355,1,0,0:0:0:0:
192,192,170542,1,0,0:0:0:0:
64,192,170542,1,0,0:0:0:0:
320,192,170730,1,0,0:0:0:0:
192,192,170730,1,0,0:0:0:0:
448,192,170917,1,0,0:0:0:0:
320,192,170917,1,0,0:0:0:0:
192,192,171105,1,0,0:0:0:0:
320,192,171105,1,0,0:0:0:0:
64,192,171292,1,0,0:0:0:0:
192,192,171292,1,0,0:0:0:0:
448,192,171480,128,0,172230:0:0:0:0:
192,192,171480,128,0,172230:0:0:0:0:
320,192,172230,128,0,172980:0:0:0:0:
64,192,172605,128,0,172980:0:0:0:0:
192,192,172980,1,0,0:0:0:0:
448,192,172980,1,0,0:0:0:0:
64,192,173167,1,0,0:0:0:0:
448,192,173167,1,0,0:0:0:0:
192,192,173355,1,0,0:0:0:0:
320,192,173355,1,0,0:0:0:0:
64,192,173542,1,0,0:0:0:0:
448,192,173542,1,0,0:0:0:0:
448,192,173730,128,0,174105:0:0:0:0:
64,192,173730,128,0,174105:0:0:0:0:
320,192,174292,1,0,0:0:0:0:
192,192,174480,1,0,0:0:0:0:
448,192,174667,1,0,0:0:0:0:
192,192,174855,1,0,0:0:0:0:
320,192,175042,1,0,0:0:0:0:
192,192,175230,128,0,175980:0:0:0:0:
448,192,175230,128,0,175980:0:0:0:0:
64,192,175605,1,0,0:0:0:0:
320,192,175605,1,0,0:0:0:0:
64,192,175980,1,0,0:0:0:0:
320,192,175980,1,0,0:0:0:0:
192,192,176167,1,0,0:0:0:0:
64,192,176167,1,0,0:0:0:0:
320,192,176355,1,0,0:0:0:0:
192,192,176355,1,0,0:0:0:0:
448,192,176542,1,0,0:0:0:0:
320,192,176542,1,0,0:0:0:0:
192,192,176730,128,0,177480:0:0:0:0:
64,192,176730,128,0,177480:0:0:0:0:
448,192,177480,128,0,178230:0:0:0:0:
320,192,177480,128,0,178230:0:0:0:0:
64,192,178230,128,0,178980:0:0:0:0:
192,192,178605,128,0,178980:0:0:0:0:
448,192,178980,1,0,0:0:0:0:
320,192,178980,1,0,0:0:0:0:
64,192,179355,1,0,0:0:0:0:
192,192,179355,1,0,0:0:0:0:
64,192,179542,1,0,0:0:0:0:
192,192,179542,1,0,0:0:0:0:
320,192,179542,1,0,0:0:0:0:
320,192,179730,1,0,0:0:0:0:
192,192,179730,1,0,0:0:0:0:
64,192,179917,1,0,0:0:0:0:
192,192,179917,1,0,0:0:0:0:
448,192,180105,1,0,0:0:0:0:
320,192,180105,1,0,0:0:0:0:
192,192,180480,1,0,0:0:0:0:
320,192,180480,1,0,0:0:0:0:
64,192,180480,1,0,0:0:0:0:
448,192,180480,1,0,0:0:0:0:
320,192,180855,1,0,0:0:0:0:
448,192,180855,1,0,0:0:0:0:
320,192,181042,1,0,0:0:0:0:
448,192,181042,1,0,0:0:0:0:
192,192,181230,128,0,181980:0:0:0:0:
320,192,181230,128,0,181980:0:0:0:0:
64,192,182167,1,0,0:0:0:0:
192,192,182167,1,0,0:0:0:0:
192,192,182355,1,0,0:0:0:0:
320,192,182355,1,0,0:0:0:0:
320,192,182542,1,0,0:0:0:0:
448,192,182542,1,0,0:0:0:0:
64,192,182730,128,0,183480:0:0:0:0:
448,192,183480,128,0,184230:0:0:0:0:
64,192,184230,128,0,184980:0:0:0:0:
192,192,184605,1,0,0:0:0:0:
448,192,184792,1,0,0:0:0:0:
320,192,184980,1,0,0:0:0:0:
192,192,185167,1,0,0:0:0:0:
320,192,185167,1,0,0:0:0:0:
192,192,185355,1,0,0:0:0:0:
64,192,185355,1,0,0:0:0:0:
192,192,185542,1,0,0:0:0:0:
320,192,185542,1,0,0:0:0:0:
448,192,185730,1,0,0:0:0:0:
320,192,185730,1,0,0:0:0:0:
192,192,185917,1,0,0:0:0:0:
64,192,185917,1,0,0:0:0:0:
320,192,186105,1,0,0:0:0:0:
192,192,186105,1,0,0:0:0:0:
448,192,186292,1,0,0:0:0:0:
320,192,186292,1,0,0:0:0:0:
320,192,186480,1,0,0:0:0:0:
192,192,186667,1,0,0:0:0:0:
320,192,186855,1,0,0:0:0:0:
64,192,187042,1,0,0:0:0:0:
320,192,187230,128,0,187980:0:0:0:0:
64,192,187230,128,0,187980:0:0:0:0:
192,192,187605,1,0,0:0:0:0:
448,192,187605,1,0,0:0:0:0:
192,192,187980,1,0,0:0:0:0:
448,192,187980,1,0,0:0:0:0:
64,192,188355,1,0,0:0:0:0:
192,192,188355,1,0,0:0:0:0:
320,192,188355,1,0,0:0:0:0:
64,192,188542,1,0,0:0:0:0:
192,192,188542,1,0,0:0:0:0:
320,192,188730,128,0,189480:0:0:0:0:
448,192,188730,128,0,189480:0:0:0:0:
192,192,189480,128,0,190230:0:0:0:0:
64,192,189480,128,0,190230:0:0:0:0:
448,192,190230,128,0,190980:0:0:0:0:
320,192,190605,128,0,190980:0:0:0:0:
64,192,190605,128,0,190980:0:0:0:0:
192,192,190980,1,0,0:0:0:0:
64,192,191355,1,0,0:0:0:0:
192,192,191355,1,0,0:0:0:0:
64,192,191542,1,0,0:0:0:0:
192,192,191542,1,0,0:0:0:0:
320,192,191730,1,0,0:0:0:0:
448,192,191730,1,0,0:0:0:0:
192,192,191917,1,0,0:0:0:0:
64,192,191917,1,0,0:0:0:0:
448,192,192105,1,0,0:0:0:0:
192,192,192480,1,0,0:0:0:0:
320,192,192480,1,0,0:0:0:0:
64,192,192855,1,0,0:0:0:0:
448,192,192855,1,0,0:0:0:0:
192,192,192855,1,0,0:0:0:0:
64,192,193042,1,0,0:0:0:0:
448,192,193042,1,0,0:0:0:0:
320,192,193042,1,0,0:0:0:0:
320,192,193230,1,0,0:0:0:0:
192,192,193417,1,0,0:0:0:0:
448,192,193605,1,0,0:0:0:0:
320,192,193605,1,0,0:0:0:0:
64,192,193792,1,0,0:0:0:0:
192,192,193792,1,0,0:0:0:0:
320,192,193980,1,0,0:0:0:0:
448,192,193980,1,0,0:0:0:0:
192,192,194167,1,0,0:0:0:0:
64,192,194167,1,0,0:0:0:0:
192,192,194355,1,0,0:0:0:0:
64,192,194355,1,0,0:0:0:0:
448,192,194542,1,0,0:0:0:0:
320,192,194542,1,0,0:0:0:0:
64,192,194730,1,0,0:0:0:0:
192,192,194730,1,0,0:0:0:0:
320,192,194917,1,0,0:0:0:0:
64,192,195105,1,0,0:0:0:0:
192,192,195105,1,0,0:0:0:0:
448,192,195292,1,0,0:0:0:0:
320,192,195292,1,0,0:0:0:0:
192,192,195480,1,0,0:0:0:0:
320,192,195667,1,0,0:0:0:0:
64,192,195855,1,0,0:0:0:0:
192,192,195855,1,0,0:0:0:0:
320,192,196042,1,0,0:0:0:0:
64,192,196230,1,0,0:0:0:0:
192,192,196230,1,0,0:0:0:0:
448,192,196417,1,0,0:0:0:0:
320,192,196417,1,0,0:0:0:0:
192,192,196605,1,0,0:0:0:0:
320,192,196792,1,0,0:0:0:0:
64,192,196980,1,0,0:0:0:0:
192,192,197167,1,0,0:0:0:0:
320,192,197355,1,0,0:0:0:0:
448,192,197542,1,0,0:0:0:0:
320,192,197730,1,0,0:0:0:0:
192,192,197917,1,0,0:0:0:0:
64,192,198105,1,0,0:0:0:0:
448,192,198292,1,0,0:0:0:0:
320,192,198292,1,0,0:0:0:0:
320,192,198480,1,0,0:0:0:0:
64,192,198667,1,0,0:0:0:0:
192,192,198667,1,0,0:0:0:0:
448,192,198855,1,0,0:0:0:0:
320,192,198855,1,0,0:0:0:0:
320,192,199042,1,0,0:0:0:0:
192,192,199230,1,0,0:0:0:0:
320,192,199417,1,0,0:0:0:0:
192,192,199605,1,0,0:0:0:0:
320,192,199792,1,0,0:0:0:0:
192,192,199980,1,0,0:0:0:0:
448,192,200167,1,0,0:0:0:0:
320,192,200167,1,0,0:0:0:0:
64,192,200355,1,0,0:0:0:0:
192,192,200355,1,0,0:0:0:0:
448,192,200542,1,0,0:0:0:0:
320,192,200542,1,0,0:0:0:0:
64,192,200730,1,0,0:0:0:0:
192,192,200730,1,0,0:0:0:0:
192,192,200917,1,0,0:0:0:0:
64,192,201105,1,0,0:0:0:0:
192,192,201105,1,0,0:0:0:0:
192,192,201292,1,0,0:0:0:0:
320,192,201292,1,0,0:0:0:0:
448,192,201480,1,0,0:0:0:0:
320,192,201480,1,0,0:0:0:0:
320,192,201667,1,0,0:0:0:0:
192,192,201667,1,0,0:0:0:0:
448,192,201855,1,0,0:0:0:0:
320,192,201855,1,0,0:0:0:0:
192,192,202042,1,0,0:0:0:0:
64,192,202042,1,0,0:0:0:0:
448,192,202230,1,0,0:0:0:0:
320,192,202230,1,0,0:0:0:0:
192,192,202417,1,0,0:0:0:0:
320,192,202417,1,0,0:0:0:0:
448,192,202605,1,0,0:0:0:0:
320,192,202605,1,0,0:0:0:0:
64,192,202792,1,0,0:0:0:0:
192,192,202792,1,0,0:0:0:0:
320,192,202980,1,0,0:0:0:0:
448,192,202980,1,0,0:0:0:0:
64,192,203167,1,0,0:0:0:0:
192,192,203167,1,0,0:0:0:0:
320,192,203355,1,0,0:0:0:0:
192,192,203542,1,0,0:0:0:0:
320,192,203730,1,0,0:0:0:0:
192,192,203917,1,0,0:0:0:0:
448,192,204105,1,0,0:0:0:0:
320,192,204105,1,0,0:0:0:0:
448,192,204292,1,0,0:0:0:0:
320,192,204292,1,0,0:0:0:0:
64,192,204480,1,0,1:0:0:0:
320,192,204480,1,0,1:0:0:0:
448,192,204480,1,0,0:0:0:0:
64,192,204667,1,0,1:0:0:0:
320,192,204667,1,0,1:0:0:0:
448,192,204667,1,0,0:0:0:0:
64,192,204855,1,0,1:0:0:0:
320,192,204855,1,0,1:0:0:0:
448,192,204855,1,0,0:0:0:0:
448,192,205042,1,0,0:0:0:0:
192,192,205230,1,0,0:0:0:0:
320,192,205417,1,0,0:0:0:0:
192,192,205605,1,0,0:0:0:0:
320,192,205792,1,0,0:0:0:0:
64,192,205980,1,0,0:0:0:0:
192,192,205980,1,0,0:0:0:0:
448,192,206167,1,0,0:0:0:0:
320,192,206167,1,0,0:0:0:0:
320,192,206355,1,0,0:0:0:0:
64,192,206542,1,0,0:0:0:0:
192,192,206542,1,0,0:0:0:0:
64,192,206730,1,0,0:0:0:0:
192,192,206730,1,0,0:0:0:0:
320,192,206917,1,0,0:0:0:0:
448,192,207105,1,0,0:0:0:0:
320,192,207105,1,0,0:0:0:0:
192,192,207292,1,0,0:0:0:0:
192,192,207480,1,0,0:0:0:0:
320,192,207667,1,0,0:0:0:0:
64,192,207855,1,0,0:0:0:0:
192,192,207855,1,0,0:0:0:0:
320,192,208042,1,0,0:0:0:0:
448,192,208230,1,0,0:0:0:0:
320,192,208230,1,0,0:0:0:0:
192,192,208417,1,0,0:0:0:0:
64,192,208605,1,0,0:0:0:0:
192,192,208605,1,0,0:0:0:0:
448,192,208792,1,0,0:0:0:0:
320,192,208792,1,0,0:0:0:0:
192,192,208980,1,0,0:0:0:0:
448,192,209167,1,0,0:0:0:0:
320,192,209167,1,0,0:0:0:0:
192,192,209355,1,0,0:0:0:0:
64,192,209355,1,0,0:0:0:0:
448,192,209542,1,0,0:0:0:0:
320,192,209542,1,0,0:0:0:0:
320,192,209730,1,0,0:0:0:0:
192,192,209917,1,0,0:0:0:0:
320,192,210105,1,0,0:0:0:0:
192,192,210292,1,0,0:0:0:0:
320,192,210480,1,0,0:0:0:0:
64,192,210667,1,0,0:0:0:0:
192,192,210667,1,0,0:0:0:0:
64,192,210855,1,0,0:0:0:0:
192,192,210855,1,0,0:0:0:0:
448,192,211042,1,0,0:0:0:0:
320,192,211042,1,0,0:0:0:0:
192,192,211230,1,0,0:0:0:0:
320,192,211230,1,0,0:0:0:0:
64,192,211417,1,0,0:0:0:0:
192,192,211417,1,0,0:0:0:0:
448,192,211605,1,0,0:0:0:0:
320,192,211605,1,0,0:0:0:0:
192,192,211792,1,0,0:0:0:0:
320,192,211792,1,0,0:0:0:0:
64,192,211980,1,0,0:0:0:0:
192,192,211980,1,0,0:0:0:0:
448,192,212167,1,0,0:0:0:0:
320,192,212167,1,0,0:0:0:0:
192,192,212355,1,0,0:0:0:0:
320,192,212542,1,0,0:0:0:0:
64,192,212730,1,0,0:0:0:0:
192,192,212730,1,0,0:0:0:0:
448,192,212917,1,0,0:0:0:0:
320,192,212917,1,0,0:0:0:0:
192,192,213105,1,0,0:0:0:0:
64,192,213292,1,0,0:0:0:0:
192,192,213292,1,0,0:0:0:0:
320,192,213480,1,0,0:0:0:0:
192,192,213480,1,0,0:0:0:0:
448,192,213667,1,0,0:0:0:0:
320,192,213667,1,0,0:0:0:0:
192,192,213855,1,0,0:0:0:0:
320,192,213855,1,0,0:0:0:0:
64,192,214042,1,0,0:0:0:0:
192,192,214042,1,0,0:0:0:0:
448,192,214230,1,0,0:0:0:0:
320,192,214230,1,0,0:0:0:0:
192,192,214417,1,0,0:0:0:0:
64,192,214417,1,0,0:0:0:0:
320,192,214605,1,0,0:0:0:0:
192,192,214605,1,0,0:0:0:0:
64,192,214792,1,0,0:0:0:0:
192,192,214792,1,0,0:0:0:0:
192,192,214980,1,0,0:0:0:0:
320,192,214980,1,0,0:0:0:0:
448,192,215167,1,0,0:0:0:0:
320,192,215167,1,0,0:0:0:0:
320,192,215355,1,0,0:0:0:0:
192,192,215355,1,0,0:0:0:0:
448,192,215542,1,0,0:0:0:0:
320,192,215542,1,0,0:0:0:0:
64,192,215730,1,0,0:0:0:0:
192,192,215730,1,0,0:0:0:0:
448,192,215917,1,0,0:0:0:0:
320,192,215917,1,0,0:0:0:0:
192,192,216105,1,0,0:0:0:0:
64,192,216105,1,0,0:0:0:0:
448,192,216292,1,0,0:0:0:0:
320,192,216292,1,0,0:0:0:0:
192,192,216480,1,0,0:0:0:0:
320,192,216480,1,0,0:0:0:0:
64,192,216667,1,0,0:0:0:0:
192,192,216667,1,0,0:0:0:0:
320,192,216855,1,0,0:0:0:0:
192,192,217042,1,0,0:0:0:0:
320,192,217230,1,0,0:0:0:0:
448,192,217230,1,0,0:0:0:0:
192,192,217230,1,0,0:0:0:0:
64,192,217230,1,0,0:0:0:0:
