osu file format v13

[General]
AudioFilename: Hatsune Miku - Natsu Matsuri Watamote ending song episode 6 HD.mp3
AudioLeadIn: 0
PreviewTime: -1
Countdown: 1
SampleSet: None
StackLeniency: 0.7
Mode: 0
LetterboxInBreaks: 1
WidescreenStoryboard: 1

[Editor]
DistanceSpacing: 0.8
BeatDivisor: 4
GridSize: 8
TimelineZoom: 1

[Metadata]
Title:Natsu Matsuri
TitleUnicode:Natsu Matsuri
Artist:Hatsune Miku
ArtistUnicode:Hatsune Miku
Creator:Chippy
Version:Insane
Source:Watamote
Tags:Watamote ED Hatsune Miku Natsu Matsuri Chippy
BeatmapID:563015
BeatmapSetID:244259

[Difficulty]
HPDrainRate:7
CircleSize:4
OverallDifficulty:7
ApproachRate:7
SliderMultiplier:1.4
SliderTickRate:1

[Events]
//Background and Video events
0,0,"tomokoo.jpg",0,0
//Break Periods
//Storyboard Layer 0 (Background)
//Storyboard Layer 1 (Fail)
//Storyboard Layer 2 (Pass)
//Storyboard Layer 3 (Foreground)
//Storyboard Sound Samples
//Background Colour Transformations
3,100,163,162,255

[TimingPoints]
57037.1882966019,422.535211267606,4,2,0,100,1,0

[Colours]
Combo1 : 164,164,0
Combo2 : 168,0,0
Combo3 : 36,193,28
Combo4 : 249,124,0
Combo5 : 0,115,230

[HitObjects]
256,192,20487,12,0,22811,0:0:0:0:
144,176,23234,5,0,0:0:0:0:
288,112,23445,1,0,0:0:0:0:
272,248,23656,1,0,0:0:0:0:
112,288,24079,6,0,L|144:272,2,35
192,304,24501,2,0,P|240:184|240:168,1,140
240,175,25135,2,0,P|312:208|312:216,1,70
328,96,25769,6,0,P|376:80|376:88,1,70
408,112,26192,2,0,B|360:152|376:152|352:128,1,70
480,192,26614,5,0,0:0:0:0:
296,200,26825,1,0,0:0:0:0:
96,200,27037,1,0,0:0:0:0:
376,304,27459,2,0,L|376:264,2,35
256,312,27882,2,0,P|248:219|224:163,1,140,0|0,0:0|0:0,0:0:0:0:
184,120,28516,5,0,0:0:0:0:
104,160,28727,1,0,0:0:0:0:
136,264,29149,2,0,L|176:264,2,35
320,272,29572,5,0,0:0:0:0:
416,184,29783,1,0,0:0:0:0:
320,96,29994,1,0,0:0:0:0:
192,272,30417,5,0,0:0:0:0:
88,184,30628,1,0,0:0:0:0:
192,96,30840,1,0,0:0:0:0:
256,160,31262,6,0,P|256:208|248:208,1,70
192,96,31685,2,0,P|176:152|184:160,1,70
256,32,32107,2,0,P|256:80|248:80,1,70
192,96,32530,1,0,0:0:0:0:
160,248,32952,5,0,0:0:0:0:
256,320,33163,1,0,0:0:0:0:
352,248,33375,1,0,0:0:0:0:
168,152,33797,5,0,0:0:0:0:
256,88,34009,1,0,0:0:0:0:
352,152,34220,1,0,0:0:0:0:
64,40,34642,5,0,0:0:0:0:
160,56,34854,1,0,0:0:0:0:
96,112,35065,2,0,P|80:176|80:240,1,105
78,214,35487,2,0,P|136:232|160:256,1,70
142,237,35910,1,0,0:0:0:0:
240,120,36332,5,0,0:0:0:0:
352,112,36544,1,0,0:0:0:0:
448,64,36755,2,0,P|456:128|424:200,1,140
424,192,37600,1,0,0:0:0:0:
256,80,38023,1,0,0:0:0:0:
256,192,38234,1,0,0:0:0:0:
256,296,38445,2,0,L|256:336,8,35
80,88,39713,5,0,0:0:0:0:
208,40,39924,1,0,0:0:0:0:
272,120,40135,2,0,P|256:224|232:248,1,140
232,248,40980,2,0,L|272:112,1,140
271,113,41614,1,0,0:0:0:0:
384,48,41825,2,0,L|328:48|328:48,8,35
128,280,43093,5,0,0:0:0:0:
256,280,43304,1,0,0:0:0:0:
376,280,43516,1,0,0:0:0:0:
184,128,43938,1,0,0:0:0:0:
256,200,44149,1,0,0:0:0:0:
320,128,44361,1,0,0:0:0:0:
264,96,44783,6,0,P|224:56|208:56,1,70
216,56,45206,2,0,P|176:104|176:128,1,70
175,108,45628,2,0,P|192:168|200:168,1,70
184,165,46051,1,0,0:0:0:0:
136,240,46473,5,0,0:0:0:0:
272,288,46685,1,0,0:0:0:0:
360,200,46896,1,0,0:0:0:0:
240,168,47318,5,0,0:0:0:0:
344,72,47530,1,0,0:0:0:0:
464,112,47741,1,0,0:0:0:0:
440,192,48163,6,0,L|424:264,1,70
424,260,48586,2,0,P|368:336|360:336,1,105
370,335,49009,2,0,P|312:320|296:288,1,70
307,314,49431,1,0,0:0:0:0:
88,184,49854,5,0,0:0:0:0:
112,64,50065,1,0,0:0:0:0:
208,32,50276,1,0,0:0:0:0:
256,104,50699,2,0,L|256:264,1,140
408,184,51544,1,0,0:0:0:0:
376,64,51755,1,0,0:0:0:0:
304,32,51966,2,0,P|336:48|352:48,8,35
184,128,53234,5,0,0:0:0:0:
328,128,53445,1,0,0:0:0:0:
328,264,53656,2,0,L|248:264,1,70
184,264,54079,1,0,0:0:0:0:
256,192,54501,1,0,0:0:0:0:
256,120,54924,2,0,B|256:176|256:192|256:208,1,70
256,192,55347,12,0,56192,0:0:0:0:
264,256,57037,6,0,L|328:192,1,70
313,206,57459,2,0,L|264:144,1,70
270,151,57882,2,0,L|320:96,1,70
392,112,58304,5,0,0:0:0:0:
464,192,58516,1,0,0:0:0:0:
400,288,58727,2,0,P|352:320|344:312,1,70
272,320,59149,2,0,L|192:328,1,70
144,256,59572,2,0,P|112:216|136:184,1,70
200,224,59994,6,0,P|256:208|256:200,1,70
272,176,60417,2,0,P|304:112|312:112,1,70
328,96,60840,2,0,B|376:88|376:96|400:104|392:128,1,70
384,192,61262,2,0,L|400:144,2,35
368,248,61685,2,0,P|336:288|312:280,1,70
272,272,62107,6,0,P|272:216|256:200,1,70
272,168,62530,2,0,P|312:144|304:112,1,70
352,104,62952,2,0,P|408:104|416:96,1,70
456,128,63375,2,0,P|472:184|480:184,1,70
352,224,63797,6,0,L|296:296,1,70
288,264,64220,2,0,L|240:208,1,70
216,232,64642,2,0,L|160:288,1,70
136,248,65065,2,0,L|88:192,1,70
112,160,65487,6,0,P|160:96|160:88,1,70
184,80,65910,2,0,P|256:56|272:56,1,70
288,72,66332,2,0,P|328:112|328:120,1,70
344,152,66755,2,0,P|416:184|424:184,1,70
256,264,67178,6,0,L|256:176,1,70
184,192,67600,2,0,L|272:192|280:192,1,70
256,120,68023,2,0,L|256:200,1,70
328,192,68445,2,0,L|248:192,1,70
256,192,68868,12,0,73938,0:0:0:0:
