osu file format v6

[General]
AudioFilename: 15.mp3
AudioLeadIn: 3000
PreviewTime: -1
Countdown: 0
SampleSet: Normal
StackLeniency: 0.7
Mode: 0
LetterboxInBreaks: 1

[Editor]
DistanceSpacing: 1.20000004768372
BeatDivisor: 4
GridSize: 8

[Metadata]
Title:Nann Toiu Koto Desyou
Artist:Hatsune Miku
Creator:sohuhard
Version:SohuEasy
Source:
Tags:Shibayan

[Difficulty]
HPDrainRate:3
CircleSize:4
OverallDifficulty:3
SliderMultiplier:1
SliderTickRate:1

[Events]
//Background and Video events
0,0,"94cd2809c8daaaa2d1581bde.jpg"
//Break Periods
2,75204,85189
//Storyboard Layer 0 (Background)
//Storyboard Layer 1 (Fail)
//Storyboard Layer 2 (Pass)
//Storyboard Layer 3 (Foreground)
//Storyboard Sound Samples
//Background Colour Transformations
3,100,163,162,255

[TimingPoints]
1504,375,4,1,1,70,1,0

[Colours]
Combo1 : 255,255,0
Combo2 : 255,255,255
Combo3 : 255,0,128
Combo4 : 0,255,255

[HitObjects]
136,91,1504,1,0
325,154,2254,1,0
150,251,3004,1,0
339,315,3754,1,0
488,181,4504,1,0
334,53,5254,1,0
146,121,6004,5,8
96,207,6379,1,8
36,287,6754,2,0,B|4:333,4,50,0|0|0|0|0
133,311,7879,5,0
328,268,8629,1,0
426,93,9379,1,0
226,93,10129,1,0
162,282,10879,1,0
362,282,11629,5,8
291,211,12004,1,8
185,105,12566,2,0,B|136:56,5,50,8|0|0|0|0|0
79,140,13879,5,0
172,316,14629,1,0
356,238,15379,6,0,B|357:165,1,50,2|0
263,153,15941,6,0,B|263:222,1,50,2|0
170,240,16504,5,0
244,54,17254,1,0
411,163,18004,1,0
341,233,18379,6,0,B|272:233,1,50,2|0
220,304,18941,6,0,B|277:304,1,50,2|0
370,304,19504,5,0
436,115,20254,1,0
240,153,21004,1,0
142,130,21379,6,0,B|87:164,1,50,2|0
100,257,21941,6,0,B|157:219,1,50,2|0
236,263,22504,5,0
190,68,23254,1,0
372,151,24004,1,0
372,251,24379,6,0,B|424:275,1,50,2|0
330,320,24941,6,0,B|265:293,1,50,2|0
185,279,25504,6,0,L|155:249|156:186,1,100,8|0
257,193,26254,2,0,L|292:158|291:102,1,100,8|0
221,37,27004,1,8
150,107,27379,1,0
220,177,27754,1,8
120,177,28129,1,0
191,248,28504,1,8
120,318,28879,6,0,L|67:318,2,50,0|0|8
220,318,29629,1,0
268,231,30004,2,0,L|198:231,3,50,8|0|0|0
118,231,30941,1,8
18,231,31316,1,8
80,94,31879,6,0,L|132:94|175:138,1,100,8|0
237,199,32629,2,0,L|238:250|201:286,1,100,8|0
353,285,33566,1,8
353,134,34129,2,0,L|353:74,1,50,8|8
256,192,34504,12,4,37504
148,108,37879,6,0,L|117:171,2,50,8|0|0
243,138,38629,2,0,L|266:76,2,50,8|0|0
336,173,39379,1,8
336,273,39754,1,0
336,173,40129,1,8
336,273,40504,1,0
236,273,40879,6,0,L|164:273|134:243,1,100,8|0
144,153,41629,1,8
144,53,42004,2,0,L|227:54|283:106,1,150,8|0
376,99,42941,1,8
376,99,43316,1,8
376,219,43691,5,0
331,242,43879,6,0,L|362:298,1,50,8|0
290,248,44254,6,0,L|285:304,1,50
237,245,44629,6,0,L|214:294,1,50,8|0
190,220,45004,6,0,L|151:259,1,50
173,182,45379,6,0,L|110:194,1,50,8|0
177,138,45754,6,0,L|108:115,4,50,0|0|8|0|0
297,138,46879,6,0,L|340:90,1,50,8|0
415,15,47441,5,8
415,15,47816,1,8
256,192,48004,12,0,49879
127,97,51004,6,0,L|128:152|179:185,1,100
285,176,51754,2,0,L|286:228|236:271,1,100
129,259,52504,2,0,L|72:259,3,50
79,78,53629,5,0
79,78,54004,2,0,L|196:78,1,100
299,78,54754,2,0,L|363:78,3,50
393,189,55691,5,8
333,189,55879,1,2
333,309,56254,5,8
392,309,56441,1,2
222,250,57004,6,0,L|120:250,1,100
122,130,57754,2,0,L|228:130,1,100
324,194,58504,2,0,L|381:194,3,50
468,41,59629,5,0
468,41,60004,2,0,L|468:150,1,100
468,261,60754,2,0,L|413:262,3,50
298,261,61691,5,8
255,219,61879,1,2
135,219,62254,5,8
177,261,62441,1,2
230,88,63004,6,0,B|276:130|320:87,1,100
439,87,63754,2,0,B|400:131|448:188,1,100
355,263,64504,2,0,B|302:239,1,50
352,285,64879,2,0,B|304:315,1,50
133,274,65629,5,0
133,274,66004,2,0,B|134:160,1,100
133,54,66754,2,0,B|197:54,3,50
295,99,67691,5,8
347,69,67879,1,2
347,189,68254,5,8
296,220,68441,1,2
130,149,69004,6,0,B|180:195|122:238,1,100
212,318,69754,2,0,B|252:267|301:326,1,100
380,235,70504,2,0,B|348:185,1,50
396,236,70879,2,0,B|425:192,1,50
257,124,71629,5,0
137,124,72004,6,0,B|81:105,1,50,2|0
141,167,72379,6,0,B|86:179,1,50,8|0
164,200,72754,6,0,B|126:242,1,50,2|0
200,219,73129,6,0,B|192:272,1,50,8|0
252,131,73691,6,0,B|305:84,5,50,0|0|0|0|0|0
360,27,75004,1,12
119,83,86629,5,4
219,83,87004,2,0,B|274:154|215:227,1,150,8|8
405,83,88129,5,0
305,83,88504,2,0,B|244:144|308:221,1,150,8|8
254,358,89629,5,0
183,287,90004,1,8
112,216,90379,2,0,B|65:168,1,50,0|8
253,20,91129,5,8
324,90,91504,1,8
394,160,91879,2,0,B|442:207,1,50,0|8
323,302,92629,1,8
252,372,93004,5,4
165,193,93754,1,0
256,14,94504,1,0
346,193,95254,1,0
146,193,96004,6,0,B|209:195,1,50
282,245,96566,1,0
282,145,96941,1,0
370,193,97316,1,0
470,193,97691,2,0,B|536:194,3,50
343,99,99004,6,0,B|258:158,1,100
260,256,99754,2,0,B|175:314,2,100
169,215,100879,6,0,B|169:156,1,50,2|0
69,165,101441,6,0,B|69:230,1,50,2|0
69,315,102004,6,0,B|115:351|164:313,1,100
261,315,102754,2,0,B|305:268|353:318,1,100
448,313,103504,1,0
378,242,103879,6,0,B|334:198,1,50,2|0
342,107,104441,6,0,B|391:155,1,50,2|0
285,180,105004,6,0,B|215:179,2,50
214,251,105754,1,0
143,321,106129,2,0,B|202:322,2,50
72,251,106879,6,0,B|73:184,1,50,2|0
72,101,107441,6,0,B|73:169,1,50,2|0
169,175,108004,6,0,B|282:176,1,100
364,143,108754,2,0,B|426:182|364:218,1,100
273,177,109504,1,0
187,126,109879,6,0,B|143:162,1,50,2|0
187,250,110441,6,0,B|136:208,1,50,2|0
53,186,111004,5,0
253,186,111754,5,0
453,186,112504,5,0
382,115,112879,5,2
382,165,113066,1,0
382,265,113441,5,2
382,215,113629,1,0
453,186,114004,5,0
353,186,114379,5,0
253,186,114754,5,0
153,186,115129,5,0
53,186,115504,5,0
123,115,115879,5,2
123,165,116066,1,0
123,265,116441,5,2
123,215,116629,1,0
53,186,117004,6,0,B|114:186,1,50
153,186,117379,6,0,B|214:187,1,50
253,186,117754,6,0,B|310:187,1,50
353,186,118129,6,0,B|416:187,2,50
423,115,118879,5,2
423,165,119066,1,0
423,265,119441,5,2
423,215,119629,1,0
256,192,120004,12,0,121504
