osu file format v5

[General]
AudioFilename: Hatsune Miku - My Time.mp3
AudioLeadIn: 0
PreviewTime: 57260
Countdown: 1
SampleSet: Soft
StackLeniency: 0.7
Mode: 0
LetterboxInBreaks: 1

[Editor]
DistanceSpacing: 1
BeatDivisor: 4
GridSize: 16

[Metadata]
Title:My Time
Artist:Hatsune Miku
Creator:illuminist
Version:Hard
Source:
Tags:vocaloid hatsume miku my time pv watashi no tokikan

[Difficulty]
HPDrainRate:6
CircleSize:5
OverallDifficulty:7
SliderMultiplier:1.4
SliderTickRate:1

[Events]
//Background and Video events
Video,0,"tokikan-pv.avi"
0,0,"bg.jpg"
//Break Periods
//Storyboard Layer 0 (Background)
//Storyboard Layer 1 (Fail)
//Storyboard Layer 2 (Pass)
//Storyboard Layer 3 (Foreground)
//Storyboard Sound Samples
//Background Colour Transformations
3,100,163,162,255

[TimingPoints]
6777,413.793103448276,4,1,1,70,1,0
41432,-100,4,2,0,70,0,0
57157,-100,4,1,1,70,0,1
64604,-100,4,1,1,70,0,0
71328,-100,4,1,1,70,0,1
77742,-100,4,1,1,70,0,0
82087,-100,4,1,1,70,0,1
87673,-100,4,2,0,70,0,0

[Colours]
Combo1 : 44,207,163
Combo2 : 141,231,250
Combo3 : 44,207,163
Combo4 : 30,138,92

[HitObjects]
88,80,6777,1,0
192,80,7088,1,0
296,80,7398,1,4
296,80,7605,5,0
296,184,7915,1,0
296,288,8225,1,4
296,288,8432,5,0
192,288,8743,1,0
192,184,9053,1,4
192,184,9260,5,0
192,80,9570,1,0
88,80,9881,1,4
88,80,10088,5,0
88,184,10398,1,0
88,288,10708,1,4
88,288,10915,6,0,B|112:224|144:192,1,105
224,256,11536,5,0
256,192,11743,2,2,B|256:72,2,105
256,192,12570,2,2,B|184:280,2,105
256,192,13398,2,2,B|328:272,2,105
256,192,14225,12,4,15053
88,88,15881,5,0
120,152,16088,1,2
152,88,16294,1,8
184,152,16501,2,2,B|256:104|344:168,1,140
368,200,17122,1,8
336,264,17329,2,2,B|264:312|200:264,1,140
152,224,17950,1,8
216,192,18157,1,2
400,352,18777,5,8
464,320,18984,1,0
432,256,19191,2,2,B|432:160,1,70,2|2
368,152,19605,2,0,B|368:248,1,70,8|2
400,88,20225,1,2
464,120,20432,2,2,B|336:56|176:120,1,280,10|10
88,208,21674,1,0
224,208,22088,6,2,B|296:152|368:224,1,140,10|2
352,136,22708,1,0
384,208,22915,1,8
352,272,23122,2,2,B|248:344|144:264,1,210,2|10
152,128,24157,1,0
152,200,24363,5,2
224,200,24570,1,10
296,200,24777,1,2
224,200,24984,2,0,B|192:120|224:64,1,140,0|10
296,64,25605,2,0,B|392:152|296:248,1,210,0|10
432,248,26639,5,0
400,184,26846,1,2
336,216,27053,1,8
304,152,27260,2,0,B|248:72|112:120,1,140,2|10
120,144,27881,1,8
144,208,28088,2,2,B|192:320|368:336,1,210,2|10
416,240,29122,5,0
384,176,29329,1,2
352,112,29536,1,8
288,144,29743,2,2,B|248:48|128:80,1,140
120,112,30363,1,8
96,176,30570,2,2,B|112:264|216:256,1,140
264,256,31191,1,8
336,256,31398,1,2
56,112,32019,5,10
120,80,32225,1,0
184,48,32432,1,2
248,80,32639,1,0
312,48,32846,1,10
376,80,33053,2,0,B|440:168|368:216,1,140,0|2
451,207,33674,2,6,B|323:359|163:175,1,280,8|10
80,152,34915,1,0
216,152,35329,6,2,B|296:72|376:200,1,140,10|2
368,80,35950,1,0
432,112,36157,1,10
496,144,36363,2,2,B|484:215|336:272,1,210,2|10
401,307,37191,2,0,B|337:363|265:299,2,140,2|0|2
256,192,38225,12,4,39052
72,264,39260,5,2
104,200,39467,1,8
168,168,39674,1,2
232,192,39881,2,2,B|328:216|360:96,1,140,2|10
240,40,40708,1,2
112,104,41122,1,8
120,248,41536,6,0,B|160:320|264:328,1,140,0|8
368,320,42363,2,0,B|344:224|208:224,1,140,2|8
208,200,42984,2,2,B|208:296,1,70
136,272,43398,2,2,B|136:176,1,70,0|10
64,200,43812,2,0,B|100:129|154:96|240:96,1,210,0|8
264,160,44639,5,0
296,96,44846,1,2
424,48,45260,2,0,B|432:128|360:168,1,140,8|2
432,288,46088,2,0,B|367:339|303:287,1,140,10|0
240,320,46708,2,2,B|240:224,1,70,2|10
264,184,47122,1,0
408,224,47743,5,8
376,160,47950,1,8
344,96,48157,1,2
221,159,48570,2,0,B|296:96|224:40,1,140,8|2
88,40,49398,1,8
120,104,49605,1,0
88,168,49812,1,2
120,232,50019,1,0
88,296,50225,1,8
152,328,50432,2,0,B|256:392|352:328,1,210,2|8
384,272,51260,5,8
352,208,51467,2,0,B|296:64|96:80,1,280,0|2
128,216,52708,2,0,B|176:136|288:184,2,140,8|2|8
240,296,53950,2,0,B|320:360|392:216,1,140,2|8
456,176,54778,2,4,B|328:64|168:208,1,280
376,248,56225,1,4
256,192,56432,12,4,57260
48,64,57674,5,8
120,64,57881,2,2,B|120:160,1,70,2|2
192,128,58294,2,2,B|192:32,1,70,2|10
264,56,58708,1,0
336,56,58915,2,2,B|376:120|336:192,1,140,2|10
336,256,59536,1,0
336,328,59743,2,2,B|272:368|200:328,2,140,2|10|2
160,336,60984,5,8
128,272,61191,1,0
160,208,61398,1,2
224,176,61605,1,0
256,112,61812,1,10
224,48,62019,1,0
160,24,62225,2,2,B|88:40|80:128,1,140,2|10
120,184,62846,2,2,B|24:184,1,70
88,240,63260,2,0,B|88:328,2,70,0|10|2
152,272,63881,2,2,B|280:280|288:144,1,210
328,88,64708,5,2
392,120,64915,1,0
360,184,65122,1,10
328,248,65329,1,0
264,216,65536,2,2,B|216:240|160:216,2,105
312,80,66570,5,0
248,48,66777,1,10
184,80,66984,1,0
120,112,67191,2,2,B|96:160|120:216,2,105
192,112,68019,2,2,B|240:88|296:112,2,105
192,184,68846,1,0
328,184,69260,1,2
328,40,69674,2,2,B|408:168|328:312,1,280,2|4
96,152,71329,5,8
160,184,71536,1,0
128,248,71743,1,8
192,280,71950,1,0
224,216,72157,2,0,B|304:216|304:120,1,140,8|8
240,88,72777,1,0
176,120,72984,1,8
240,152,73191,1,0
304,120,73398,1,8
424,64,73812,2,8,B|480:128|424:192,1,140
360,192,74432,5,0
288,192,74639,1,8
216,192,74846,1,0
144,192,75053,1,8
72,192,75260,1,0
72,120,75467,2,8,B|136:64|200:120,1,140
216,192,76088,5,0
240,264,76294,2,8,B|304:304|376:264,1,140
336,192,76915,1,0
416,184,77122,2,8,B|456:120|416:48,1,140
336,48,77743,5,0
264,48,77950,1,0
256,192,78157,12,0,79191
256,192,79398,5,0
256,192,79605,1,0
256,192,79708,12,0,80846
256,192,81053,5,0
256,192,81260,1,0
72,96,82088,5,4
176,96,82398,1,4
280,96,82707,1,4
328,144,82915,5,4
280,240,83225,1,4
208,160,83536,1,4
160,112,83743,5,4
248,48,84053,1,4
328,112,84363,1,4
280,160,84570,5,4
256,192,84778,12,4,87881
336,112,88501,6,0,B|336:152,2,35,0|0|0
192,112,89122,1,0
192,248,89536,1,0
400,248,90157,6,0,B|400:184,2,35
256,248,90777,1,0
256,104,91191,1,0
48,104,91812,6,0,B|48:144,2,35
184,104,92432,1,0
288,104,92743,1,0
288,104,92846,1,0
168,280,93467,5,0
240,280,93674,1,0
456,104,94501,5,2
352,104,94812,1,2
248,104,95122,2,2,B|248:144,2,35
248,240,95743,1,4
104,240,96157,5,2
104,136,96467,1,2
208,136,96777,2,2,B|208:176,2,35
344,136,97398,1,4
480,136,97812,5,2
480,240,98122,1,2
376,240,98432,2,2,B|376:280,2,35
232,240,99054,1,4
232,136,99363,1,4
232,136,99467,1,4
256,192,99674,12,0,102777
