osu file format v9

[General]
AudioFilename: Monokuro Act.mp3
AudioLeadIn: 3000
PreviewTime: 70861
Countdown: 0
SampleSet: Normal
StackLeniency: 0.7
Mode: 0
LetterboxInBreaks: 0
StoryFireInFront: 0

[Editor]
DistanceSpacing: 1
BeatDivisor: 4
GridSize: 4

[Metadata]
Title:Monochroact
Artist:Hatsune Miku
Creator:Lan wings
Version:Hard
Source:doriko
Tags:Monochrome Act Monokuro Act Vocaloid nezuki sherrie__fay Yui 12barry21 ertyukjh010

[Difficulty]
HPDrainRate:6
CircleSize:4
OverallDifficulty:6
ApproachRate:7
SliderMultiplier:1.6
SliderTickRate:1

[Events]
//Background and Video events
0,0,"bg.jpg"
//Break Periods
//Storyboard Layer 0 (Background)
//Storyboard Layer 1 (Fail)
//Storyboard Layer 2 (Pass)
//Storyboard Layer 3 (Foreground)
//Storyboard Sound Samples
//Background Colour Transformations
3,100,163,162,255

[TimingPoints]
1043,545.454545454546,4,1,2,5,1,0
2134,-100,4,1,2,10,0,0
2679,-100,4,1,2,15,0,0
3225,-100,4,1,2,20,0,0
3770,-100,4,1,2,25,0,0
4316,-100,4,1,2,30,0,0
4861,-100,4,1,2,35,0,0
5134,-100,4,1,2,40,0,0
5407,-100,4,1,2,45,0,0
5679,-100,4,1,2,50,0,0
5952,-100,4,1,2,55,0,0
6225,-100,4,1,2,60,0,0
6498,-100,4,1,2,65,0,0
6770,-100,4,1,2,70,0,0
7043,-100,4,1,2,75,0,0
7316,-100,4,1,2,80,0,0
7589,-100,4,1,2,85,0,0
7861,-100,4,1,2,90,0,0
8133,-100,4,1,2,10,0,0
9224,-100,4,1,2,50,0,0
29270,-133.333333333333,4,1,2,50,0,0
31043,-100,4,1,2,40,0,0
48770,-100,4,1,2,50,0,0
67452,-100,4,1,2,45,0,0
67861,-100,4,1,2,50,0,0
70861,-100,4,1,2,60,0,1
92679,-100,4,1,2,60,0,0
100179,-100,4,2,0,60,0,0
100588,-100,4,1,2,60,0,0
104543,-100,4,2,0,60,0,0
104815,-100,4,1,2,60,0,0
105361,-100,4,2,0,60,0,0
105770,-100,4,1,2,60,0,0
108906,-100,4,2,0,60,0,0
109179,-100,4,1,2,60,0,0
114770,-100,4,2,0,40,0,0
117497,-100,4,1,2,60,0,0
118861,-100,4,1,2,60,0,1
140679,-100,4,1,2,60,0,0
142861,-100,4,1,2,60,0,0
166043,-133.333333333333,4,1,2,12,0,0
166793,-133.333333333333,4,1,2,40,0,0
174361,-133.333333333333,4,1,1,60,0,0
175588,-100,4,1,2,60,0,1
201770,-100,4,1,2,60,0,0
209270,-100,4,1,2,40,0,0
209952,-100,4,1,2,60,0,0

[Colours]
Combo1 : 255,164,164
Combo2 : 185,255,220
Combo3 : 255,255,128
Combo4 : 164,255,255

[HitObjects]
256,192,1588,12,0,8133
88,136,9770,6,0,B|152:188|240:188,1,160,4|8
316,176,10588,1,0
388,140,10861,1,0
460,104,11133,2,0,B|476:184|456:280,1,160
392,304,11952,2,0,B|354:328|288:332,1,80
236,316,12497,2,0,B|192:252|108:192,1,160,8|0
188,152,13315,2,0,B|168:112|172:64,1,80,0|8
248,104,13861,2,0,B|260:60|296:24,1,80,0|0
348,184,14679,6,0,B|324:224|264:228,2,80,8|0|0
400,124,15497,2,0,B|464:196|488:284,1,160
400,264,16315,2,0,B|330:311|232:300,1,160,0|8
128,196,17406,2,0,B|203:233|300:220,1,160,0|8
376,92,18497,6,0,B|288:92|224:156,1,160,4|8
180,212,19315,1,0
156,288,19588,1,0
160,368,19861,2,0,B|244:355|300:280,1,160
264,216,20679,2,0,B|368:192,1,80
328,120,21224,2,0,B|408:120|480:168,1,160,8|0
432,232,22043,2,0,B|464:320,1,80,0|8
380,308,22588,2,0,B|336:404,1,80
196,324,23406,5,0
128,284,23679,1,0
80,220,23952,1,0
48,148,24224,2,0,B|90:69|196:40,1,160
276,48,25043,2,0,B|233:126|128:156,1,160,0|8
256,272,26133,1,0
356,148,26679,1,8
384,304,27224,6,0,B|432:314|492:308,1,80,8|0
444,232,27770,2,0,B|483:216|508:184,1,80,8|0
336,228,28315,2,0,B|287:238|228:232,1,80,8|0
276,156,28861,2,0,B|236:140|212:108,1,80,8|0
176,36,29406,2,8,B|312:24|423:117,1,239.999992847443
184,336,31588,5,2
120,288,31861,1,0
80,220,32133,1,8
48,148,32406,1,0
48,148,32543,2,0,B|88:88|172:76,1,120
332,136,33224,2,0,B|284:135|236:112,1,80,8|0
144,81,33770,5,2
168,156,34043,1,0
216,220,34315,1,8
276,276,34588,1,0
276,276,34724,2,0,B|344:288|408:252,1,120
216,336,35406,2,0,B|248:353|304:356,1,80,8|0
372,356,35952,5,2
448,336,36224,1,0
492,268,36497,2,0,B|483:223|448:168,1,80,8|0
424,204,36906,2,0,B|361:186|308:128,1,120
266,84,37588,1,8
196,48,37861,1,0
116,40,38133,6,0,B|120:136|176:212,1,160,2|8
232,228,38952,1,0
272,236,39088,1,0
312,236,39224,2,0,B|308:140|252:64,1,160,0|8
161,191,40043,5,0
161,191,40179,1,0
161,191,40315,2,0,B|125:206|97:237,1,80,10|0
54,324,40861,2,0,B|102:328|144:313,1,80,8|0
152,280,41270,2,0,B|224:280|296:320,1,120
344,336,41952,1,8
424,324,42224,1,0
480,268,42497,6,0,B|489:226|480:168,1,80,10|0
400,92,43043,2,0,B|390:133|400:192,1,80,8|0
412,208,43452,2,0,B|384:243|288:276,1,120
232,276,44133,1,8
152,276,44406,5,0
152,276,44543,1,0
152,276,44679,2,0,B|154:230|184:196,1,80,10|0
120,148,45224,2,0,B|144:107|192:100,1,80,8|0
216,128,45633,2,0,B|280:144|352:108,1,120
412,100,46315,2,0,B|453:115|480:152,1,80,8|0
508,220,46861,6,0,B|420:240|368:312,1,160,2|0
300,160,47952,2,0,B|256:88|148:84,1,160,10|10
108,236,49043,5,6
176,280,49315,1,0
256,300,49588,1,8
336,300,49861,1,0
336,300,49997,2,0,B|400:284|456:216,1,120,8|0
472,164,50679,1,8
492,88,50952,2,0,B|496:32,2,40,0|8|2
344,68,51497,5,0
264,60,51770,1,8
184,68,52043,1,0
184,68,52179,2,0,B|124:88|80:136,1,120,8|0
28,188,52861,1,8
12,268,53133,2,0,B|56:260|104:288,1,80,0|2
220,352,53679,5,0
244,275,53952,1,8
308,326,54224,1,0
308,326,54361,2,0,B|368:296|392:248,1,80,8|8
396,248,54770,1,2
436,180,55043,1,8
464,104,55315,2,0,B|472:64,2,40,0|8|2
324,68,55861,6,0,B|278:65|232:108,1,80,0|8
172,84,56406,1,0
172,84,56543,2,0,B|144:148|96:176,1,120,8|0
168,212,57224,5,8
168,212,57361,2,0,B|208:212|248:240,1,80,4|0
272,264,57770,1,6
404,212,58043,5,0
368,140,58315,1,8
312,84,58588,1,0
312,84,58724,2,0,B|252:56|184:76,1,120,8|0
116,92,59406,1,8
52,136,59679,2,0,B|-8:184,2,40,0|8|0
88,260,60224,6,0,B|124:281|184:292,1,80,0|8
212,224,60770,1,0
212,224,60906,2,0,B|261:232|292:272,1,80,0|8
312,288,61315,2,0,B|364:285|392:244,1,80,2|8
408,224,61724,2,0,B|420:164|388:76,1,120,0|2
480,280,62406,6,0,B|500:244|508:172,1,80,0|8
488,96,62952,1,0
453,114,63088,2,0,B|424:140|408:216,1,80,8|8
408,224,63497,1,0
340,180,63770,2,0,B|326:225|336:276,1,80,8|2
272,308,64315,1,2
192,292,64588,6,0,B|152:279|108:236,1,80,0|8
176,188,65133,1,0
176,188,65270,2,0,B|175:128|148:64,1,120,8|2
36,36,65952,2,0,B|38:80|69:148,1,80,8|0
112,248,66497,6,0,B|176:273|240:248,1,120,2|2
344,68,67315,2,0,B|310:63|266:79,1,80,2|0
100,176,68133,1,8
152,256,68406,5,0
180,284,68543,1,0
208,312,68679,2,0,B|256:344|332:344,1,120,2|2
360,344,69224,2,0,B|404:340|436:316,1,80,0|2
376,188,69770,1,10
256,188,70043,2,0,B|216:192,3,40
60,212,70861,6,0,B|107:287|220:320,1,160,4|8
280,328,71679,1,0
280,328,71815,1,0
408,264,72224,2,0,B|448:240|480:180,2,80,0|8|0
368,176,73043,2,0,B|324:166|272:184,1,80,2|0
196,200,73588,1,8
120,140,73861,2,0,B|80:104,1,40
116,256,74406,6,0,B|77:283|56:344,2,80,0|8|0
196,200,75224,1,6
280,244,75497,1,0
364,196,75770,1,8
456,220,76043,1,0
492,236,76179,2,0,B|460:292|392:316,1,120
304,320,76861,6,0,B|220:324,2,80,8|0|2
348,172,77952,2,0,B|316:132|252:104,1,80,8|0
240,104,78361,2,0,B|196:144|108:156,1,120
36,160,79043,1,8
36,160,79588,5,6
68,252,79861,1,0
164,248,80133,1,8
204,336,80406,1,0
204,336,80543,2,0,B|265:356|348:340,1,120,8|0
428,256,81224,2,0,B|388:240|336:248,1,80,8|0
252,240,81770,6,0,B|192:148,1,80,2|0
224,56,82315,2,0,B|284:148,1,80,8|0
292,156,82724,1,2
416,184,83133,2,0,B|416:232|392:292,1,80,0|8
384,300,83543,1,8
160,304,83952,6,0,B|128:324|68:328,2,80,6|0|8
108,224,84770,1,0
108,224,84906,2,0,B|160:188|236:188,1,120,0|0
312,216,85588,1,8
396,264,85861,1,0
484,300,86133,6,0,B|500:224|468:224|484:124,1,160,0|8
444,52,86952,1,0
444,52,87088,2,0,B|424:120|348:144,1,120,8|0
272,152,87770,1,0
176,160,88043,1,0
220,244,88315,6,0,B|160:308,1,80,8|0
284,304,88861,2,0,B|296:388,1,80,8|0
444,272,89406,2,0,B|504:208,1,80,8|0
380,212,89952,2,0,B|368:128,1,80,8|0
302,64,90497,5,4
128,145,91043,1,8
209,319,91588,1,8
383,238,92134,1,8
256,192,92679,1,4
256,192,92815,12,0,94861
432,180,97043,6,0,B|413:259|340:324,1,160,2|8
280,264,97861,1,0
280,264,97997,2,0,B|225:284|144:296,1,120,0|0
136,216,98679,2,0,B|60:156,1,80,8|0
56,84,99224,2,0,B|134:69|208:92,1,120
216,92,99770,1,0
288,124,100043,1,0
352,172,100315,1,2
364,184,100861,1,8
464,308,101406,6,0,B|392:340|272:320,1,160,2|8
144,248,102224,1,0
144,248,102361,2,0,B|207:229|288:240,1,120,0|0
340,252,103043,1,8
420,244,103315,1,0
484,196,103588,6,0,B|458:122|364:76,1,160,2|8
300,56,104406,1,0
220,48,104679,1,2
140,64,104952,1,0
72,104,105224,2,0,B|40:132,4,40,8|0|2|2|10
124,256,106315,6,0,B|157:289|224:304,1,80,8|0
220,268,106724,2,0,B|268:228|340:224,1,120,8|0
408,232,107406,1,8
464,176,107679,1,0
496,104,107952,2,0,B|416:68|316:116,1,160,2|8
268,140,108770,1,0
200,180,109043,1,2
188,192,109588,1,8
84,68,110133,6,0,B|100:152|68:152|84:248,1,160,2|8
140,284,110952,1,0
140,284,111088,2,0,B|200:313|260:296,1,120
332,264,111770,1,8
332,264,112043,1,0
376,196,112315,2,0,B|313:147|192:136,1,160,2|8
148,148,113133,6,0,B|108:156|64:176,2,80,0|0|0
172,224,113952,2,0,B|214:238|268:236,1,80,8|0
332,240,114497,1,2
296,84,115043,2,0,B|339:77|376:84,2,80,2|2|0
216,300,116133,6,0,B|172:307|136:300,2,80,2|0|2
232,296,117224,1,2
244,288,117770,1,10
312,248,118043,2,0,B|360:240,3,40
400,124,118861,6,0,B|308:112|232:176,1,160,4|8
168,112,119679,1,0
168,112,119815,2,0,B|128:164|124:236,1,120,0|0
192,28,120497,2,0,B|152:22|100:48,1,80,8|0
32,92,121043,5,0
12,188,121315,1,0
64,268,121588,1,8
160,284,121861,1,0
160,284,121997,2,0,B|235:277|292:224,1,120
408,136,122679,2,0,B|367:122|304:128,1,80,8|0
232,140,123224,5,4
329,126,123497,1,0
232,140,123770,2,0,B|194:154|152:200,1,80,8|0
96,148,124179,2,0,B|84:212|100:292,1,120
140,352,124861,1,8
232,372,125133,1,0
328,372,125406,6,0,B|412:360|476:284,1,160,0|8
376,260,126224,1,0
376,260,126361,2,0,B|308:240|272:148,1,120
240,100,127043,1,8
52,148,127588,5,4
0,220,127861,2,0,B|33:240|108:260,1,80,0|8
152,196,128406,1,0
152,196,128543,2,0,B|212:216|264:292,1,120,0|0
284,180,129224,2,0,B|312:152|320:76,1,80,8|0
240,48,129770,5,0
332,20,130043,2,0,B|367:41|396:84,1,80,0|8
464,136,130588,1,0
464,136,130724,2,0,B|476:200|452:200|464:280,1,120
328,344,131406,1,8
328,344,131542,2,0,B|316:280|340:280|328:200,1,120,0|4
224,104,132224,6,0,B|201:139|192:204,1,80,0|8
100,192,132770,1,0
68,216,132906,2,0,B|69:256|116:300,1,80
144,312,133315,2,0,B|188:318|240:288,2,80,0|8|0
172,220,134133,1,0
172,220,134679,6,0,B|216:204|272:220,1,80,8|0
296,228,135088,1,0
436,264,135497,2,0,B|468:248|492:192,2,80,0|8|0
388,180,136315,6,0,B|300:156,1,80,8|0
248,84,136861,2,0,B|196:160,1,80,8|0
264,300,137406,2,0,B|316:224,1,80,8|0
124,204,137952,2,0,B|212:228,1,80,8|0
388,180,138497,5,4
248,84,139043,1,8
124,204,139588,1,8
264,300,140133,1,8
256,192,140679,1,4
256,192,140815,12,8,142861
184,208,145043,6,0,B|229:196|260:170,1,80,2|0
372,84,145588,1,8
296,344,146133,6,0,B|256:344|213:295,1,80,2|0
92,184,146679,1,8
272,216,147224,5,2
348,196,147497,1,0
412,48,147769,1,8
72,124,148315,6,0,B|104:160|160:172,1,80
296,176,148861,2,0,B|296:220,1,40,8|2
388,296,149270,5,0
388,296,149406,2,0,B|428:276|456:208,1,80,2|0
492,132,149952,1,8
328,152,150361,5,0
292,136,150497,2,0,B|256:120|224:48,1,80,2|0
136,184,151043,1,8
260,296,151452,5,0
300,308,151588,2,0,B|346:321|392:308,1,80,2|0
456,184,152133,1,8
200,352,152679,5,2
148,292,152952,1,0
184,116,153224,2,0,B|184:180,1,40,8|2
272,232,153633,5,0
272,232,153770,1,2
400,196,154043,2,0,B|444:184,2,40,2|2|8
320,72,154588,5,0
280,68,154724,1,0
240,80,154861,1,2
184,184,155133,2,0,B|143:182|104:150,1,80,0|8
328,172,155815,5,0
328,172,155952,1,2
260,280,156224,2,0,B|236:324,2,40,0|0|8
388,328,156906,5,0
388,328,157043,1,2
424,256,157315,1,0
448,180,157588,2,0,B|460:104,1,40,8|0
400,40,157997,6,0,B|388:116,1,40,8|2
328,144,158406,2,0,B|321:183,2,40,2|2|8
208,100,158952,6,0,B|164:92,1,40
160,132,159224,2,0,B|121:154,1,40
148,184,159497,2,0,B|128:288,1,80,2|8
240,304,160043,6,0,B|228:368,2,40,2|2|8
328,212,160588,2,0,B|333:185,3,26.6666666666667,0|0|0|8
424,284,161270,1,0
396,312,161406,2,0,B|366:340|296:344,1,80,8|10
200,344,161952,1,8
200,344,162088,1,2
104,144,162497,5,8
192,276,163043,1,8
256,228,163315,1,0
296,160,163588,1,8
216,300,164133,5,8
280,252,164405,1,0
320,184,164678,1,8
384,236,164952,5,0
432,300,165224,1,0
436,168,165497,1,0
460,92,165770,1,8
372,264,166315,6,2,B|344:304|288:316,1,89.9999973177911,0|0
268,292,166861,6,0,B|212:284|124:312,1,119.999996423721,2|8
80,328,167679,1,2
80,328,167815,1,0
124,184,168224,6,0,B|90:182|56:160,2,59.9999982118607,0|8|0
136,112,169043,2,0,B|166:118|196:148,1,59.9999982118607,2|0
236,192,169588,1,8
288,244,169861,1,2
288,244,169997,2,0,B|339:253|388:232,1,89.9999973177911
408,172,170679,2,0,B|375:158|324:180,1,59.9999982118607,8|2
296,56,171224,5,2
228,76,171497,1,0
172,120,171770,1,8
124,176,172043,1,2
124,176,172179,2,0,B|100:216|100:276,1,89.9999973177911
160,304,172861,2,0,B|228:340,2,59.9999982118607,8|2|2
256,204,173952,5,0
256,124,174224,1,2
196,56,174497,2,2,B|256:24|311:55,1,119.999996423721,0|0
456,180,175588,5,4
420,268,175861,1,0
360,192,176133,1,8
280,140,176406,1,0
280,140,176543,2,0,B|216:159|184:224,1,120
152,300,177224,1,8
152,300,177497,1,0
240,336,177770,5,2
324,288,178043,1,0
244,236,178315,1,8
176,168,178588,1,0
176,168,178724,2,0,B|210:113|269:85,1,120
366,116,179406,2,0,B|344:150|294:180,1,80,8|0
448,224,179952,5,6
372,280,180224,1,0
276,272,180497,1,8
192,224,180770,1,0
192,224,180906,1,0
124,156,181179,5,0
124,156,181315,2,0,B|88:120|76:68,2,80,0|8|0
180,80,182133,1,2
372,100,182679,1,8
352,196,182952,1,0
352,196,183088,2,0,B|320:256|268:280,1,120
195,121,183770,2,0,B|204:170|224:196,1,80,0|2
24,292,184315,6,0,B|57:222|122:167,1,160,4|8
196,120,185133,1,0
196,120,185270,2,0,B|258:107|336:132,1,120
372,228,185952,2,0,B|328:236|276:216,1,80,0|0
180,236,186497,5,2
128,316,186770,1,0
224,320,187043,1,8
272,236,187315,1,0
272,236,187452,2,0,B|333:221|392:236,1,120
212,172,188133,2,0,B|251:146|296:148,1,80,8|0
416,116,188679,5,6
484,48,188952,1,0
392,28,189224,1,8
320,92,189497,1,0
320,92,189633,2,0,B|272:88|208:112,1,80
204,132,190043,2,0,B|160:128|104:96,1,80,0|8
40,72,190588,1,0
40,72,190861,1,2
64,300,191406,6,0,B|106:311|174:302,1,80,8|0
176,272,191815,2,0,B|233:283|289:331,1,120
376,340,192497,1,8
468,316,192770,1,0
440,224,193043,6,0,B|400:132,1,80,8|0
268,48,193588,2,0,B|308:140,1,80,8|2
288,296,194133,2,0,B|248:204,1,80,8|0
116,120,194678,2,0,B|156:212,1,80,8|2
188,280,195224,5,8
379,270,195770,1,8
218,165,196315,1,8
287,343,196861,1,8
340,160,197406,6,0,B|356:61,1,80,8|0
288,276,197952,2,0,B|386:292,1,80,8|2
172,224,198497,2,0,B|155:322,1,80,8|2
224,108,199043,2,0,B|125:91,1,80,8|2
340,160,199588,5,8
288,276,200133,1,8
172,224,200679,1,8
224,108,201224,1,8
256,192,201770,5,4
372,304,202315,2,0,B|416:320|464:312,1,80,8|0
420,240,202861,1,2
464,172,203133,2,0,B|428:112|332:80,1,160
292,148,203952,1,2
356,196,204224,1,0
292,148,204497,6,0,B|254:122|184:116,1,80,8|0
136,128,205043,2,0,B|156:188|228:204,1,120,2|0
260,216,205588,2,0,B|248:260|208:284,1,80,8|0
144,320,206133,1,2
304,344,206679,5,8
368,296,206952,1,0
412,232,207224,1,2
432,156,207497,1,0
308,56,208043,1,0
268,124,208315,2,0,B|228:200|116:236,1,160,2|8
208,276,209133,1,0
284,252,209406,2,2,B|369:259|446:348,1,160,2|8
448,164,210497,6,0,B|400:92|312:64,1,160,2|8
244,52,211315,1,0
164,60,211588,2,0,B|136:94|112:164,1,80,2|0
256,224,212406,1,0
204,284,212679,1,2
256,344,212952,1,0
308,284,213224,5,8
336,208,213497,1,0
392,268,213770,1,2
468,244,214043,1,0
488,168,214315,5,8
432,108,214588,1,0
352,124,214861,2,0,B|272:128|192:104,1,160,2|8
120,144,215679,1,0
48,176,215952,1,2
120,144,216224,2,0,B|132:228|100:228|120:320,1,160
188,340,217043,2,0,B|248:356|316:340,1,120,2|0
372,240,217588,6,0,B|312:224|244:240,1,120,8|0
216,252,218133,1,2
200,260,218679,1,8
68,112,219224,6,0,B|8:24,1,80,8|0
152,132,219770,2,0,B|132:56,1,80,8|0
236,152,220315,2,0,B|220:20,1,120,8|2
304,92,220861,2,0,B|316:188,1,80,8|0
436,240,221406,6,0,B|392:280|308:296,1,120,8|0
284,240,221952,1,8
284,240,222088,2,0,B|243:261|208:308,1,80,8|0
172,352,222497,1,8
