osu file format v5

[General]
AudioFilename: Hatsune Miku - Momiji.mp3
AudioLeadIn: 1000
PreviewTime: -1
Countdown: 0
SampleSet: Soft
StackLeniency: 0.5
Mode: 0
LetterboxInBreaks: 1

[Metadata]
Title:Momiji
Artist:Hatsune Miku
Creator:Shinxyn
Version:Hard
Source:
Tags:

[Difficulty]
HPDrainRate:7
CircleSize:5
OverallDifficulty:7
SliderMultiplier:1.6
SliderTickRate:2

[Events]
//Background and Video events
0,0,"bb574b45bc287bb70085d9c3883cbdb2.jpg"
//Break Periods
2,9587,16338
2,61919,66869
2,94182,96109
2,131431,132581
//Storyboard Layer 0 (Background)
//Storyboard Layer 1 (Failing)
//Storyboard Layer 2 (Passing)
//Storyboard Layer 3 (Foreground)
//Storyboard Sound Samples
//Background Colour Transformations
3,100,0,0,0

[TimingPoints]
410,560.747663551402,4,2,1,70,1,0
9241,-100,4,2,1,45,0,0
9522,-100,4,2,1,70,0,0
36515,504.201680672269,4,2,0,70,1,0
68657,-100,4,2,0,45,0,0
68909,-100,4,2,0,70,0,0
69729,-100,4,2,0,15,0,0
69855,-100,4,2,0,70,0,0
75716,-100,4,2,0,45,0,0
75968,-100,4,2,0,70,0,0
77733,-100,4,2,0,45,0,0
77985,-100,4,2,0,70,0,0
81893,-100,4,2,0,45,0,0
82019,-100,4,2,0,70,0,0
101017,503.566932438103,4,2,0,70,1,0
114990,-100,4,2,0,45,0,0
115242,-100,4,2,0,70,0,0
133481,560.747663551402,4,2,1,70,1,0
169228,-100,4,2,1,35,0,0

[Colours]
Combo1 : 128,255,255
Combo2 : 255,28,28
Combo3 : 255,253,254
Combo4 : 254,131,241

[HitObjects]
72,136,2652,5,2
128,80,2933,1,0
184,136,3213,1,2
240,80,3494,1,0
296,136,3774,1,2
352,80,4054,1,0
408,136,4335,1,2
408,136,4615,1,2
408,216,4895,5,2
352,272,5176,1,0
296,216,5456,1,2
240,272,5737,1,0
184,208,6017,1,2
136,272,6297,1,0
80,208,6578,1,2
80,208,6858,1,2
80,128,7138,5,2
152,96,7419,1,0
224,128,7699,1,2
296,96,7980,1,0
368,128,8260,2,0,B|456:88,1,80,2|2
448,176,8821,2,0,B|368:208,1,80,2|2
368,128,9381,1,4
152,80,17232,5,2
112,152,17512,1,0
192,152,17793,1,2
152,224,18073,1,0
232,224,18353,2,0,B|304:136|208:64,1,160,2|0
192,152,19195,1,0
152,224,19475,1,2
376,152,20036,5,2
200,312,20596,6,0,B|280:296|280:232|183:221,1,160,0|0
200,104,21438,2,0,B|168:112|153:56,2,40,0|0|0
200,104,21998,1,2
196,224,22279,1,2
88,176,22559,1,0
88,176,22839,1,2
320,104,23400,6,0,B|360:136|320:176,1,80
392,136,23961,2,0,B|424:184|360:232,1,80,2|0
319,256,24522,1,2
160,288,25082,1,0
208,224,25363,1,0
136,184,25643,1,0
88,248,25924,6,0,B|32:240|56:168,2,80,0|2|2
88,248,26765,1,2
48,88,27325,6,0,B|136:56|160:136|224:80,1,160,0|0
280,88,28167,2,0,B|328:88|352:144,1,80,0|2
344,128,28727,1,0
344,128,28867,1,0
344,128,29008,2,0,B|368:176|360:232,1,80,0|0
328,272,29568,1,2
40,56,30410,5,2
40,56,30550,1,0
40,56,30690,1,2
72,168,30970,1,0
152,80,31251,2,0,B|208:64|248:88,2,80,0|0|2
192,192,32092,1,0
312,216,32372,6,0,B|336:176|288:120,1,80
192,192,32933,1,2
424,240,33494,6,0,B|304:288,1,80
240,312,34054,1,2
96,248,34615,1,0
256,192,35176,12,0,36515
136,176,37523,6,0,B|72:160|112:120,1,80
176,160,38027,2,0,B|208:96|248:200,1,80,0|0
168,200,38531,2,0,B|200:240|128:256,1,80,2|0
312,208,39288,1,0
312,208,39414,1,0
312,208,39540,1,2
384,240,39792,1,0
320,288,40044,2,0,B|288:320|216:280,1,80,0|0
232,216,40548,1,0
416,64,41052,5,0
336,56,41304,1,0
256,64,41557,1,2
184,104,41809,1,0
256,136,42061,1,2
184,176,42313,1,0
112,136,42565,2,0,B|64:208|48:288,1,160
72,360,43321,2,0,B|120:320|136:264,1,80,0|2
360,304,44078,5,2
360,64,44582,1,2
360,184,44834,1,0
432,88,45086,1,2
360,184,45338,1,2
432,280,45590,1,2
360,184,45842,5,0
264,112,46094,1,0
144,112,46346,1,0
80,216,46599,1,0
80,216,46725,1,0
80,216,46851,1,0
144,320,47103,1,0
200,216,47355,1,0
200,216,47607,1,0
320,216,47859,5,0
264,112,48111,1,0
264,112,48237,1,0
264,112,48363,1,0
264,112,48615,6,0,B|384:112|384:112|296:192|296:192|400:168|432:288|376:352|264:360|232:272|272:256|272:256|296:240|328:272|304:312|232:288|248:272,1,640,0|2
266,289,51136,1,0
266,289,51388,1,2
88,264,51641,6,0,B|32:264|24:184,1,80,0|0
16,136,52145,2,0,B|8:80|80:56,1,80,0|0
120,40,52649,2,0,B|176:32|208:88,1,80
192,65,53153,1,2
192,65,53405,1,2
216,144,53657,2,0,B|240:192|192:248,3,80
288,200,54666,1,0
448,200,55170,1,0
328,312,55674,5,0
288,312,55800,1,0
248,312,55926,1,0
248,232,56178,1,0
176,272,56430,1,0
96,264,56683,2,0,B|88:216|208:216|136:192|208:152,1,160,0|2
344,232,57691,6,0,B|424:152,1,80,0|0
400,96,58195,2,0,B|400:192,1,80
344,232,58699,2,0,B|430:278,2,80,0|0|0
272,192,59456,1,0
272,192,59582,1,0
272,192,59708,1,0
256,192,60212,12,0,61725
256,192,67775,12,4,68783
168,272,69288,5,2
200,288,69414,1,0
240,304,69540,1,0
280,288,69666,1,0
312,272,69792,1,6
239,237,70044,1,2
168,200,70296,5,2
200,184,70422,1,0
240,168,70548,1,0
280,184,70674,1,0
312,200,70800,1,2
352,216,70926,6,0,B|392:176,2,40
352,264,71304,6,0,B|400:312,2,40,2|0|0
320,240,71683,5,0
320,240,71809,1,2
160,240,72313,6,0,B|120:248|104:200,2,40,2|0|0
160,200,72691,2,0,B|192:208|208:176|208:160,2,40,0|2|0
160,160,73069,6,0,B|136:168|112:144,2,40,0|0|2
160,120,73447,2,0,B|192:128|200:104,2,40,0|0|2
160,80,73825,5,2
160,80,74078,1,0
80,80,74330,2,0,B|40:96|48:168,1,80,2|0
48,224,74834,2,0,B|48:328|48:344,3,80,2|0|2|0
128,304,75842,1,4
128,304,76094,1,0
176,240,76346,5,2
224,176,76599,1,0
272,112,76851,1,0
272,112,77103,1,0
320,176,77355,1,2
320,176,77607,1,0
360,240,77859,1,6
360,240,78111,1,0
400,312,78363,6,0,B|280:312|328:312,1,80,2|0
240,312,78867,2,8,B|184:240,1,80,0|0
112,248,79372,2,8,B|176:336,2,80,2|0|2
248,160,80380,1,2
88,136,80884,5,2
112,104,81010,1,0
144,88,81136,1,0
176,104,81262,1,0
200,136,81388,1,2
144,192,81641,1,0
144,232,81767,1,0
144,272,81893,1,4
384,232,82397,5,2
344,248,82523,1,0
304,264,82649,1,0
264,280,82775,1,0
224,296,82901,1,2
312,160,83405,1,2
104,232,83909,5,2
191,150,84162,1,2
272,64,84414,1,2
272,64,84666,1,0
272,64,84918,1,0
328,208,85422,5,0
313,245,85548,1,0
296,280,85674,1,0
256,280,85800,1,0
216,280,85926,1,2
72,208,86430,1,0
232,208,86935,1,2
392,208,87439,1,0
232,32,87943,6,0,B|232:136,2,80,0|0|0
232,288,88951,2,0,B|232:192,2,80,0|0|0
360,80,89960,6,0,B|264:80,1,80,2|0
152,80,90464,2,0,B|248:80,1,80,2|0
256,200,90968,2,0,B|256:120,4,40,2|0|0|0|2
256,200,91725,1,0
256,200,91977,1,2
256,192,92481,12,0,93993
376,200,97019,5,0
304,160,97271,1,0
304,240,97523,1,2
144,200,98027,1,0
208,160,98279,1,0
208,240,98531,1,2
344,160,99036,6,0,B|232:160,1,80
320,104,99540,2,0,B|208:104,1,80,0|0
160,104,100044,1,0
160,104,100170,1,0
160,104,100296,1,0
88,72,100548,1,2
160,208,101017,5,2
160,208,101142,1,0
160,208,101268,1,0
160,208,101394,1,0
160,208,101520,1,2
240,208,101772,1,0
240,208,101898,1,0
240,208,102024,1,2
400,208,102527,5,2
400,168,102653,1,0
400,128,102779,1,0
400,208,103031,1,2
160,208,103534,5,2
400,208,104038,5,2
400,288,104290,1,0
320,288,104541,2,0,B|320:176,1,80,2|0
240,208,105045,2,0,B|240:296,1,80,2|0
160,288,105549,2,0,B|160:200,1,80,2|0
160,128,106052,6,4,B|216:128,2,40,2|0|0
240,128,106556,2,0,B|352:128,1,80,2|0
400,128,107059,2,0,B|344:128,2,40,2|0|0
400,128,107563,1,2
240,128,108066,5,2
240,168,108192,1,0
240,208,108318,1,0
240,128,108570,1,0
240,208,108822,1,0
240,128,109074,1,2
240,288,109577,5,2
280,288,109703,1,0
320,288,109829,1,0
400,288,110081,1,2
240,288,110584,5,2
160,288,110836,1,0
80,288,111088,1,2
80,128,111591,1,2
110,156,111717,1,0
136,184,111843,1,0
192,128,112095,1,2
248,184,112347,1,0
304,128,112599,5,2
332,156,112724,1,0
360,184,112850,1,0
416,128,113102,2,0,B|488:128,4,40,2|0|0|0|2
360,184,113857,5,0
304,240,114109,1,2
144,240,114613,1,0
224,240,114865,1,0
304,240,115116,1,6
48,160,116124,6,0,B|136:104|224:168,1,160
128,296,117131,2,0,B|216:352|296:280,1,160
200,152,118138,2,0,B|280:104|376:168,1,160
352,232,118893,1,0
352,312,119145,1,0
32,264,120152,5,2
32,264,120404,1,0
32,264,120656,1,0
256,352,121159,1,2
72,200,121663,1,0
296,288,122166,1,2
112,136,122670,1,0
336,224,123173,1,2
152,72,123677,1,2
152,232,124181,5,2
152,232,124432,1,0
224,192,124684,1,2
224,192,124936,1,2
288,144,125188,1,0
48,192,125943,5,0
128,192,126195,1,2
288,192,126698,1,0
336,128,126950,1,2
384,64,127202,1,0
176,192,127957,5,0
128,256,128209,1,0
80,320,128461,1,0
128,256,128713,1,0
216,128,129216,1,0
256,56,129468,1,0
56,192,129972,5,2
136,192,130223,1,0
456,192,130979,1,0
376,192,131231,1,2
256,192,133481,12,0,134602
208,144,135163,5,0
104,208,135443,1,0
208,264,135723,1,0
264,56,136565,6,0,B|224:16,2,40,0|0|0
320,104,137125,2,0,B|392:176,1,80,0|0
312,208,137686,2,0,B|376:272,1,80,0|0
128,216,138808,5,0
208,216,139088,1,2
256,280,139368,1,2
256,280,139509,1,2
256,280,139649,1,2
176,280,139929,1,0
128,216,140209,1,2
80,152,140490,5,2
112,128,140630,1,0
144,104,140770,1,0
224,112,141051,1,0
152,152,141331,1,2
232,168,141611,1,2
160,200,141892,1,0
200,208,142032,1,0
240,216,142172,1,0
256,192,142452,12,0,145256
256,120,145537,6,2,B|256:56,2,40
256,120,146097,1,0
256,240,146378,2,0,B|256:288,2,40,0|2|0
256,240,146938,1,2
16,192,147499,5,0
136,192,147780,1,0
256,192,148060,1,2
496,192,148621,5,0
376,192,148901,1,0
256,192,149181,1,2
256,192,149742,5,2
256,192,150023,1,0
352,120,150303,5,2
256,192,150583,1,0
352,256,150864,1,2
256,192,151144,1,0
160,120,151424,1,2
256,192,151705,1,0
160,264,151985,1,2
64,192,152266,5,0
144,192,152546,1,2
272,96,153107,2,0,B|344:168,1,80
328,232,153667,2,0,B|264:296,1,80
144,192,154509,5,2
184,200,154649,1,0
224,192,154789,1,2
264,200,154929,1,0
304,192,155069,1,0
384,192,155350,2,0,B|432:192,2,40,0|0|0
304,192,155910,1,0
224,192,156191,1,0
144,192,156471,1,0
80,144,156752,6,0,B|144:80,1,80,0|2
80,240,157593,2,0,B|152:312,1,80,2|0
80,240,158153,1,2
80,144,158434,1,2
232,192,158995,5,0
232,112,159275,1,2
304,152,159555,1,0
304,232,159836,1,2
232,272,160116,1,0
152,272,160396,2,0,B|216:232|56:200|232:168|128:104,3,160
120,200,162359,1,0
152,272,162639,1,2
424,48,163480,5,0
376,72,163621,1,0
328,96,163761,1,2
424,168,164041,1,0
376,192,164181,1,0
328,216,164322,1,2
424,280,164602,1,2
376,304,164742,1,2
328,328,164882,1,2
208,328,165163,5,0
160,304,165303,1,0
112,280,165443,1,2
208,216,165723,1,2
160,192,165864,1,0
112,168,166004,1,2
256,32,166565,5,0
304,144,166845,1,0
408,192,167125,1,2
408,192,167266,1,0
408,192,167406,1,0
408,352,167686,5,0
88,352,168247,1,2
88,32,168808,1,0
408,32,169368,1,4
