osu file format v5

[General]
AudioFilename: hatsune miku - miki no ivu(www.o-mp3.pl).mp3
AudioLeadIn: 0
PreviewTime: -1
Countdown: 1
SampleSet: Soft
StackLeniency: 0.6
Mode: 0
LetterboxInBreaks: 1

[Editor]
Bookmarks: 40822,65995,66852,67709,68673
DistanceSpacing: 0.699999988079071
BeatDivisor: 4
GridSize: 8

[Metadata]
Title:Mirai no Eve
Artist:Hatsune Miku
Creator:fartownik
Version:Insane
Source:
Tags:Hatsune Miku Vocaloid Miki no Ivu

[Difficulty]
HPDrainRate:5
CircleSize:5
OverallDifficulty:8
SliderMultiplier:2.4
SliderTickRate:1

[Events]
//Background and Video events
0,0,"1230263601758.jpg"
//Break Periods
//Storyboard Layer 0 (Background)
//Storyboard Layer 1 (Fail)
//Storyboard Layer 2 (Pass)
//Storyboard Layer 3 (Foreground)
//Storyboard Sound Samples
//Background Colour Transformations
3,100,163,162,255

[TimingPoints]
2026,428.571428571429,4,2,0,79,1,0
7218,-100,4,2,0,81,0,1
7400,-100,4,2,0,80,0,0
52177,-200,4,2,0,79,0,0
63960,-100,4,2,0,80,0,0
68780,-100,4,2,0,80,0,1
82549,-100,4,2,0,80,0,0
94060,-100,4,2,0,50,0,0
95346,-100,4,2,0,36,0,0
96631,-100,4,2,0,23,0,0
97917,-100,4,2,0,10,0,0
99202,-100,4,2,0,0,0,0

[Colours]
Combo1 : 165,183,201
Combo2 : 67,231,215
Combo3 : 51,90,196

[HitObjects]
144,80,2026,1,0
144,160,2240,1,0
176,192,2347,1,0
144,224,2454,1,0
256,192,2668,1,4
256,96,2883,5,0
368,224,3097,5,0
336,192,3204,1,0
368,160,3311,1,0
368,80,3526,1,4
448,80,3740,6,0,B|496:128|448:192,1,120,2|2
450,188,4061,1,2
450,188,4168,1,2
432,272,4383,1,2
432,272,4490,1,2
432,272,4597,6,0,B|368:240|304:304,1,120,2|0
320,289,4918,1,0
320,289,5026,1,0
256,192,5454,12,4,7168
256,192,7597,5,0
336,192,7811,1,0
336,192,7918,1,0
336,192,8025,1,4
416,192,8240,1,0
336,192,8454,1,0
256,48,8883,5,4
336,48,9097,1,0
336,48,9204,1,0
336,48,9311,1,0
360,256,9525,5,0
328,272,9633,1,0
296,256,9740,1,4
256,272,9847,1,0
224,256,9954,1,0
192,272,10061,1,0
160,256,10168,1,0
256,48,10597,5,2
272,88,10704,1,0
384,48,10918,1,2
400,80,11025,1,2
368,160,11240,1,0
384,192,11347,1,0
400,224,11454,1,4
336,272,11668,5,8
256,176,11883,1,8
176,272,12097,1,8
256,48,12311,5,2
232,80,12418,1,0
128,48,12633,1,2
112,80,12740,1,0
144,160,12954,1,0
128,192,13061,1,0
112,224,13168,1,4
176,272,13383,5,8
256,176,13597,1,8
336,272,13811,1,8
352,64,14025,6,0,B|496:64,2,120
256,64,14668,1,2
160,160,14883,1,0
64,64,15097,1,2
160,64,15311,5,0
160,64,15418,1,0
160,64,15525,1,0
224,128,15740,1,2
96,128,15954,1,2
160,64,16168,5,0
160,64,16275,1,0
160,64,16383,1,2
160,112,16490,1,0
160,152,16597,1,8
160,192,16704,1,2
336,192,17025,5,0
336,192,17133,1,0
336,192,17240,1,2
336,152,17347,1,0
336,112,17454,1,8
336,80,17561,1,2
256,304,17883,5,0
256,256,17990,1,0
256,208,18097,1,2
256,160,18204,1,0
256,112,18311,1,4
256,64,18418,1,2
128,64,18740,5,4
384,64,18954,1,4
256,208,19168,1,4
256,192,19276,12,4,20026
256,192,20240,5,0
256,192,20454,1,0
256,192,20668,1,0
256,192,20883,1,4
256,192,20990,12,0,21740
256,192,21954,6,0,B|328:192,2,60,4|4|4
144,96,22383,1,2
144,192,22597,1,2
256,96,22811,5,2
360,192,23026,1,2
256,296,23240,5,2
144,296,23454,1,2
256,192,23668,5,2
144,192,23883,1,2
144,192,23990,1,2
144,192,24097,1,2
256,96,24311,6,0,B|416:96|472:160|504:272|440:336|400:304,1,360,4|0
352,288,25168,1,0
320,208,25383,1,0
240,224,25597,1,8
216,192,25704,1,8
216,152,25811,1,8
192,80,26026,6,0,B|128:32|-80:216|336:360,1,480,4|2
316,353,26990,1,2
318,353,27097,1,2
320,272,27311,1,2
320,184,27526,1,0
320,96,27740,5,4
288,64,27847,1,0
256,96,27954,1,0
168,96,28168,1,0
96,48,28383,1,0
64,80,28490,1,0
96,112,28597,1,0
96,192,28811,1,0
96,272,29026,5,8
96,272,29133,1,8
96,272,29240,1,8
96,272,29347,1,0
96,272,29454,2,0,B|160:304|472:328|568:104|296:40,1,600,4|0
296,96,30633,5,0
264,120,30740,1,2
232,144,30847,1,2
200,168,30954,1,2
168,192,31061,1,0
144,216,31168,6,0,B|192:256,1,60,8|0
232,256,31383,2,0,B|272:208,1,60,0|0
312,216,31597,2,0,B|352:264,1,60,8|0
392,256,31811,2,0,B|432:208,1,60,0|0
424,168,32026,1,8
384,152,32133,1,0
384,112,32240,1,8
344,104,32347,1,0
352,64,32454,1,8
312,56,32561,1,0
208,24,32883,6,0,B|240:80|168:128,1,120,2|0
208,136,33204,1,0
240,152,33311,2,0,B|264:208|192:264,1,120,2|0
160,312,33740,5,2
128,288,33847,1,0
88,264,33954,1,2
56,240,34061,5,0
88,264,34168,1,2
128,288,34276,1,0
161,311,34383,1,2
240,336,34597,2,0,B|312:360|392:296,1,120,8|0
416,264,35026,5,8
416,264,35133,1,0
416,264,35240,1,0
416,264,35347,1,0
416,264,35454,2,0,B|320:168,1,120,8|2
296,200,35776,2,0,B|160:56,1,180,0|4
185,127,36204,5,2
185,127,36311,1,0
120,160,36526,1,0
120,160,36633,1,0
120,160,36740,1,4
120,160,36847,1,0
256,192,36954,12,4,38026
104,192,38668,5,0
256,88,38883,1,0
408,192,39097,1,0
256,192,39311,5,8
256,192,39418,1,8
256,192,39526,1,8
256,192,39633,1,0
256,192,39740,2,0,L|456:296|360:344|224:272,1,480,4|0
184,280,40704,1,2
184,280,40811,1,2
120,224,41026,1,2
184,168,41240,1,0
112,120,41454,6,0,L|216:32|384:72|248:184,1,480,4|0
248,264,42526,1,0
320,216,42740,1,8
344,248,42847,1,8
368,216,42954,1,8
352,136,43168,6,4,L|256:96|96:240|240:328,1,480,4|0
320,320,44240,1,0
400,320,44454,1,2
400,280,44561,1,2
400,240,44668,1,2
400,200,44775,1,0
400,160,44883,1,0
312,160,45097,5,8
312,160,45204,1,0
224,160,45418,1,8
184,160,45525,1,0
144,160,45633,1,0
104,160,45740,2,0,L|104:96,2,60,8|0|0
64,160,46061,1,8
64,200,46168,1,0
64,240,46275,5,4
104,240,46383,1,0
144,240,46490,1,2
184,240,46597,2,0,L|184:304,2,60,0|2|0
224,240,46918,2,0,L|224:168,2,60,0|2|0
352,240,47454,2,0,L|352:104,1,120
352,120,47775,1,0
264,120,47990,1,4
264,120,48097,1,0
176,120,48311,5,0
128,192,48525,1,8
176,264,48740,1,0
176,264,48847,1,8
176,264,48954,1,0
256,264,49168,2,0,L|320:264|320:184,1,120,8|0
280,208,49490,2,0,L|280:144|352:144,1,120,8|0
344,184,49811,2,0,L|408:184|408:112,1,120,0|4
448,128,50133,6,0,L|448:64|288:64,1,180
248,64,50668,1,4
160,64,50883,2,0,L|56:208|56:208|56:336|232:336,1,480,0|4
312,336,52168,5,6
312,336,52275,1,4
312,248,52597,5,8
312,248,52704,1,0
400,248,53025,5,2
400,248,53133,1,2
344,176,53454,6,0,L|392:120|296:72|224:168|136:112|80:184,1,480,0|4
264,320,55597,5,2
264,320,55704,1,2
344,296,56025,5,8
344,296,56133,1,8
280,240,56454,5,4
280,240,56561,1,4
200,272,56883,6,0,L|112:224|176:112,1,180,0|8
112,136,57740,6,0,L|160:72|40:8,1,180,0|2
48,56,58597,5,4
256,192,58704,12,4,60311
256,192,60525,12,4,62025
176,192,62240,5,0
256,192,62454,5,0
336,192,62668,5,0
256,192,62883,12,4,63740
256,192,64168,5,2
256,192,64275,1,0
256,192,64383,2,0,B|264:96|392:56|488:56|504:224|480:360|400:312,1,480,0|2
368,304,65347,5,0
328,304,65454,1,0
288,304,65561,1,0
248,304,65668,1,0
248,264,65775,1,0
248,224,65883,1,0
248,184,65990,1,0
120,184,66311,5,2
120,224,66418,1,2
120,264,66525,1,2
120,224,66633,1,2
120,184,66740,1,2
120,224,66847,1,2
40,176,67168,5,0
40,136,67275,1,0
40,96,67383,1,0
80,96,67490,1,0
120,96,67597,1,0
160,96,67704,1,0
256,128,68025,5,2
288,96,68133,1,2
312,128,68240,1,2
344,96,68347,1,2
368,128,68454,1,2
392,96,68561,1,2
416,128,68668,1,2
424,272,68883,5,8
288,328,69097,1,0
200,216,69311,1,8
344,224,69525,5,0
344,224,69633,1,0
344,224,69740,1,8
200,216,69954,5,0
288,328,70168,1,8
120,328,70383,1,0
200,216,70597,5,2
112,216,70811,1,2
80,192,70918,1,2
112,160,71025,1,2
112,72,71240,5,2
144,40,71347,1,2
168,72,71454,1,2
272,64,71668,5,2
304,88,71775,1,2
272,120,71883,1,2
400,192,72311,5,4
256,192,72525,1,0
112,192,72740,1,4
256,32,73061,1,0
256,32,73168,1,0
176,152,73383,5,8
256,272,73597,1,8
344,152,73811,1,8
112,192,74025,5,4
256,192,74240,1,0
400,192,74454,1,4
256,352,74775,1,0
256,352,74883,1,0
344,232,75097,5,8
256,112,75311,1,8
176,232,75525,1,8
88,112,75740,5,2
224,56,75954,1,0
312,168,76168,1,2
168,160,76383,5,0
168,160,76490,1,0
168,160,76597,1,2
312,168,76811,5,2
224,56,77025,1,0
392,56,77240,1,2
312,168,77454,5,8
400,168,77668,1,8
432,192,77775,1,8
400,224,77883,1,8
400,312,78097,5,8
368,344,78204,1,8
344,312,78311,1,8
240,320,78525,5,8
208,296,78633,1,8
240,264,78740,1,8
448,64,79168,6,0,B|448:136|360:136,1,120,4|0
370,135,79490,1,0
370,135,79597,1,4
240,136,79918,1,0
240,136,80025,2,0,B|152:136|152:232,1,120,0|8
208,344,80454,5,8
211,202,80668,1,8
64,64,80883,6,0,B|64:136|152:136,1,120,4|0
142,135,81204,1,0
142,135,81311,1,4
264,136,81633,1,0
264,136,81740,2,0,B|344:136|344:232,1,120,0|8
304,344,82168,5,8
301,202,82383,1,8
456,312,82597,6,2,B|392:256,1,60
440,240,82811,2,2,B|376:184,1,60
424,168,83025,2,2,B|368:128,1,60
328,72,83347,6,0,B|288:136,1,60
256,112,83561,2,0,B|216:168,1,60
184,144,83775,2,0,B|136:200,1,60
40,304,84311,5,8
80,304,84418,1,0
120,304,84525,1,0
160,304,84633,2,0,B|160:240,2,60,8|0|0
200,304,84954,1,8
240,304,85061,1,0
280,304,85168,5,8
320,304,85276,1,0
360,304,85383,1,0
400,304,85490,2,0,B|400:368,2,60,8|0|0
440,304,85811,1,8
440,264,85918,1,0
440,224,86026,5,8
440,184,86133,1,0
440,144,86240,1,0
440,104,86347,2,0,B|512:104,2,60,8|0|0
440,64,86668,1,8
352,64,86883,5,0
312,64,86990,1,0
272,64,87097,1,2
240,64,87204,1,0
200,64,87311,2,0,B|200:192,2,120,0|4|0
200,64,87847,6,0,B|120:-56|96:32|80:72,1,180,0|0
96,144,88383,2,0,B|96:216|184:208,1,120,4|0
176,208,88704,1,0
176,208,88811,1,0
256,208,89025,5,0
256,208,89133,1,0
256,208,89240,2,0,B|344:208|352:312,1,120,4|0
345,273,89561,1,0
345,273,89668,1,0
424,272,89883,5,0
424,272,89990,1,0
424,272,90097,1,4
424,184,90311,1,0
424,184,90418,1,0
424,184,90525,1,0
424,96,90740,5,0
280,96,90954,1,4
344,224,91168,5,8
280,96,91383,1,0
192,208,91597,5,8
280,96,91811,1,0
136,96,92025,5,8
280,96,92240,1,0
80,312,92883,5,2
224,312,93097,1,0
80,248,93311,5,0
224,248,93525,1,0
80,192,93740,5,2
224,192,93954,1,0
80,144,94168,5,0
224,144,94383,1,0
80,104,94597,5,2
224,104,94811,1,0
80,72,95025,5,0
224,72,95240,1,0
80,48,95454,5,2
224,48,95668,1,0
80,72,95883,5,0
224,72,96097,1,0
80,104,96311,5,2
224,104,96525,1,0
80,144,96740,5,0
224,144,96954,1,0
80,192,97168,5,2
224,192,97383,1,0
80,248,97597,5,0
224,248,97811,1,0
80,312,98025,5,2
224,312,98240,1,0
80,312,98454,5,0
224,248,98668,1,0
80,248,98883,1,0
256,192,99097,12,0,100597
