osu file format v5

[General]
AudioFilename: hatsune miku - miki no ivu(www.o-mp3.pl).mp3
AudioLeadIn: 0
PreviewTime: -1
Countdown: 1
SampleSet: Soft
StackLeniency: 0.6
Mode: 0
LetterboxInBreaks: 1

[Editor]
Bookmarks: 24954,31597,32026,33311,34061,34811,35026,40822,46811,49383,65995,66852,67709,68673,69311,70168
DistanceSpacing: 1.60000002384186
BeatDivisor: 4
GridSize: 8

[Metadata]
Title:Mirai no Eve
Artist:Hatsune Miku
Creator:fartownik
Version:Hard
Source:
Tags:Hatsune Miku Vocaloid Miki no Ivu Mirai no Eve

[Difficulty]
HPDrainRate:4
CircleSize:4
OverallDifficulty:6
SliderMultiplier:1.9
SliderTickRate:1

[Events]
//Background and Video events
0,0,"1230263601758.jpg"
//Break Periods
//Storyboard Layer 0 (Background)
//Storyboard Layer 1 (Fail)
//Storyboard Layer 2 (Pass)
//Storyboard Layer 3 (Foreground)
//Storyboard Sound Samples
//Background Colour Transformations
3,100,163,162,255

[TimingPoints]
2026,428.571428571429,4,2,0,69,1,0
68776,-100,4,2,0,69,0,1
82490,-100,4,2,0,69,0,0
94061,-100,4,2,0,49,0,0
95347,-100,4,2,0,33,0,0
96633,-100,4,2,0,18,0,0
98561,-100,4,2,0,9,0,0
100276,-100,4,2,0,0,0,0

[Colours]
Combo1 : 165,183,201
Combo2 : 67,231,215
Combo3 : 51,90,196

[HitObjects]
160,312,2026,1,0
224,264,2240,1,0
256,192,2454,1,2
352,72,2883,5,0
288,120,3097,1,0
256,192,3311,1,2
88,192,3740,5,0
176,192,3954,2,0,B|176:248,2,47.5
256,192,4383,1,2
336,160,4597,1,0
416,192,4811,1,0
496,160,5026,1,2
256,192,5454,12,4,6740
136,192,7168,6,0,B|224:104|344:88,1,190,0|4
368,144,7811,1,0
296,192,8025,1,0
296,192,8133,1,0
296,192,8240,1,0
344,264,8454,1,4
432,264,8668,1,0
384,192,8883,5,0
296,192,9097,2,0,B|296:128,2,47.5,0|0|4
208,192,9525,2,0,B|208:240,2,47.5,0|0|0
120,192,9954,1,4
120,192,10061,1,0
120,192,10168,1,4
344,64,10597,5,2
168,64,11025,1,2
256,64,11240,1,0
256,64,11347,1,2
256,64,11454,2,0,B|256:352,1,285,2|8
168,344,12311,5,2
336,344,12740,1,2
256,344,12954,1,0
256,344,13061,1,2
256,344,13168,2,0,B|256:56,1,285,2|8
168,64,14025,5,2
112,128,14240,1,0
184,176,14454,1,0
136,248,14668,1,8
216,280,14883,2,0,B|272:184,2,95,2|0|0
288,320,15525,1,8
328,248,15740,6,0,B|416:304,2,95,2|0|0
368,168,16383,1,8
296,120,16597,2,0,B|352:16,2,95,2|0|0
256,192,17240,1,8
208,264,17454,2,0,B|152:352,2,95,2|0|0
256,192,18097,5,8
256,192,18311,1,0
256,192,18526,1,0
256,192,18740,6,0,B|176:208|152:168,1,95,4|0
256,192,19168,2,0,B|216:144|248:104,1,95,4|0
256,192,19597,6,0,B|312:144|360:160,1,95
256,192,20026,2,0,B|312:224|320:280,1,95,4|0
256,192,20454,2,0,B|224:240|168:232,1,95
168,144,20883,5,4
216,72,21097,1,0
280,128,21311,1,0
328,56,21526,1,2
328,56,21633,1,2
328,56,21740,1,2
392,112,21954,1,4
344,176,22168,1,4
416,216,22383,1,0
344,264,22597,6,0,B|344:336,2,47.5
256,264,23026,1,2
168,264,23240,2,0,B|168:208,2,47.5
80,264,23668,1,2
80,264,23883,2,0,L|120:168|208:152,1,190
136,96,24526,5,0
216,72,24740,2,0,L|280:56|328:96,1,95,4|0
392,120,25168,1,0
392,120,25276,2,0,L|341:209|405:265,1,142.5,0|8
200,232,26026,5,0
240,232,26133,2,0,L|288:304|376:144|424:200|424:200,1,332.5,0|4
400,280,27097,1,0
400,280,27311,1,8
296,144,27740,5,0
320,176,27847,2,0,L|256:224|296:256|160:312,1,237.5,0|4
152,296,28490,1,0
112,296,28597,2,8,L|56:264|104:232,1,95,0|0
80,160,29026,1,8
248,192,29454,6,0,L|288:128|504:160,1,285,0|4
440,224,30311,1,0
456,296,30526,2,0,L|368:336|184:264,1,285,0|8
328,200,31383,6,0,C|296:176|264:200|232:176|200:200|192:192,1,95,8|8
96,192,31811,2,0,C|96:136|96:120|96:112|96:72|112:64|96:64,1,95
248,96,32240,1,2
400,96,32454,1,2
328,200,32668,1,2
176,200,32883,6,0,C|232:200|240:184|248:200|256:184|266:198,2,95,4|4|0
96,200,33418,1,4
296,304,33740,2,0,L|312:288|328:304|344:288|360:304|376:288|392:304|408:288|424:304|440:288|456:304|456:304|456:304|456:304,1,190
296,224,34383,1,0
304,72,34597,6,0,C|256:48|200:80|200:80,2,95,8|8|0
376,104,35133,1,8
456,312,35454,2,0,L|392:240|384:248,1,95,2|2
320,240,35775,2,0,L|256:320|256:320,1,95,2|0
184,312,36097,1,0
184,160,36311,5,4
408,168,36633,1,0
408,168,36740,1,0
408,320,36954,1,6
256,296,37168,2,0,L|256:160,1,95
112,128,37597,2,0,L|112:256,1,95,0|0
184,336,38026,6,0,L|184:48,1,285,0|4
256,56,38883,1,0
256,144,39097,1,0
328,104,39311,1,8
336,264,39740,6,0,L|216:304|96:184,1,285,0|4
200,184,40597,1,0
280,208,40811,1,0
264,120,41026,1,8
440,152,41454,6,0,L|440:264,2,95,4|0|0
352,152,42097,1,0
352,240,42311,1,0
352,328,42526,1,0
280,280,42740,1,8
352,152,43168,6,0,L|152:152,1,190,0|0
80,192,43811,1,4
160,224,44026,2,0,L|368:224,1,190,0|8
408,288,44669,1,2
448,288,44776,1,2
368,72,45097,6,0,L|240:128|264:128,2,95,4|4|0
216,56,45740,2,0,L|88:120|104:128,2,95,4|4|0
368,72,46383,1,2
384,224,46597,6,0,C|336:224|336:176|288:176|296:144,1,95,4|4
302,318,47026,2,0,C|254:318|254:270|206:270|214:230,1,95,4|4
256,120,47454,1,2
256,272,47668,1,2
112,216,47883,1,2
112,64,48097,1,0
256,120,48311,6,0,L|256:280,1,95,8|8
408,192,48740,1,0
408,192,48847,1,0
408,192,48954,1,0
408,344,49168,2,0,C|440:320|464:344|488:320|488:320|488:320|488:320,1,95
328,344,49597,2,0,C|296:320|272:344|248:320|248:320|248:320|248:320,1,95
104,328,50026,5,8
344,144,50454,1,0
224,232,50668,1,0
104,328,50883,1,8
256,192,50936,12,4,51740
432,192,52168,5,8
256,192,52597,1,4
80,192,53026,1,2
256,192,53454,1,0
432,192,53883,5,0
344,336,54311,1,0
168,328,54740,1,0
256,192,55168,1,4
352,48,55597,6,0,L|144:48,1,190,2|4
160,136,56240,1,0
160,224,56454,6,0,L|360:224,1,190,8|0
344,312,57097,1,0
256,312,57311,6,0,L|56:312,1,190,8|0
64,224,57954,1,0
64,136,58168,1,8
64,48,58383,1,0
256,192,58490,12,4,60311
256,192,60418,12,4,62026
256,192,62133,12,4,63311
168,192,63526,5,0
336,192,63740,5,0
256,192,64061,12,4,65026
256,192,65454,5,0
256,192,65561,1,0
256,192,65668,1,0
344,192,65883,1,0
432,192,66097,1,4
256,192,66311,5,0
256,192,66418,1,0
256,192,66525,1,0
168,192,66739,1,0
80,192,66954,1,4
256,192,67169,5,0
256,192,67276,1,0
256,192,67383,1,0
256,104,67597,1,0
256,16,67811,1,4
256,192,68026,6,2,L|256:280,6,47.5
112,240,68883,6,0,L|112:104,2,95,4|0|4
256,192,69526,1,0
400,144,69740,2,0,L|400:280,2,95,4|0|4
328,272,70383,5,8
184,272,70597,1,8
328,272,70811,6,2,L|328:184,2,47.5
184,272,71240,2,2,L|184:184,2,47.5
256,136,71668,5,0
256,136,71776,1,0
256,136,71883,2,2,L|256:264,1,95
112,272,72311,5,4
344,72,72740,1,4
392,296,73061,1,0
392,296,73168,1,0
288,208,73383,2,0,C|216:208|216:160|216:160,2,95,8|8|8
408,120,74026,5,4
184,320,74454,1,4
152,96,74776,1,0
152,96,74883,1,0
256,200,75097,2,0,C|328:200|328:240|328:240,2,95,8|8|8
408,192,75740,5,4
408,40,75954,1,0
272,112,76169,1,4
56,328,76597,5,4
184,240,76811,1,0
56,152,77026,1,4
344,248,77454,5,8
256,128,77668,2,2,L|168:24|176:24,2,95,8|2|2
256,280,78311,1,2
256,128,78526,2,2,L|328:216|328:216,1,95,0|2
80,192,79168,5,4
352,328,79597,1,4
256,128,79918,1,0
256,128,80026,1,0
160,240,80240,6,0,L|160:112,2,95,8|8|8
48,136,80883,5,4
352,136,81311,1,4
208,312,81633,1,0
208,312,81740,1,0
296,152,81954,6,0,L|296:280,2,95,8|8|8
248,96,82597,5,2
160,96,82811,1,2
208,168,83026,1,2
96,96,83347,5,0
96,96,83454,1,0
56,168,83669,1,0
136,168,83883,1,0
144,336,84311,5,0
144,336,84418,1,8
232,336,84633,1,0
232,336,84740,1,0
320,336,84954,1,8
408,336,85168,5,0
408,336,85276,1,2
408,248,85490,1,0
408,248,85597,1,0
408,160,85811,1,2
320,160,86026,6,0,L|256:160,2,47.5,0|8|0
272,88,86454,2,0,L|336:88,2,47.5,0|0|8
184,88,86883,5,2
184,128,86990,1,0
184,168,87097,1,0
184,256,87311,1,0
272,256,87526,1,2
360,256,87740,1,0
360,168,87954,5,0
272,168,88168,1,0
272,80,88383,1,2
360,80,88597,1,0
448,80,88811,5,0
448,168,89026,1,0
448,256,89240,1,2
448,344,89454,1,0
360,344,89668,5,0
272,344,89883,1,0
184,344,90097,1,2
184,304,90204,1,2
184,264,90311,1,2
272,264,90526,1,0
272,224,90633,1,0
272,184,90740,1,0
360,184,90954,5,0
360,96,91168,1,4
360,184,91383,5,0
448,184,91597,1,4
360,184,91811,5,0
360,272,92026,1,4
360,184,92240,5,0
272,184,92454,1,0
104,216,92883,6,0,L|104:144,2,47.5
184,192,93311,1,2
184,280,93526,1,0
256,232,93740,2,0,L|320:232,2,47.5
256,144,94168,5,2
304,72,94383,1,0
352,144,94597,2,0,L|424:144,2,47.5
352,232,95026,1,2
440,232,95240,1,0
392,304,95454,6,0,L|392:352,2,47.5
304,304,95883,1,2
248,240,96097,1,0
192,304,96311,1,0
136,240,96526,1,0
80,304,96740,1,0
136,240,96954,6,0,B|136:112,1,95
216,104,97383,2,0,B|216:208,1,95
296,160,97811,6,0,B|296:56,1,95
376,80,98240,2,0,B|376:192,1,95
456,136,98668,2,0,B|456:32,1,95
256,192,98990,12,0,100597
