osu file format v7

[General]
AudioFilename: Projetc Diva's Miracle Paint.mp3
AudioLeadIn: 1015
PreviewTime: 54199
Countdown: 1
SampleSet: Soft
StackLeniency: 0.7
Mode: 0
LetterboxInBreaks: 1

[Editor]
Bookmarks: 67147
DistanceSpacing: 1
BeatDivisor: 3
GridSize: 8

[Metadata]
Title:Miracle Paint
Artist:Hatsune Miku
Creator:Krisom
Version:Hard
Source:OSTER Project
Tags:Project Diva Vocaloid Dusty

[Difficulty]
HPDrainRate:6
CircleSize:5
OverallDifficulty:7
SliderMultiplier:1.2
SliderTickRate:1

[Events]
//Background and Video events
0,0,"BG.jpg"
Video,0,"Hatsune Miku.miracle paint. (Magician).avi"
//Break Periods
2,8957,15764
2,34632,35857
2,69236,71299
2,110538,112881
//Storyboard Layer 0 (Background)
//Storyboard Layer 1 (Fail)
//Storyboard Layer 2 (Pass)
//Storyboard Layer 3 (Foreground)
//Storyboard Sound Samples
//Background Colour Transformations
3,100,64,0,0

[TimingPoints]
1037,279.06976744186,4,2,0,71,1,0
69690,-200,4,2,0,70,0,0
85533,-100,4,2,0,70,0,0
85874,-100,4,2,0,70,0,1
90063,-100,4,2,0,70,0,0
95923,-100,4,2,0,70,0,1
105132,-100,4,2,0,70,0,0
113784,-100,4,1,0,50,0,1
123132,-100,4,2,0,70,0,0
123920,-100,4,1,0,50,0,0
124106,-100,4,1,0,50,0,0
128106,-100,4,1,0,0,0,0
130110,-100,4,2,0,70,0,0
130432,-100,4,2,0,70,0,0
131362,-100,4,2,0,0,0,0
135548,-100,4,2,0,70,0,0
140292,-100,4,2,0,70,0,1
140571,-100,4,2,0,70,0,0

[Colours]
Combo1 : 253,216,2
Combo2 : 11,234,206
Combo3 : 255,128,0
Combo4 : 50,164,248

[HitObjects]
200,72,1037,2,0,B|232:43|280:43|311:73,1,120,0|2
256,144,1595,2,0,B|256:232,1,80,0|2
213,303,2060,1,0
301,303,2339,1,2
256,224,2618,1,2
256,224,2711,2,0,B|256:96,1,120,0|2
312,32,3269,6,0,B|280:3|232:3|200:35,1,120,0|2
228,114,3827,1,0
287,114,4013,1,2
302,202,4292,5,8
213,202,4571,1,0
213,202,4664,1,0
257,242,4850,1,8
256,328,5130,1,0
256,328,5223,1,8
257,242,5502,1,4
319,179,5781,5,8
256,16,6339,1,8
193,179,6897,1,8
344,88,7455,1,8
166,88,8013,1,8
256,88,8292,5,2
256,147,8478,1,8
256,235,8757,1,4
256,192,16664,12,4,18246
197,255,18897,6,0,B|325:255,1,120,0|2
302,198,19362,2,0,B|285:156|223:156|207:199,1,120,0|2
177,114,19920,1,0
256,72,20199,1,2
335,114,20478,1,0
256,200,20850,5,8
304,275,21130,2,0,B|287:317|225:317|209:274,1,120,0|8
196,364,21688,2,0,B|320:364,1,120,0|8
304,277,22246,2,0,B|287:235|225:235|209:278,1,120,0|8
212,188,22804,1,0
300,188,23083,1,8
362,126,23362,6,0,B|312:72|256:64|208:72|160:104|141:144,1,240,0|2
151,305,24478,2,0,B|201:359|257:367|305:359|353:327|372:287,1,240,0|2
256,160,25595,1,4
376,364,26339,5,0
376,364,26432,1,2
376,305,26618,2,0,B|129:305,1,240,0|2
200,208,27548,6,0,B|256:184|256:184|320:208,2,120,8|0|8
158,167,28292,1,2
200,88,28571,2,0,B|256:112|256:112|320:88,1,120,0|2
354,167,29130,1,0
318,248,29409,2,0,B|182:248,1,120,2|0
256,184,29967,5,2
256,184,30060,2,0,B|256:48,1,120,0|8
318,127,30618,1,0
318,216,30897,1,8
256,280,31176,1,0
194,216,31455,1,8
194,127,31734,1,0
256,64,32013,1,8
344,64,32292,6,0,B|146:63|146:63|146:124,1,240,4|0
146,284,33409,2,0,B|344:285|344:285|344:224,1,240,4|0
256,120,34432,1,4
352,64,36757,5,0
414,126,37036,2,0,B|368:160|328:168|288:152,1,120,8|0
256,80,37595,1,8
160,64,37874,1,0
98,126,38153,2,0,B|144:160|184:168|224:152,1,120,8|0
256,80,38711,1,8
256,168,38990,2,0,B|256:296,1,120,0|8
256,347,39455,1,4
465,137,40385,6,0,B|336:137,1,120,8|0
256,137,40943,2,0,B|209:96|209:96|209:16,1,120,8|0
302,37,41502,2,0,B|302:95|302:95|255:136,1,120,8|0
162,136,42060,2,0,B|56:136,1,80,8|2
168,216,42618,5,8
211,293,42897,1,0
299,293,43176,1,8
342,216,43455,1,0
256,216,43734,2,0,B|256:120,1,80,8|2
256,47,44199,1,0
256,47,44478,1,4
211,249,45130,5,0
299,249,45409,1,8
361,186,45688,2,0,B|336:144|256:112|168:144|144:200,2,240,0|2|0
344,272,47083,1,8
255,272,47362,1,0
166,272,47641,1,8
166,183,47920,6,0,B|192:120|256:104|256:256|312:240|344:174,3,240,0|4|0|4
342,265,49874,5,8
253,265,50153,1,0
164,265,50432,1,8
164,265,50618,1,4
256,192,52013,5,0
256,192,52106,1,2
256,192,52292,1,2
256,192,52385,12,4,53967
384,65,54618,5,4
446,128,54897,1,8
383,191,55176,1,0
445,254,55455,1,8
356,254,55734,2,0,B|256:254|256:254|256:146,1,200,0|2
128,313,56850,5,4
66,250,57129,1,8
129,187,57408,1,0
67,124,57687,1,8
156,124,57966,2,0,B|256:124|256:124|256:232,1,200,0|2
256,344,58804,5,8
256,344,59083,1,4
303,269,59362,6,0,B|319:229|391:245|407:197,1,120,8|0
423,121,59920,1,8
423,121,60199,1,0
414,32,60478,2,0,B|374:5|302:21|286:53,1,120,8|0
211,36,61036,2,0,B|209:20|137:4|97:31,1,120,8|0
87,121,61595,1,8
87,121,61874,1,0
100,208,62153,2,0,B|131:289|184:215|254:273|255:365,1,240,8|8
343,360,62990,5,4
254,360,63269,1,4
165,360,63548,1,4
198,185,64106,5,0
257,185,64292,1,2
257,185,64385,1,8
316,185,64571,1,0
256,80,64943,1,8
166,80,65223,2,0,B|112:112|112:160|112:200,1,120,0|8
136,266,65781,2,4,B|390:266,2,240
312,192,67734,6,0,B|184:192,2,120,8|0|8
297,279,68571,2,0,B|209:279,1,80,0|2
256,360,69036,1,4
80,344,72199,5,8
80,255,72478,2,0,B|124:255|152:264|168:288|184:320|176:352|160:384,1,180,4|8
80,344,73595,1,0
257,344,74153,1,2
257,255,74432,5,8
319,192,74711,2,0,B|192:192,2,120
256,360,76385,1,2
256,271,76664,5,8
211,194,76943,1,0
300,194,77223,1,8
256,116,77502,1,2
256,27,77781,1,8
256,27,77967,1,0
288,140,78339,2,0,B|212:140,2,60,8|2|8
318,223,79176,6,0,B|182:223,1,120,0|2
198,282,79920,1,0
198,282,80013,1,8
183,339,80199,2,0,B|332:339,1,140,0|2
256,280,81130,5,8
196,213,81409,2,0,B|327:213,1,120,4|2
256,144,82246,2,0,B|256:66,1,60,8|0
256,261,83083,5,2
256,349,83362,1,8
256,261,83641,2,0,B|256:127,2,120,0|2|0
448,48,85502,5,0
448,48,85595,1,2
448,107,85781,1,2
448,107,85874,2,0,B|448:168|440:216|416:248|384:280|328:312|288:320|256:328,1,320,4|0
257,327,86711,5,2
257,267,86897,1,2
257,267,86990,2,0,B|226:259|186:251|130:219|98:187|74:155|66:107|66:46,1,320,4|0
66,46,87827,5,2
126,46,88013,1,2
126,46,88106,2,0,B|456:46,1,320,4|0
446,46,88943,5,2
446,105,89130,1,2
446,105,89223,1,0
357,105,89502,1,8
268,105,89781,1,0
179,105,90060,1,8
256,192,90339,12,0,92013
256,192,92106,12,4,94804
432,80,95920,5,4
432,168,96199,1,8
343,168,96478,1,0
343,256,96757,1,8
280,318,97036,2,0,B|186:257|186:257|232:174,1,200,0|2
82,325,98153,5,4
82,237,98432,1,8
171,237,98711,1,0
171,149,98990,1,8
234,87,99269,2,0,B|328:148|328:148|282:231,1,200,0|2
255,341,100106,5,8
255,341,100385,1,4
209,269,100664,6,0,B|193:229|121:245|105:197,1,120,8|0
89,121,101222,1,8
89,121,101501,1,0
98,32,101780,2,0,B|138:5|210:21|226:53,1,120,8|0
301,36,102338,2,0,B|303:20|375:4|415:31,1,120,8|0
425,121,102897,1,8
425,121,103176,1,0
412,208,103455,2,0,B|381:289|328:215|258:273|257:365,1,240,8|8
169,360,104292,5,4
258,360,104571,1,4
347,360,104850,1,4
314,185,105408,5,0
255,185,105594,1,2
255,185,105687,1,8
196,185,105873,1,0
256,80,106245,1,8
346,80,106525,2,0,B|400:112|400:160|400:200,1,120,0|8
376,266,107083,2,4,B|122:266,2,240
200,192,109036,6,0,B|328:192,2,120,8|0|8
215,279,109873,2,0,B|303:279,1,80,0|2
256,360,110338,1,4
216,352,113781,5,4
316,287,114060,1,8
196,287,114339,1,0
296,352,114618,1,8
256,240,114897,2,0,B|256:24,1,200,0|0
296,320,116013,5,4
196,255,116292,1,8
316,255,116571,1,0
216,320,116850,1,8
256,208,117129,2,0,B|256:80,1,120,0|8
256,88,117595,1,4
256,247,117967,5,8
256,247,118246,1,4
256,366,118525,5,8
375,366,118804,2,0,B|416:360|440:320|448:272,2,120,0|8|0
256,366,119641,1,8
137,366,119920,2,0,B|96:360|72:320|64:272,2,120,0|8|0
256,366,120757,1,8
256,246,121036,1,0
193,143,121316,2,2,B|216:139|227:137|371:65|267:-7|83:65|299:153|336:160|353:143,1,240,8|8
377,248,122153,5,0
297,248,122339,1,0
217,248,122525,1,0
137,248,122711,1,0
176,40,123269,5,0
255,40,123455,1,2
255,40,123548,1,8
334,40,123734,1,0
200,127,124106,2,0,B|240:152|280:152|328:120,2,120,8|0|8
136,232,124943,5,4
376,232,125502,1,4
256,24,126060,1,4
256,360,126897,6,0,B|256:232,2,120,8|0|8
256,240,127734,1,0
256,240,127920,1,8
256,240,128199,6,0,B|296:176|336:224|392:144|392:80|328:0|256:80|256:80|176:0|120:80|120:144|192:176|232:208,1,600
256,192,130525,5,2
256,192,131083,1,2
256,192,131641,12,0,135455
256,360,136106,6,0,B|256:200,1,120,4|0
256,120,136664,1,8
256,40,136850,1,0
256,40,136943,1,0
326,79,137130,2,0,B|360:144|320:192,1,120,2|2
320,191,137502,1,0
256,240,137688,1,2
171,324,137967,1,2
171,324,138060,1,8
256,360,138246,1,2
256,360,138339,1,4
256,360,138525,5,0
256,280,138711,5,0
256,280,138804,1,0
256,280,138897,1,2
256,200,139083,5,2
256,200,139176,1,0
297,131,139362,5,0
297,131,139455,1,2
217,131,139641,5,2
217,131,139734,1,0
256,56,139920,5,2
256,56,140292,5,4
