osu file format v7

[General]
AudioFilename: Projetc Diva's Miracle Paint.mp3
AudioLeadIn: 1004
PreviewTime: 54199
Countdown: 1
SampleSet: Normal
StackLeniency: 0.7
Mode: 0
LetterboxInBreaks: 1

[Editor]
Bookmarks: 67147
DistanceSpacing: 0.899999976158142
BeatDivisor: 3
GridSize: 8

[Metadata]
Title:Miracle Paint
Artist:Hatsune Miku
Creator:Krisom
Version:Easy
Source:OSTER Project
Tags:Project Diva Vocaloid Dusty

[Difficulty]
HPDrainRate:2
CircleSize:4
OverallDifficulty:2
SliderMultiplier:0.799999999999999
SliderTickRate:1

[Events]
//Background and Video events
0,0,"BG.jpg"
Video,0,"Hatsune Miku.miracle paint. (Magician).avi"
//Break Periods
2,8957,15104
2,34631,35197
2,67097,70918
2,93330,94360
2,110539,112221
//Storyboard Layer 0 (Background)
//Storyboard Layer 1 (Fail)
//Storyboard Layer 2 (Pass)
//Storyboard Layer 3 (Foreground)
//Storyboard Sound Samples
//Background Colour Transformations
3,100,64,0,0

[TimingPoints]
1037,279.06976744186,4,2,0,70,1,0
69690,-200,4,2,0,71,0,0
85873,-100,4,2,0,71,0,1
90060,-100,4,2,0,70,0,0
95923,-100,4,2,0,71,0,1
105133,-100,4,2,0,71,0,0
113785,-100,4,1,0,50,0,1
122804,-100,4,2,0,70,0,0
129316,-100,4,1,0,0,0,0
129688,-100,4,2,0,60,0,0
140292,-100,4,2,0,50,0,1
140385,-100,4,1,0,50,0,0

[Colours]
Combo1 : 253,216,2
Combo2 : 11,234,206
Combo3 : 255,128,0
Combo4 : 50,164,248

[HitObjects]
256,112,1037,2,0,B|208:112|176:128|152:160|144:192|144:224,1,160,8|0
289,205,2153,2,0,B|337:205|369:221|393:253|401:285|401:317,1,160,8|0
255,298,3269,6,0,B|207:298|175:282|151:250|143:218|143:186,1,160,8|0
288,204,4385,2,0,B|336:204|368:188|392:156|400:124|400:92,1,160,8|0
255,95,5502,5,8
255,95,5781,2,0,B|223:167|223:167|127:167|127:167|183:231|183:231|159:319|159:319|255:279|255:279|343:319|343:319|327:231|327:231|383:167|383:167|279:167|279:167|263:111,1,853.333333333332,0|4
256,192,16664,12,4,17781
256,192,18897,5,0
399,192,19455,2,0,B|399:243|381:276|346:301|302:312,2,160,8|0|8
256,192,21130,5,0
256,48,21688,2,0,B|212:48|173:76|155:107|148:135|148:158,1,160,8|0
256,243,22804,1,8
334,121,23362,6,0,B|293:97|257:91|228:94|190:117|163:130,4,160,0|8|0|8|4
256,240,26153,1,8
180,362,26711,2,0,B|220:385|256:391|285:388|323:365|350:352,1,160,0|8
469,318,27827,5,4
469,174,28385,2,0,B|469:126|437:110|429:110|413:118|405:118|373:102|373:46,1,160,8|0
255,145,29502,1,8
112,166,30060,6,0,B|112:214|144:246|184:270|224:286|272:286|312:262,1,240,2|0
294,270,31176,2,0,B|344:254|376:222|400:182|400:142|392:102|368:78,1,240,2|0
369,79,32292,6,0,B|104:78|104:78|104:222|104:222|296:222|296:222|336:222,1,613.333333333333,4|4
448,192,36757,5,0
303,192,37316,1,8
207,84,37874,2,0,B|139:92|103:127|83:163|73:200|75:240|93:259,1,240,2|0
89,253,38990,2,0,B|115:299|158:334|225:348,3,160,2|8|2|8
354,312,41223,5,0
417,182,41781,1,8
329,67,42339,2,0,B|295:50|266:50|237:116|201:109|179:79,2,160,0|8|0
334,210,44013,2,0,B|160:210,1,160,8|0
255,328,45130,5,8
255,328,45409,1,2
255,328,45688,2,0,B|215:296|199:264|215:232|263:224|287:184|335:136|303:104|255:56,1,320
162,166,47362,1,8
190,307,47920,6,0,B|215:344|255:360|295:344|327:304,4,160,4|0|4|0|4
107,188,50711,2,0,B|152:153|200:137|264:129|312:137|360:153|424:193,1,320
256,192,52385,12,4,53967
406,212,54618,6,0,B|398:252|374:292|326:324|278:332|246:324|206:308,1,240,8|0
219,313,55734,1,8
256,192,56199,1,2
106,172,56850,6,0,B|114:132|138:92|186:60|234:52|266:60|306:76,1,240,8|0
293,71,57966,1,8
256,192,58431,1,2
256,344,59083,5,8
256,344,59362,2,0,B|288:224|336:304|512:192|512:48|352:-32|256:96|256:96|160:-32|0:48|0:192|176:304|224:224|240:288|240:288|240:304,1,1040
255,220,63269,1,8
255,220,63548,1,4
255,220,63827,5,8
185,117,64385,2,0,B|226:79|258:73|301:87|322:110|330:127,2,160,8|8|8
185,189,65781,2,4,B|226:227|258:233|301:219|322:196|330:179,2,160,4|0|4
256,48,72478,6,0,B|312:48|368:64|400:96|408:112,1,160
401,199,74153,1,2
401,295,74711,6,0,B|399:301|367:333|311:349|255:349,1,160
255,252,76385,1,2
255,348,76943,6,0,B|199:348|143:332|111:300|110:294,3,160
109,196,80850,1,2
109,99,81409,6,0,B|110:92|142:60|198:44|254:44,1,160
253,140,83083,1,2
253,236,83641,6,0,B|206:257|206:281|302:305|302:321|254:353,1,160
258,350,85316,1,2
166,258,85874,6,0,B|132:232|112:196|112:163|120:130|138:104,1,160,0|8
242,48,86990,2,0,B|283:38|324:46|349:67|369:95|377:125,1,160,0|8
402,237,88106,2,0,B|389:277|362:308|331:320|297:324|266:315,1,160,0|8
256,192,89223,1,0
256,192,89502,1,8
256,192,89781,1,0
256,192,90060,1,8
256,192,90339,12,4,93130
106,212,95920,6,0,B|114:252|138:292|186:324|234:332|266:324|306:308,1,240,8|0
293,313,97036,1,8
256,192,97501,1,2
406,172,98152,6,0,B|398:132|374:92|326:60|278:52|246:60|206:76,1,240,8|0
219,71,99268,1,8
256,192,99733,1,2
256,344,100385,5,8
257,220,104571,1,8
257,220,104850,1,4
257,220,105129,5,8
327,117,105687,2,0,B|286:79|254:73|211:87|190:110|182:127,2,160,8|8|8
327,189,107083,2,4,B|286:227|254:233|211:219|190:196|182:179,2,160,4|0|4
256,368,109036,5,8
256,295,109316,1,0
256,223,109595,1,8
256,151,109874,2,0,B|256:16,1,133.333333333333,0|4
153,191,113781,6,0,B|249:191,1,79.9999999999999,0|8
233,119,114339,2,0,B|249:63|297:47|377:47,2,160
359,193,116013,6,0,B|263:193,1,79.9999999999999,0|8
279,265,116571,2,0,B|263:321|215:337|135:337,2,160
255,196,117967,1,8
255,196,118246,5,4
257,124,118525,2,0,B|257:35,1,79.9999999999999,8|0
189,65,119083,2,0,B|108:41,1,79.9999999999999,8|0
97,112,119641,2,0,B|12:178,1,79.9999999999999,8|0
69,223,120199,2,0,B|69:313,1,79.9999999999999,8|0
139,282,120757,2,0,B|224:319,1,79.9999999999999,8|0
208,241,121316,6,2,B|176:193|160:129|256:64|352:129|336:193|304:241|304:241|304:257,1,320,2|8
256,295,122711,1,4
326,295,122990,5,8
186,295,123548,1,8
256,169,124106,1,8
256,25,124664,1,8
318,60,124943,6,0,B|310:92|254:132|201:91|192:56,2,160,4|4|4
298,328,127176,6,0,B|202:328,3,79.9999999999999,0|8|0|8
256,272,128292,2,0,B|176:224|152:160|384:160|336:72|256:40,1,320
256,344,130525,5,2
256,344,131083,1,2
256,344,131641,2,0,B|288:224|336:304|512:192|512:48|352:-32|256:96|256:96|160:-32|0:48|0:192|176:304|224:224|240:288|240:288|240:304,1,1040
256,72,136106,1,4
256,216,136664,1,8
352,104,137223,2,0,B|328:24|256:0|256:0|184:24|160:104|160:104|160:120,1,293.333333333333
256,192,138525,12,4,140292
