osu file format v6

[General]
AudioFilename: Hatsune Miku - Mikumikuni siteahgeru.mp3
AudioLeadIn: 0
PreviewTime: -1
Countdown: 1
SampleSet: Soft
StackLeniency: 0.7
Mode: 0
LetterboxInBreaks: 1

[Editor]
DistanceSpacing: 0.800000011920929
BeatDivisor: 8
GridSize: 32

[Metadata]
Title:Mikumikuni siteahgeru
Artist:Hatsune Miku
Creator:uasddd
Version:Easy
Source:
Tags:

[Difficulty]
HPDrainRate:4
CircleSize:4
OverallDifficulty:4
SliderMultiplier:1.4
SliderTickRate:2

[Events]
//Background and Video events
Video,899,"21791208.avi"
//Break Periods
//Storyboard Layer 0 (Background)
//Storyboard Layer 1 (Fail)
//Storyboard Layer 2 (Pass)
//Storyboard Layer 3 (Foreground)
//Storyboard Sound Samples
//Background Colour Transformations
3,100,163,162,255

[TimingPoints]
0,774.193548387097,4,2,0,100,1,0

[Colours]
Combo1 : 0,255,255
Combo2 : 0,204,255
Combo3 : 0,255,255
Combo4 : 128,255,255

[HitObjects]
256,208,8612,12,0,10838
160,128,11516,6,0,C|384:128,2,210
128,256,14612,5,0
352,256,16064,1,0
320,128,16935,2,0,C|256:96,1,70
192,96,17709,5,0
224,256,18870,1,0
320,288,19645,2,0,C|352:224,1,70
416,128,20709,5,0
288,96,21483,1,0
192,96,22064,1,0
96,128,22935,2,0,C|96:192,1,46.6666666666667
160,256,23709,5,0
224,256,24096,1,0
288,288,24483,2,0,C|416:96,1,227.5
192,96,27193,2,0,C|128:96|96:128|96:160,1,140
128,288,28548,6,0,C|160:256,4,35
96,320,29516,1,0
192,320,30290,2,0,C|256:288|288:224|288:224,1,140
352,192,31548,6,0,C|320:160,4,35
384,224,32516,5,0
288,224,33096,1,0
160,224,34064,1,0
160,128,34548,1,0
288,96,35516,5,0
352,128,36096,1,0
352,128,36290,2,0,C|352:160|352:192|320:224|288:224|288:224,1,140
224,160,37741,5,4
160,160,38129,1,4
96,160,38516,5,4
128,224,39096,1,0
224,256,39870,1,0
352,256,40838,1,0
352,160,41612,5,0
320,96,42064,1,0
224,64,42967,2,0,C|128:96|96:192,1,192.5
96,256,44516,5,0
192,256,45096,1,0
320,224,45967,1,0
320,160,46354,1,0
320,96,46741,1,0
192,64,47516,6,0,C|128:128,1,87.5
128,224,48677,1,0
192,224,49064,1,0
256,288,49548,1,0
352,288,50129,1,0
416,288,50612,6,0,C|448:224|384:192|416:128,1,210
256,96,55064,5,0
160,96,55741,1,0
96,192,56516,2,0,C|192:288|288:160|416:288,1,472.5
128,128,61161,5,8
128,128,61354,1,8
224,128,61935,5,8
224,128,62128,1,8
288,128,62516,5,0
288,224,63096,1,0
192,224,63870,1,0
128,224,64258,1,0
64,224,64645,1,0
64,96,65516,6,0,C|160:96,1,87.5
192,96,66483,2,0,C|224:64,1,35
256,96,67064,2,0,C|288:160,3,70
320,192,68516,5,0
224,192,69096,1,0
160,192,69580,1,0
160,224,69870,2,0,C|320:224,1,157.5
352,128,71516,5,0
256,128,72096,1,0
256,224,72677,5,0
192,224,73064,1,0
96,224,73645,1,0
128,160,74129,1,0
128,96,74516,1,0
224,96,75096,5,0
320,128,75870,1,0
320,256,76741,1,0
192,256,77516,6,0,C|128:224,3,70
160,192,78967,1,0
160,128,79354,1,0
96,128,79741,1,0
96,192,80128,1,0
128,256,80516,6,0,C|192:288,1,70
224,288,81096,2,0,C|256:224,1,70
256,192,81677,1,0
288,160,81967,2,0,C|352:128|352:128,3,70
384,192,83516,6,0,C|384:288,1,87.5
288,288,84677,1,0
224,288,85064,2,0,C|192:256,1,35
192,192,85741,5,0
256,160,86129,1,0
320,128,86516,2,0,C|384:96|448:96|480:160,1,192.5
480,224,88064,6,0,C|416:192|352:256|320:224,1,210
352,192,89516,6,0,C|288:128|224:128|224:192,1,210
256,224,90967,6,0,C|288:160|352:128|416:160,1,210
416,224,92612,6,0,C|384:288|320:320|256:320,1,192.5
224,320,93967,6,0,C|256:224|192:160,1,192.5
160,192,95419,6,0,C|192:224|224:192|256:224|288:192|320:192,1,210
352,160,96967,6,0,C|320:96,1,70
256,96,97742,2,0,C|192:128,1,70
160,160,98516,1,0
