osu file format v5

[General]
AudioFilename: Miku Miku ni shite ageru.mp3
AudioLeadIn: 0
PreviewTime: 37532
Countdown: 1
SampleSet: Soft

[Metadata]
Title:Miku Miku ni shite ageru
Artist:Hatsune Miku
Creator:P-Drogan
Version:Apollo Justice Special

[Difficulty]
HPDrainRate:6
CircleSize:5
OverallDifficulty:6
SliderMultiplier:1.4
SliderTickRate:1

[Events]
//Background and Video events
1,0,"e8d2cbaa979fc5bad47c174d534a5768.avi"
//Break Periods
2,25144,36607
2,49731,60332
//Storyboard Layer 0 (Background)
4,0,0,"Testimony-1.png",15,45 L,11000,150 F,0,0,2000,1,0 F,0,0,1000,0,1
//Storyboard Layer 1 (Failing)
//Storyboard Layer 2 (Passing)
//Storyboard Layer 3 (Foreground)
//Storyboard Sound Samples
//Background Colour Transformations
3,100,163,162,255

[TimingPoints]
1560,375,4,2,1,100

[Colours]
Combo1 : 255,85,170
Combo2 : 7,248,218
Combo3 : 201,201,201
Combo4 : 44,44,44

[HitObjects]
256,56,13746,1,0
224,112,13934,1,0
288,112,14121,1,0
160,160,14496,5,0
288,208,14871,5,0
352,208,15059,1,0
416,208,15246,1,0
384,144,15434,1,0
352,80,15621,1,0
224,48,15996,5,0
192,112,16184,1,0
256,112,16371,1,0
224,256,16746,5,0
192,320,16934,1,0
256,320,17121,1,0
224,176,17496,5,0
224,32,17871,5,0
288,160,18246,1,0
352,32,18621,1,0
416,160,18996,1,2
256,48,19746,5,0
288,96,19934,1,0
224,96,20121,1,0
160,224,20496,5,0
192,272,20684,1,0
224,224,20871,1,0
256,272,21059,1,0
288,224,21246,1,0
320,272,21434,1,0
352,224,21621,1,0
480,192,21996,5,0
432,144,22184,1,0
384,96,22371,1,0
240,80,22746,5,0
112,144,23121,1,0
256,160,23496,1,0
320,160,23684,2,4,L|385:197|464:144,3,140
464,192,37559,5,0
384,160,37934,1,0
384,224,38121,1,0
304,256,38496,1,0
304,192,38684,1,0
304,128,38871,1,0
224,96,39246,1,0
224,160,39434,1,0
224,224,39621,1,0
224,288,39809,1,2
96,320,40559,5,0
96,192,40934,1,0
160,192,41121,1,0
160,320,41496,1,0
208,288,41684,1,0
256,256,41871,1,0
304,224,42059,1,0
352,192,42246,1,0
256,112,42621,1,0
144,64,42996,1,0
96,96,43184,1,0
64,144,43371,1,4
48,192,43559,5,0
128,160,43934,1,0
128,224,44121,1,0
208,256,44496,1,0
208,192,44684,1,0
208,128,44871,1,0
288,96,45246,1,0
288,160,45434,1,0
288,224,45621,1,0
288,288,45809,1,2
352,288,45996,5,0
352,224,46184,1,0
352,160,46371,1,0
352,96,46559,1,0
192,192,47121,5,0
384,192,47684,5,0
432,160,47871,1,0
432,224,48059,1,0
256,192,48621,5,0
160,240,48996,5,0
192,192,49184,1,0
128,192,49371,1,0
160,144,49559,1,4
48,192,61559,5,0
128,160,61934,1,0
128,224,62121,1,0
208,256,62496,1,0
208,192,62684,1,0
208,128,62871,1,0
288,96,63246,1,0
288,160,63434,1,0
288,224,63621,1,0
288,288,63809,1,2
416,320,64559,5,0
416,192,64934,1,0
352,192,65121,1,0
352,320,65496,1,0
304,288,65684,1,0
256,256,65871,1,0
208,224,66059,1,0
160,192,66246,1,0
256,112,66621,1,0
368,64,66996,1,0
416,96,67184,1,0
448,144,67371,1,4
464,192,67559,5,0
384,160,67934,1,0
384,224,68121,1,0
304,256,68496,1,0
304,192,68684,1,0
304,128,68871,1,0
224,96,69246,1,0
224,160,69434,1,0
224,224,69621,1,0
224,288,69809,1,2
160,288,69996,5,0
160,224,70184,1,0
160,160,70371,1,0
160,96,70559,1,0
320,192,71121,5,0
128,160,71684,5,0
64,160,71871,1,0
64,224,72059,1,0
128,224,72246,1,0
256,192,72621,5,2
352,192,72996,5,0
416,192,73184,1,0
448,256,73371,1,4
480,192,73559,5,0
384,224,73934,1,0
384,160,74121,1,0
304,128,74496,1,0
304,192,74684,1,0
304,256,74871,1,0
224,288,75246,1,0
224,224,75434,1,0
224,160,75621,1,0
224,96,75809,1,2
96,64,76559,5,0
96,192,76934,1,0
160,192,77121,1,0
160,64,77496,1,0
208,96,77684,1,0
256,128,77871,1,0
304,160,78059,1,0
352,192,78246,1,0
256,272,78621,1,0
144,320,78996,1,0
96,288,79184,1,0
64,240,79371,1,4
48,192,79559,5,0
128,224,79934,1,0
128,160,80121,1,0
208,128,80496,1,0
208,192,80684,1,0
208,256,80871,1,0
288,288,81246,1,0
288,224,81434,1,0
288,160,81621,1,0
288,96,81809,1,2
352,96,81996,5,0
352,160,82184,1,0
352,224,82371,1,0
352,288,82559,1,0
192,192,83121,5,0
384,224,83684,5,0
448,224,83871,1,0
448,160,84059,1,0
384,160,84246,1,0
256,192,84621,5,0
224,128,84809,1,0
160,128,84996,1,0
128,192,85184,1,0
160,256,85371,1,0
160,320,85559,6,0,C|304:320,1,140
336,320,86121,1,0
336,256,86309,6,0,C|192:256,1,140
160,256,86871,1,0
160,192,87059,6,0,C|304:192,1,140
336,192,87621,1,0
336,128,87809,6,0,C|192:128,1,140
160,128,88371,1,0
160,64,88559,6,0,C|304:64,1,140
336,64,89121,1,0
336,0,89309,6,0,C|192:0,1,140
160,0,89871,1,0
256,192,90059,12,0,91559
256,192,91746,12,0,96246
