osu file format v5

[General]
AudioFilename: melt.mp3
AudioLeadIn: 0
PreviewTime: -1
Countdown: 1
SampleSet: Normal
StackLeniency: 0.7
Mode: 0
LetterboxInBreaks: 1

[Metadata]
Title:Melt
Artist:Hatsune Miku
Creator:tom800510
Version:Normal
Source:
Tags:

[Difficulty]
HPDrainRate:4
CircleSize:5
OverallDifficulty:6
SliderMultiplier:1.4
SliderTickRate:2

[Events]
//Background and Video events
0,0,"Melt-BackGround.JPG"
//Break Periods
2,32681,34609
2,44681,45550
2,88800,99550
2,163094,169609
//Storyboard Layer 0 (Background)
//Storyboard Layer 1 (Failing)
//Storyboard Layer 2 (Passing)
//Storyboard Layer 3 (Foreground)
//Storyboard Sound Samples
//Background Colour Transformations
3,100,163,162,255

[TimingPoints]
1424,705.882352941176,4,1,0,100,1

[Colours]
Combo1 : 128,128,255
Combo2 : 0,128,255
Combo3 : 0,255,128
Combo4 : 255,0,0

[HitObjects]
192,72,12718,2,2,B|402:-4|352:192,1,280
408,160,14482,1,0
408,224,14835,1,0
320,312,15541,6,2,B|87:388|200:192,1,280
136,184,17306,1,0
184,136,17659,1,0
280,48,18365,6,2,B|482:21|352:160|352:176,1,210
432,152,19776,1,0
400,208,20129,1,0
464,208,20482,1,0
256,192,21188,12,4,23306
184,104,24365,1,0
240,72,24718,1,0
304,56,25071,2,2,B|409:52|368:144,1,140
464,224,26482,5,0
432,280,26835,1,0
376,312,27188,2,2,B|292:354|264:256,1,140
208,280,28247,2,2,B|164:288|150:225|200:232,1,70
232,208,28953,2,2,B|208:184|224:144|280:168,1,70
296,208,29659,5,4
432,192,30365,2,2,B|360:200|310:177|288:136,1,140
200,80,31776,2,2,B|152:48|102:54|56:88,1,140
336,72,35659,5,0
288,32,36012,1,0
280,96,36365,1,0
232,56,36718,1,0
224,120,37071,1,2
412,150,38129,6,0,B|402:216|303:223,1,140
250,192,39188,1,0
186,188,39541,5,0
127,212,39894,1,0
71,242,40247,1,0
124,276,40600,1,0
182,251,40953,1,2
258,352,41659,5,0
360,296,42365,1,0
424,192,43071,1,0
368,80,43776,2,2,B|280:25|260:152,1,140
168,40,46600,6,2,B|110:17|120:104,1,70
88,120,47306,2,2,B|17:97|58:180,1,70
99,181,48012,1,0
41,211,48365,1,0
96,244,48718,1,0
217,288,49423,6,2,B|289:312,4,70
334,232,51541,1,4
437,154,52247,5,0
479,105,52600,1,0
415,94,52953,1,0
371,142,53306,1,0
348,81,53659,1,0
322,21,54012,1,0
282,72,54365,1,0
156,39,55071,6,2,B|68:47,3,70
47,96,56482,5,0
104,128,56835,1,0
160,96,57188,1,0
216,128,57541,1,0
272,96,57894,2,2,B|336:136,3,70
384,96,59306,1,0
433,138,59659,2,2,B|385:202,1,70
401,258,60365,1,4
400,322,60718,6,2,B|336:354|264:314,1,140
217,357,61776,1,0
193,296,62129,2,2,B|121:352,1,70
73,346,62835,2,2,B|9:298,1,70
58,253,63541,2,6,B|18:191|10:111|82:63,1,210
132,31,64953,1,0
126,95,65306,5,0
128,160,65659,1,0
184,128,66012,1,0
184,192,66365,2,2,B|109:233|166:296|242:210,1,140
252,181,67423,1,0
284,236,67776,2,2,B|344:280|408:240|312:168,1,140
304,137,68835,5,0
270,81,69188,2,2,B|346:40|390:129,3,140
432,88,71659,1,0
480,136,72012,6,2,B|376:160|455:263,1,140
462,299,73071,1,0
431,356,73423,2,2,B|367:283,1,70
354,360,74129,2,2,B|300:295,1,70
246,323,74835,2,2,B|300:387,4,70
239,258,76600,5,0
283,210,76953,1,0
304,271,77306,1,0
353,229,77659,2,2,B|373:145|276:93|209:189,1,210
160,152,79071,6,2,B|129:237|225:290|304:184,1,210
256,144,80482,5,0
304,104,80835,6,2,B|230:40|147:89|124:188|194:257|289:255|376:203|366:124|308:47|392:208,1,490,6|2
248,344,84365,2,2,B|128:328|88:256,1,175
256,192,85776,12,4,88600
100,92,100600,5,0
157,62,100953,1,0
219,44,101306,1,0
283,43,101659,1,0
344,64,102012,1,0
397,101,102365,1,0
397,230,103071,5,0
340,197,103423,1,0
277,181,103776,1,0
212,179,104129,1,0
149,197,104482,1,0
92,228,104835,1,0
92,228,105188,1,0
149,197,105541,1,0
210,177,105894,6,2,B|283:180,1,70
343,195,106600,2,2,B|422:235,1,70
413,294,107306,2,2,B|330:341,1,70
287,330,108012,2,2,B|199:330,1,70
152,334,108718,2,2,B|84:337|39:308|26:240|52:166,1,210
256,192,110129,12,4,111188
409,62,111894,5,0
455,107,112247,1,0
409,153,112600,1,0
456,197,112953,1,0
412,245,113306,1,0
461,287,113659,2,2,B|442:329|372:312,2,70
404,319,114718,5,0
347,287,115071,1,0
282,290,115423,1,0
225,321,115776,2,2,B|155:342|183:271,3,70
110,298,117188,5,0
49,221,117718,1,0
44,188,117895,1,0
134,95,118600,2,2,B|142:49|191:64,1,70
194,126,119306,2,2,B|176:182|116:148,1,70
148,223,120012,1,0
257,292,120718,5,0
305,251,121071,1,0
320,313,121423,2,2,B|367:305|392:250|345:196,1,140
406,90,122835,5,0
364,40,123188,1,0
341,100,123541,1,0
406,90,123894,1,0
364,40,124247,1,0
341,100,124600,1,0
406,90,124953,2,2,B|361:35,1,70,2|2
231,40,126012,5,0
231,104,126365,1,0
172,75,126718,1,0
176,139,127071,2,2,B|102:140|90:59|131:20,1,140
50,37,128129,5,0
34,99,128482,1,0
51,161,128835,1,0
36,224,129188,1,0
53,286,129541,1,0
40,349,129894,2,2,B|196:349,1,140
172,317,130776,1,0
197,297,130953,1,0
226,309,131129,1,0
242,336,131306,1,4
458,193,132718,5,0
393,193,133071,1,0
355,245,133423,1,0
290,246,133776,1,0
246,197,134129,2,2,B|194:104|145:201,1,140
49,190,135365,5,0
39,159,135541,1,0
60,97,135894,1,0
122,112,136247,1,0
155,56,136600,1,0
187,111,136953,6,2,B|188:169|136:196|73:166,1,140
56,227,138012,1,0
87,283,138365,1,0
57,340,138718,1,0
121,338,139071,1,0
151,281,139423,1,0
187,334,139776,2,2,B|289:259|304:336|238:365|239:253|308:335,1,140
437,194,141541,5,0
456,168,141718,1,0
458,135,141894,1,0
436,74,142247,2,2,B|393:40,1,35
379,38,142600,1,0
314,36,142953,2,2,B|272:32,1,35
312,124,143659,1,0
340,182,144012,1,0
376,128,144365,1,2
376,128,144541,1,2
446,195,145071,5,0
442,259,145423,2,2,B|489:276|488:315|445:320,1,70
409,330,146129,2,2,B|351:319|390:272,1,70
319,266,146835,1,0
254,268,147188,5,0
211,316,147541,1,0
164,270,147894,1,0
123,320,148247,2,2,B|76:276|112:202|168:205,1,140
211,223,149306,5,0
263,188,149659,1,0
204,159,150012,1,0
258,123,150365,1,0
316,151,150718,1,0
311,86,151071,2,2,B|384:79|406:169|355:203,1,140
181,188,152835,5,0
136,140,153188,1,0
116,201,153541,1,0
159,248,153894,1,0
223,241,154247,1,2
223,241,154423,1,2
318,242,154953,5,0
318,242,155129,1,0
318,242,155306,1,0
382,244,155659,1,2
382,244,155835,1,2
419,154,156365,5,0
455,100,156718,1,0
390,96,157071,1,2
390,96,157247,2,2,B|336:29|298:36|265:-7|237:74|310:75|201:-19|164:72,1,245,2|2
111,35,158835,1,0
65,81,159188,1,0
127,98,159541,5,0
82,145,159894,1,2
82,145,160071,1,2
54,238,160600,1,0
37,300,160953,2,2,B|108:319|124:229,1,105
191,191,162012,1,0
226,136,162365,2,2,B|283:170|238:247,1,105
127,96,170659,5,0
127,96,170835,1,0
255,78,171541,1,0
382,98,172247,1,0
384,195,172953,2,2,B|387:291,2,70
189,191,174718,1,0
124,189,175071,1,0
77,144,175423,1,2
77,144,175600,1,2
61,207,175953,1,4
