osu file format v5

[General]
AudioFilename: melt.mp3
AudioLeadIn: 971
PreviewTime: -1
Countdown: 1
SampleSet: Normal
StackLeniency: 1
Mode: 0
LetterboxInBreaks: 1

[Metadata]
Title:Melt
Artist:Hatsune Miku
Creator:tom800510
Version:Hard
Source:
Tags:

[Difficulty]
HPDrainRate:6
CircleSize:5
OverallDifficulty:7
SliderMultiplier:1.5
SliderTickRate:1

[Events]
//Background and Video events
0,0,"Melt-BackGround.JPG"
//Break Periods
2,88800,96171
2,198565,209465
//Storyboard Layer 0 (Background)
//Storyboard Layer 1 (Failing)
//Storyboard Layer 2 (Passing)
//Storyboard Layer 3 (Foreground)
//Storyboard Sound Samples
//Background Colour Transformations
3,100,163,162,255

[TimingPoints]
1424,352.941176470588,3,1,0,100,1
164306,352.941176470588,3,2,0,100,1
176306,352.941176470588,3,1,0,100,1

[Colours]
Combo1 : 255,128,128
Combo2 : 29,216,159
Combo3 : 10,156,235
Combo4 : 243,12,29

[HitObjects]
143,77,1424,1,0
143,241,1953,1,0
143,241,2129,1,0
252,243,2482,1,0
361,243,2835,1,0
362,133,3188,1,0
252,135,3541,1,0
137,322,4247,5,0
135,157,4776,1,0
135,157,4953,1,0
244,154,5306,1,0
353,156,5659,1,0
357,265,6012,1,0
466,263,6365,1,0
355,73,7071,5,0
190,73,7600,1,0
190,73,7776,1,0
190,182,8129,1,0
299,183,8482,1,0
302,292,8835,1,0
192,298,9188,1,0
117,217,9541,5,0
61,216,9718,1,0
33,168,9894,1,0
113,70,11129,1,0
164,50,11306,1,2
463,325,12718,5,0
403,185,13247,1,0
403,185,13424,1,0
434,89,13776,1,0
333,83,14129,1,0
265,157,14482,1,0
180,101,14835,2,2,B|34:172,1,150
90,257,15541,5,0
229,316,16071,1,0
230,317,16247,1,0
328,292,16600,1,0
404,226,16953,1,0
312,182,17306,1,0
211,190,17659,2,2,B|59:110,1,150
165,67,18365,5,0
316,61,18894,1,0
316,61,19071,1,0
406,106,19424,1,0
318,156,19776,1,0
408,201,20129,1,0
454,290,20482,1,0
358,324,20835,6,2,B|246:324,1,75
228,326,21188,1,2
48,219,22600,1,6
168,56,23306,1,6
470,73,24365,5,0
473,174,24718,1,0
373,193,25071,1,0
331,163,25247,1,2
292,195,25424,1,0
253,162,25600,1,0
212,192,25776,2,2,B|73:279,1,150
182,298,26482,5,0
84,271,26835,1,0
98,170,27188,1,0
87,120,27365,1,0
132,97,27541,1,0
218,44,27894,1,0
329,68,28247,5,0
422,106,28600,1,0
343,169,28953,1,0
438,201,29306,1,0
363,268,29659,1,2
308,73,30365,6,2,B|124:73,1,150
107,72,30894,1,0
108,72,31071,2,2,B|109:231,1,150
111,272,31600,1,0
111,272,31776,2,2,B|286:271,1,150
262,322,32306,1,0
262,322,32482,2,6,B|261:13,1,300
93,136,33894,5,2
183,90,34247,1,2
177,191,34600,1,2
176,192,34953,1,6
352,92,35659,5,0
437,145,36012,1,0
351,198,36365,1,0
440,245,36718,1,0
351,294,37071,1,0
98,304,37953,5,0
98,304,38129,1,0
49,215,38482,1,0
95,195,38659,1,0
82,146,38835,1,0
82,145,39188,1,2
172,98,39541,5,2
350,99,40247,1,2
418,173,40600,1,2
422,274,40953,5,0
334,325,41306,1,0
284,314,41482,1,0
241,286,41659,1,0
154,337,42012,1,0
65,287,42365,1,0
56,186,42718,1,0
80,141,42894,1,0
116,105,43071,1,0
198,47,43424,1,0
246,32,43600,1,0
234,81,43776,1,0
433,115,44482,5,0
358,183,44835,1,0
459,185,45188,1,0
384,253,45541,1,6
256,95,46247,5,0
169,146,46600,1,0
259,192,46953,1,0
168,146,47306,1,0
256,96,47659,1,0
169,44,48012,5,0
80,92,48365,1,0
82,193,48718,1,0
161,254,49071,5,0
157,304,49247,1,0
202,326,49424,1,0
302,330,49776,1,0
393,287,50129,1,0
447,201,50482,1,0
427,101,50835,1,0
287,40,51365,1,0
287,40,51541,1,6
187,58,51894,5,0
287,40,52247,1,0
257,138,52600,1,0
355,116,52953,1,0
392,22,53306,1,0
462,94,53659,5,0
433,242,54188,1,0
434,243,54365,1,6
339,279,54718,6,2,B|227:279,1,75
209,283,55071,1,2
36,165,56482,5,0
86,77,56835,1,0
174,125,57188,1,0
229,40,57541,1,0
323,75,57894,6,2,B|464:161,3,150
414,247,59306,5,0
337,313,59659,1,0
239,340,60012,1,0
148,295,60365,1,2
105,203,60718,5,0
183,73,61247,1,0
231,56,61424,1,0
331,54,61776,5,0
429,76,62129,1,0
358,148,62482,1,0
259,124,62835,1,0
287,221,63188,1,0
186,207,63541,1,0
224,300,63894,1,0
224,300,64071,1,0
232,223,65306,5,0
326,186,65659,1,0
231,149,66012,1,0
326,114,66365,1,0
231,78,66718,1,0
326,44,67071,1,0
421,78,67424,1,0
327,114,67776,1,0
423,145,68129,2,0,B|423:225,1,75
296,303,68835,5,2
205,257,69188,2,2,B|104:127,1,150
48,60,69894,2,2,B|48:212,1,150
41,311,70600,2,2,B|223:335,1,150
291,330,71306,2,4,B|353:181,1,150
445,161,72012,5,0
322,71,72541,1,0
272,62,72718,1,0
170,56,73071,5,0
71,80,73424,1,0
162,122,73776,1,0
63,144,74129,1,0
154,187,74482,1,0
55,210,74835,6,2,B|204:312,3,150
274,329,76247,5,4
367,290,76600,5,4
271,255,76953,2,2,B|372:130,1,150
447,78,77659,5,2
350,47,78012,1,4
350,47,78188,1,2
204,90,78718,5,0
248,114,78894,1,0
204,90,79071,1,4
103,68,79424,1,0
67,103,79600,1,4
102,250,80129,6,2,B|259:317,3,150
339,291,81541,5,0
339,292,81894,1,0
339,292,82247,1,0
339,292,82600,1,0
429,247,82953,6,0,B|315:140,3,150
386,67,84365,5,0
292,27,84718,1,0
140,37,85247,1,2
39,150,85776,5,0
40,251,86129,1,0
107,175,86482,1,0
108,276,86835,1,0
171,197,87188,1,0
175,298,87541,1,0
236,217,87894,1,0
243,267,88071,1,2
251,316,88247,1,2
260,365,88424,1,2
251,315,88600,5,4
383,69,97071,5,0
338,44,97247,1,0
288,54,97423,1,0
186,48,97776,6,4,B|104:78,1,75
112,124,98129,6,4,B|206:155,1,75
180,198,98482,6,4,B|92:236,1,75
114,278,98835,6,4,B|200:311,4,75
114,278,99718,1,4
114,278,99894,1,4
59,192,100600,5,0
88,95,100953,1,0
127,187,101306,1,0
142,139,101482,1,0
156,90,101659,1,0
192,184,102012,5,0
222,87,102365,1,0
261,180,102718,1,0
276,132,102894,1,0
291,83,103071,1,0
325,177,103423,5,0
316,227,103600,1,0
270,248,103776,1,0
354,304,104129,1,0
454,293,104482,5,0
381,222,104835,1,0
481,235,105188,1,0
406,166,105541,1,2
448,74,105894,5,0
448,74,106071,2,2,B|290:67,1,150
247,63,106600,1,0
247,63,106776,2,2,B|128:168,1,150
111,207,107306,1,0
111,207,107482,2,2,B|181:349,1,150
227,330,108012,1,0
227,330,108188,2,2,B|393:301,1,150
413,272,108715,2,4,B|413:184,2,75
413,272,109247,1,4
413,272,109423,1,4
448,48,110129,5,0
356,90,110482,1,0
264,47,110835,1,0
172,89,111188,1,0
74,62,111541,5,0
53,108,111718,1,0
81,149,111894,1,2
61,248,112247,1,0
112,334,112600,1,0
161,343,112776,1,0
180,295,112953,1,2
228,307,113129,1,0
258,266,113306,1,2
443,347,114012,5,0
464,301,114188,1,0
439,256,114365,1,2
455,156,114718,1,0
429,112,114894,1,0
379,101,115071,1,2
342,195,115423,1,2
258,137,115776,5,0
175,195,116129,1,0
261,247,116482,1,0
177,304,116835,1,0
89,253,117188,5,2
56,104,117718,1,2
56,104,117894,1,2
249,45,118600,1,0
346,72,118953,1,0
261,127,119306,1,0
261,127,119659,1,0
358,155,120012,1,0
255,329,120718,6,2,B|96:256,2,150
404,301,121953,6,4,B|313:244,1,75
430,215,122482,5,0
337,173,122835,1,0
434,145,123188,1,0
340,105,123541,1,0
245,67,123894,1,0
245,68,124247,1,0
170,134,124600,1,0
81,85,124953,1,0
11,158,125306,1,0
209,195,126012,5,0
114,229,126365,2,2,B|275:297,1,150
339,339,127071,2,0,B|401:278,3,75
393,288,127776,1,4
449,204,128129,5,0
373,137,128482,1,0
448,69,128835,1,0
368,6,129188,1,0
291,72,129541,1,0
216,4,129894,1,0
76,63,130423,5,0
50,106,130600,1,2
95,127,130776,1,2
83,176,130953,1,2
131,190,131129,1,2
124,244,131306,1,4
342,312,132718,5,0
433,260,133071,1,0
328,250,133423,1,0
420,199,133776,1,0
315,185,134129,6,2,B|195:65,2,150
259,332,135365,5,0
259,332,135541,1,0
154,341,135894,1,0
202,247,136247,1,0
97,249,136600,1,0
35,163,136953,5,0
168,79,137482,1,0
168,79,137659,1,0
270,57,138012,1,0
270,57,138365,2,2,B|444:118,1,150
481,185,139071,2,2,B|373:319,1,150
284,324,139776,2,2,B|363:229|216:210,2,150
75,295,141188,5,0
86,190,141541,5,0
86,190,141718,1,0
83,137,141894,1,0
160,66,142247,1,0
160,66,142423,1,0
160,66,142600,1,0
255,108,142953,1,0
255,108,143129,1,0
404,57,143659,1,2
458,146,144012,1,0
445,250,144365,2,0,B|379:321,1,75
238,331,145071,5,0
256,192,145423,12,0,145953
256,192,146129,12,0,146835
196,58,147188,1,0
301,56,147541,1,0
250,147,147894,1,0
146,127,148247,5,0
94,330,148953,1,0
198,319,149306,1,0
239,222,149659,1,0
310,299,150012,1,0
359,206,150365,1,0
435,277,150718,1,0
496,191,151071,2,2,B|343:97,4,150
475,87,152835,5,0
387,28,153188,1,0
286,58,153541,1,0
185,27,153894,1,0
89,70,154247,2,2,B|89:158,1,75
49,297,154953,5,0
100,305,155129,1,0
143,335,155306,1,2
247,340,155659,2,2,B|326:299,1,75
468,273,156365,2,2,B|353:161,4,150
482,169,158129,5,0
448,69,158482,1,0
351,28,158835,1,0
246,40,159188,5,0
143,60,159541,1,0
66,131,159894,1,0
38,176,160071,1,0
269,182,160600,1,0
115,200,160953,2,0,C|113:307|234:296,1,225
456,274,162012,5,0
370,145,162365,1,2
256,192,162894,12,0,164129
305,81,164482,5,0
351,105,164659,1,0
375,151,164835,1,0
395,199,165012,1,0
402,250,165188,2,2,B|242:250,1,150
259,355,165894,2,2,B|419:355,1,150
325,290,166600,5,0
219,288,166953,1,0
127,339,167306,1,0
49,268,167659,1,0
37,163,168012,1,0
209,43,168718,5,0
313,45,169071,1,0
265,138,169423,2,0,B|352:138,2,75
246,187,169953,1,0
280,226,170129,1,0
138,294,170659,5,0
138,294,170835,1,0
343,337,171541,1,0
428,145,172247,1,0
256,192,172953,12,4,173659
73,334,174718,1,0
127,244,175071,1,0
206,312,175423,1,0
244,276,175600,1,0
345,303,175953,1,4
444,181,176482,5,0
345,57,177012,1,0
187,57,177541,1,0
99,188,178071,1,0
150,336,178600,1,0
254,338,178953,1,0
359,336,179306,1,0
439,141,180012,5,0
259,31,180718,1,0
108,75,181247,1,0
95,125,181423,1,0
140,151,181600,1,0
185,125,181776,1,0
234,143,181953,1,0
249,193,182129,1,0
129,321,183365,5,0
128,268,183541,1,0
169,235,183718,1,0
218,251,183894,1,0
240,298,184071,1,0
287,320,184247,1,0
326,285,184423,1,0
374,305,184600,1,0
401,260,184776,1,0
371,216,184953,1,0
481,37,185659,5,0
270,36,186365,1,0
59,39,187071,1,0
106,243,187776,1,0
95,294,187953,1,0
145,308,188129,1,0
145,360,188306,1,0
302,355,188835,5,0
454,314,189365,1,0
472,210,189718,1,0
456,159,189894,1,0
486,115,190071,1,0
448,78,190247,1,0
401,102,190423,1,0
351,84,190600,1,0
253,45,190953,5,0
154,80,191306,1,0
253,45,191659,1,0
153,80,192012,1,0
85,160,192365,1,0
153,80,192718,1,0
60,268,193423,5,0
51,216,193600,1,0
93,185,193776,1,0
144,196,193953,1,0
153,247,194129,1,0
180,291,194306,1,0
232,291,194482,1,0
253,242,194659,1,0
264,190,194835,1,0
316,183,195012,1,0
355,217,195188,5,0
316,183,195365,1,0
355,217,195541,1,0
335,264,195718,1,0
348,314,195894,1,0
399,327,196071,1,0
348,314,196247,1,0
399,327,196423,1,0
435,289,196600,1,0
463,244,196776,1,0
465,139,197129,5,0
462,86,197306,1,0
357,77,197659,1,0
362,129,197835,1,0
257,131,198188,1,0
249,78,198365,1,0
386,298,210365,5,0
233,336,210894,1,0
233,336,211071,1,0
128,340,211423,5,0
43,277,211776,1,0
147,269,212129,1,0
60,209,212482,1,0
164,203,212835,1,0
76,144,213188,1,2
180,137,213541,1,4
180,137,213718,1,4
247,53,214953,5,0
351,58,215306,1,0
424,132,215659,1,0
454,232,216012,1,0
393,318,216365,1,2
393,318,216551,1,2
239,332,217071,5,0
142,291,217423,1,0
64,220,217776,1,2
64,220,217953,1,2
128,76,218482,5,0
128,76,218835,2,2,B|297:13,1,150
361,73,219541,2,2,B|452:223,1,150
372,283,220247,1,0
266,283,220600,5,0
180,344,220953,1,0
265,283,221306,1,2
180,345,221659,5,0
42,269,222188,1,0
42,269,222365,1,0
31,164,222718,1,0
91,78,223071,2,2,B|171:222,2,150
195,74,224129,1,2
244,56,224306,1,0
294,70,224482,2,2,B|254:135,2,75
332,168,225188,2,2,B|295:240,2,75
375,263,225894,2,2,B|343:334,2,75
457,197,226600,5,0
439,93,226953,1,0
354,30,227306,1,0
249,32,227659,2,2,B|169:32,1,75
55,136,228365,5,0
49,240,228718,1,0
100,331,229071,2,2,B|180:331,1,75
331,317,229776,5,2
356,270,229953,1,2
408,270,230129,1,2
413,165,230482,1,2
369,131,230659,1,0
219,66,232600,5,0
115,84,232953,1,0
77,182,233306,1,0
77,182,233482,1,0
72,339,234012,1,0
177,340,234365,1,0
282,338,234718,1,0
282,338,234894,1,0
150,251,235423,1,2
177,206,235600,1,2
229,208,235776,2,2,B|272:127,2,75
229,208,236306,1,2
331,230,237188,1,0
258,89,237718,5,0
258,89,237894,5,6
258,89,238071,5,6
258,89,238247,5,6
