osu file format v9

[General]
AudioFilename: _yanne666_201201021313.mp3
AudioLeadIn: 2000
PreviewTime: 43884
Countdown: 0
SampleSet: Normal
StackLeniency: 0.7
Mode: 0
LetterboxInBreaks: 1

[Editor]
Bookmarks: 24984,25884,33834,45084,103734,110484,111084,113184,118134,125484,136284,138684,148284,167484,169734
DistanceSpacing: 1.1
BeatDivisor: 4
GridSize: 4

[Metadata]
Title:Marionette no Kairaku
Artist:Hatsune Miku
Creator:rui
Version:Harmony
Source:
Tags:vocaloid yanne wring

[Difficulty]
HPDrainRate:5
CircleSize:4
OverallDifficulty:6
ApproachRate:7
SliderMultiplier:1.4
SliderTickRate:1

[Events]
//Background and Video events
0,0,"BG.jpg"
//Break Periods
2,56100,62500
2,111300,124600
2,170100,176200
//Storyboard Layer 0 (Background)
//Storyboard Layer 1 (Fail)
//Storyboard Layer 2 (Pass)
//Storyboard Layer 3 (Foreground)
//Storyboard Sound Samples
//Background Colour Transformations
3,100,163,162,255

[TimingPoints]
700,300,4,1,1,40,1,0
2125,-100,4,1,1,50,0,0
3025,-100,4,1,1,40,0,0
4075,-100,4,1,1,60,0,0
5425,-133.333333333333,4,1,2,50,0,0
12625,-100,4,1,1,70,0,0
15025,-100,4,1,1,60,0,0
15175,-133.333333333333,4,1,2,50,0,0
22225,-100,4,1,1,70,0,0
24925,-100,4,1,1,80,0,0
32875,-133.333333333333,4,2,1,80,0,0
34225,-133.333333333333,4,1,1,80,0,0
40375,-100,4,1,1,80,0,0
43900,-100,4,1,0,80,0,1
43975,-100,4,1,1,80,0,1
48625,-100,4,1,0,80,0,1
48775,-100,4,1,1,80,0,1
53500,-100,4,1,1,80,0,0
63325,-100,4,1,1,70,0,0
71275,-133.333333333333,4,2,1,80,0,0
72625,-133.333333333333,4,1,1,80,0,0
78775,-100,4,1,1,80,0,0
82300,-100,4,1,0,80,0,1
82375,-100,4,1,1,80,0,1
87025,-100,4,1,0,80,0,1
87175,-100,4,1,1,80,0,1
91825,-100,4,1,0,80,0,1
91975,-100,4,1,1,80,0,1
96625,-100,4,1,0,80,0,1
96775,-100,4,1,1,80,0,1
101425,-100,4,1,2,60,0,1
101500,-100,4,1,2,60,0,0
103900,-100,4,1,2,60,0,0
110425,-100,4,1,1,65,0,0
125575,-100,4,1,2,55,0,0
133675,-133.333333333333,4,1,1,70,0,0
134275,-133.333333333333,4,1,1,75,0,0
134875,-133.333333333333,4,1,1,80,0,0
136225,-133.333333333333,4,1,1,90,0,0
138325,-133.333333333333,4,2,1,5,0,0
138625,-133.333333333333,4,2,1,70,0,0
143350,-133.333333333333,4,2,1,80,0,0
147400,-133.333333333333,4,2,1,30,0,0
148225,-80,4,1,1,90,0,0
148300,-80,4,1,1,90,0,1
153025,-80,4,1,0,90,0,1
153175,-80,4,1,1,90,0,1
162625,-80,4,1,0,90,0,1
162775,-80,4,1,1,90,0,1
167500,-80,4,1,1,90,0,0
177025,-100,4,1,1,80,0,0
181075,-100,4,1,1,5,0,0
181225,-100,4,1,1,50,0,0

[Colours]
Combo1 : 255,106,106
Combo2 : 81,162,162
Combo3 : 159,105,171

[HitObjects]
72,284,1300,1,8
192,356,1600,1,8
192,356,1750,2,0,B|268:372|324:316,1,140
372,272,2200,5,8
256,192,2500,1,8
140,112,2800,1,8
256,32,3100,5,8
380,100,3400,1,8
380,100,3550,2,0,B|444:152|412:228,1,140
396,292,4000,1,8
340,336,4150,5,4
172,336,4450,1,4
256,192,4750,1,4
340,44,5050,1,4
172,44,5350,1,4
104,72,5500,5,8
0,176,5800,1,8
0,176,5950,2,0,B|-8:232|36:276,1,104.999996870756,0|0
96,232,6400,2,0,B|117:284|177:300,1,104.999996870756,8|0
240,272,6850,2,0,B|284:306|344:290,1,104.999996870756,8|0
372,224,7300,6,0,B|424:212,1,52.4999984353781,8|0
416,280,7600,2,0,B|468:268,1,52.4999984353781,8|8
448,348,7900,6,0,B|388:364|352:316,1,104.999996870756,12|0
352,244,8350,2,0,B|384:192|444:212,1,104.999996870756,8|0
500,168,8800,2,0,B|456:124|396:136,1,104.999996870756,8|0
336,156,9250,2,0,B|276:168|260:228,1,104.999996870756,8|0
204,272,9700,6,0,B|156:236,1,52.4999984353781,8|0
116,300,10000,2,0,B|164:336,1,52.4999984353781,8|0
232,344,10300,6,0,B|288:364|332:304,1,104.999996870756,12|0
300,244,10750,2,0,B|268:192|208:212,1,104.999996870756,8|0
172,276,11200,2,0,B|110:274|98:212,1,104.999996870756,8|0
36,176,11650,2,0,B|68:124|128:144,1,104.999996870756,8|0
196,160,12100,6,0,B|224:168,2,26.2499992176891,8|0|0
176,88,12400,1,8
212,24,12550,1,0
248,88,12700,6,0,B|288:64|344:64|388:84,1,140,4|8
476,188,13300,1,8
380,292,13600,1,8
328,244,13750,6,0,B|308:292|232:292|208:244,1,140,8|0
168,196,14200,1,8
248,84,14500,2,0,B|320:84,1,70,8|0
372,128,14800,2,0,B|444:128,1,70,8|0
480,196,15100,5,12
360,280,15400,1,8
360,280,15550,2,0,B|336:328|272:340,1,104.999996870756,8|0
204,340,16000,2,0,B|180:292|116:280,1,104.999996870756,8|0
52,256,16450,2,0,B|60:216|100:196|136:204,1,104.999996870756,8|0
204,204,16900,5,8
352,204,17200,1,8
496,232,17500,6,0,B|516:164|448:132,1,104.999996870756,12|0
392,140,17950,2,0,B|344:104|292:132,1,104.999996870756,8|0
276,204,18400,2,0,B|216:211|185:160,1,104.999996870756,8|0
176,88,18850,2,0,B|116:80|85:131,1,104.999996870756,8|0
36,184,19300,5,8
120,304,19600,1,8
264,340,19900,6,0,B|280:272|220:236,1,104.999996870756,12|0
160,244,20350,2,0,B|128:192|160:144,1,104.999996870756,8|0
96,108,20800,2,0,B|132:60|192:80,1,104.999996870756,8|0
232,140,21250,2,0,B|268:188|328:168,1,104.999996870756,8|0
396,160,21700,6,0,B|432:152,2,26.2499992176891,8|0|0
368,228,22000,1,8
300,252,22150,1,0
236,228,22300,6,0,B|196:234|139:191|135:147,1,140,4|8
196,20,22900,1,8
308,100,23200,1,8
336,36,23350,6,0,B|364:16|408:12|444:36|456:68,1,140,8|0
429,130,23800,2,0,B|401:150|350:153|318:123|305:94,1,140,8|0
260,48,24250,2,0,B|223:2|156:-3|110:32|101:93,1,210,8|4
44,232,25000,6,0,B|116:220,1,70,8|0
132,152,25300,2,0,B|200:144|200:144|268:168,1,140,0|0
328,204,25750,2,0,B|396:188,1,70,0|0
456,152,26050,1,8
324,76,26350,1,8
180,120,26650,1,8
44,44,26950,5,8
16,116,27100,2,0,B|48:176,1,70
104,232,27400,2,0,B|161:196,1,70,8|0
180,120,27700,2,0,B|243:144,1,70
316,176,28000,1,8
348,108,28150,2,0,B|396:120|448:160|444:236|408:288,1,210,0|8
296,348,28900,5,8
176,268,29200,1,8
48,320,29500,1,4
64,132,29800,5,8
128,92,29950,1,0
192,52,30100,2,0,B|228:32|284:120|320:100,1,140,8|0
372,48,30550,2,0,B|416:56|456:104|448:156,1,140,8|0
436,228,31000,1,8
372,272,31150,2,0,B|276:232|276:308|160:272,1,210,8|8
96,300,31750,5,0
40,244,31900,1,8
108,112,32200,6,0,B|164:104|208:128|232:180,1,140,8|0
248,236,32650,1,0
296,288,32800,1,8
364,308,32950,6,0,B|424:300|452:236,1,104.999996870756,2|0
468,180,33400,2,0,B|468:116|416:72|416:72|352:100|280:72,1,262.499992176891,2|0
212,44,34300,5,8
212,44,34450,1,0
88,72,34750,5,8
88,72,34900,1,0
208,116,35200,5,8
208,116,35350,1,0
88,156,35650,5,8
156,188,35800,1,0
280,184,36100,5,2
156,264,36400,1,2
276,348,36700,5,8
276,348,36850,1,0
416,276,37150,5,8
416,276,37300,1,0
276,204,37600,5,8
276,204,37750,1,0
416,136,38050,5,8
344,104,38200,1,0
188,104,38500,5,0
328,32,38800,1,0
484,32,39100,6,0,B|444:67,1,52.4999984353781,8|0
384,116,39400,1,8
312,88,39550,2,0,B|272:123,1,52.4999984353781,8|0
212,172,39850,1,8
156,228,39999,2,0,B|116:192,1,52.4999984353781,8|0
60,140,40300,1,8
8,80,40450,6,0,B|68:32|144:60,1,140
220,32,40900,2,0,B|293:13|351:70,1,140,8|8
392,140,41350,1,0
428,216,41500,5,8
460,292,41650,1,4
280,216,41950,5,8
308,308,42100,1,4
104,216,42400,5,8
140,324,42550,2,0,B|156:368|156:368|200:336|200:280,1,140,4|0
200,204,43000,5,8
200,36,43300,1,8
368,36,43600,1,8
404,112,43750,1,8
432,192,43900,6,0,B|432:240|396:288|356:304,1,140,4|0
284,336,44350,1,0
200,336,44500,2,0,B|152:344|104:320|80:276,1,140,0|8
48,200,44950,1,0
104,136,45100,6,0,B|152:128|200:152|224:196,1,140,8|8
312,320,45700,2,0,B|384:296,1,70,8|0
436,244,46000,2,0,B|364:220,1,70,8|0
300,188,46300,6,0,B|328:148|368:128|420:128,1,140,8|0
492,104,46750,2,0,B|464:64|424:44|372:44,1,140,8|0
296,52,47200,5,0
256,124,47350,2,0,B|208:144|152:132|120:96,1,140,8|0
76,32,47800,1,8
124,192,48100,2,0,B|152:228|212:240|256:232,1,140,8|4
368,68,48700,6,0,B|424:116,1,70,4|0
484,172,49000,2,0,B|428:220,1,70,8|0
496,268,49300,2,0,B|440:316,1,70,8|0
368,348,49600,6,0,B|300:324,1,70,8|0
256,256,49900,2,0,B|208:312|128:312,1,140,8|0
32,176,50500,2,0,B|80:120|160:120,1,140,8|0
232,80,50950,1,0
316,68,51100,6,0,B|352:94|351:162|308:188,1,140,8|0
224,168,51550,2,0,B|205:209|240:267|290:268,1,140,8|0
372,252,52000,2,0,B|390:293|355:351|305:352,1,140,8|0
291,268,52450,2,0,B|219:288|155:240,1,140,0|0
84,204,52900,2,0,B|142:144|221:179|221:179|277:125|359:155,1,280,8|4
256,192,53650,12,4,55900
44,320,63400,6,4,B|80:328|116:304,1,70,8|0
172,260,63700,2,0,B|208:252|264:264|300:304,1,140,8|8
368,268,64150,2,0,B|399:288|435:280,1,70,0|8
412,208,64450,2,8,B|356:160|264:160|212:200,1,210,0|0
172,260,65050,2,0,B|136:248|116:216,1,70,0|0
80,152,65350,5,0
128,92,65500,2,0,B|200:112,1,70,8|0
256,160,65800,2,0,B|328:140,1,70,8|0
388,100,66100,2,0,B|320:84,1,70,8|0
252,60,66400,5,0
304,12,66550,2,0,B|376:32,1,70,0|8
444,60,66850,2,0,B|500:92|504:160|472:212|416:232,1,210,8|8
272,204,67600,5,8
148,296,67900,1,4
28,208,68200,5,8
96,172,68350,1,0
64,104,68500,2,0,B|112:48|188:44,1,140,0|8
264,40,68950,5,8
148,144,69250,1,8
176,216,69400,1,0
240,172,69550,2,0,B|248:124|308:88|372:100|416:132,1,210,8|8
480,172,70150,5,0
412,208,70300,1,8
480,344,70600,5,8
340,344,70900,1,8
284,292,71050,1,0
212,284,71200,1,8
152,328,71350,6,0,B|128:348|76:348|52:328,1,104.999996870756,2|0
16,264,71800,2,0,B|20:200|72:152|72:152|136:184|204:156,1,262.499992176891,2|0
272,132,72700,5,8
340,104,72850,1,0
440,212,73150,5,8
372,184,73300,1,0
272,292,73600,5,8
340,264,73750,1,0
440,372,74050,5,8
372,344,74200,1,0
224,344,74500,5,2
80,372,74800,1,2
224,344,75100,5,8
161,304,75250,1,0
16,284,75550,5,8
79,244,75700,1,0
224,224,76000,5,8
161,184,76150,1,0
16,164,76450,5,8
79,124,76600,1,0
212,40,76900,5,2
344,128,77200,1,2
496,176,77500,6,0,B|440:196,1,52.4999984353781,8|0
372,216,77800,1,8
404,288,77950,2,0,B|348:308,1,52.4999984353781,8|0
280,328,78250,1,8
244,260,78400,2,0,B|188:240,1,52.4999984353781,8|0
120,212,78700,1,8
60,160,78850,6,0,B|30:194|36:258|63:291,1,140,8|0
132,340,79300,2,0,B|164:372|228:372|264:348,1,140,8|0
344,324,79750,1,0
420,288,79900,5,8
492,248,80050,1,4
344,168,80350,5,8
252,132,80500,1,4
84,232,80800,5,8
48,124,80950,2,0,B|24:84|24:84|60:52|112:64,1,140,4|0
184,96,81400,5,8
336,68,81700,1,8
188,24,82000,1,8
256,60,82150,1,0
244,136,82300,6,0,B|224:184|244:236|288:260,1,140,4|8
360,276,82750,1,0
324,340,82900,2,0,B|276:320|224:340|200:384,1,140,0|8
132,352,83350,1,0
84,292,83500,6,0,B|152:268,1,70,8|0
244,244,83800,2,0,B|176:220,1,70,8|0
84,192,84100,2,0,B|152:168,1,70,8|0
244,148,84400,2,0,B|176:124,1,70,8|0
84,104,84700,6,0,B|112:68|160:48|212:56,1,140,8|0
288,56,85150,2,0,B|316:92|364:112|416:104,1,140,8|0
472,152,85600,1,0
484,228,85750,2,0,B|468:268|404:292|364:280,1,140,8|0
296,244,86200,1,8
184,348,86500,2,0,B|140:336|108:280|124:232,1,140,8|4
148,92,87100,6,0,B|188:72|240:96|240:148|312:168|356:148,1,210,4|0
416,188,87700,2,0,B|376:168|324:192|324:244|252:264|208:244,1,210,8|0
148,280,88300,2,0,B|188:260|240:284|240:336|312:356|356:336,1,210,8|0
420,328,88900,1,8
440,160,89200,1,8
276,196,89500,6,0,B|203:176|138:220,1,140,8|0
68,256,89950,2,0,B|24:252|-4:228,1,70,8|8
0,148,90250,2,0,B|21:129|65:125,1,70,0|8
144,156,90550,5,0
208,104,90700,2,0,B|256:108|296:160|284:212,1,140,8|0
252,280,91150,1,0
180,320,91300,2,0,B|204:360|260:380|304:356,1,140,8|4
464,316,91900,6,4,B|484:288|488:248|468:212|432:200,1,140,4|0
348,224,92350,1,0
268,248,92500,2,4,B|251:222|244:180|264:144|300:132,1,140,8|0
380,96,92950,1,8
436,32,93100,6,0,B|368:0,1,70,8|0
292,20,93400,2,0,B|228:49,1,70,8|0
212,132,93700,2,0,B|144:100,1,70,8|0
64,104,94000,2,0,B|0:133,1,70,8|0
8,216,94300,6,0,B|56:204|56:204|140:240,1,140,8|0
220,212,94750,2,0,B|268:224|268:224|352:188,1,140,8|0
372,272,95200,1,0
312,328,95350,2,0,B|284:364|224:372|176:360,1,140,8|0
104,336,95800,1,8
72,172,96100,2,0,B|92:136|140:112|196:132,1,140,8|4
360,136,96700,6,0,B|435:121|494:159,1,140,4|0
504,244,97150,1,0
472,320,97300,2,0,B|396:335|337:297,1,140,8|0
260,264,97750,1,0
192,316,97900,1,8
96,180,98200,1,8
264,192,98500,5,8
396,236,98800,1,8
472,116,99100,6,0,B|448:84|404:72|360:84|340:100,1,140,8|0
345,97,99550,2,0,B|321:65|277:53|233:65|213:81,1,140,8|0
218,78,100000,2,0,B|194:46|150:34|106:46|86:62,1,140,8|0
36,120,100450,2,8,B|65:190|146:202,1,140,8|8
216,232,100900,2,8,B|268:176|348:192,1,140,8|0
452,320,101500,6,0,B|388:348|312:320,1,140,12|0
256,264,101950,2,0,B|320:292|396:264,1,140,8|0
452,204,102400,2,0,B|388:232|312:204,1,140,8|0
256,148,102850,2,0,B|320:176|396:148,1,140,8|0
452,88,103300,1,8
452,88,103450,1,0
452,88,103600,1,8
452,88,103750,1,0
384,40,103900,6,0,B|312:28|312:28|244:52,1,140,12|0
192,112,104350,2,0,B|264:100|264:100|332:124,1,140,8|0
384,184,104800,2,0,B|312:172|312:172|244:196,1,140,8|0
192,256,105250,2,0,B|264:244|264:244|332:268,1,140,8|0
408,296,105700,1,8
384,376,105850,1,0
304,344,106000,2,0,B|296:380,2,35,8|0|0
224,340,106300,6,0,B|188:340|188:292|152:260|116:260,1,140,12|0
36,280,106750,2,0,B|72:280|72:232|108:200|144:200,1,140,8|0
224,228,107200,2,0,B|188:228|188:180|152:148|116:148,1,140,8|0
36,172,107650,2,0,B|72:172|72:124|108:92|144:92,1,140,8|0
220,60,108100,2,0,B|256:44,6,35,8|0|0|0|8|0|0
264,132,108700,6,0,B|336:120|400:160,1,140,12|0
460,216,109150,2,0,B|388:204|324:244,1,140,8|0
248,272,109600,2,0,B|185:310|113:298,1,140,8|0
40,340,110050,2,0,B|102:378|174:366,1,140,8|0
256,380,110500,5,8
256,224,110800,1,8
256,72,111100,1,4
24,192,125500,5,12
24,192,125650,2,0,B|88:168,1,70,0|8
88,96,125950,2,0,B|152:72,1,70,0|8
184,132,126250,2,0,B|248:108,1,70,0|8
412,48,126700,5,8
412,48,126850,2,0,B|348:72,1,70,0|8
348,144,127150,2,0,B|284:168,1,70,0|8
252,108,127450,2,0,B|188:132,1,70,0|8
60,196,127900,6,0,B|128:192|128:192|196:216,1,140,8|0
168,280,128350,1,0
140,344,128500,1,8
208,352,128650,2,0,B|276:356|276:356|344:332,1,140,0|8
408,304,129100,5,8
484,152,129400,1,8
344,56,129700,1,8
280,212,130000,1,8
148,112,130300,6,0,B|80:132,1,70,12|0
32,192,130600,2,0,B|100:212,1,70,8|0
168,248,130900,2,0,B|236:228,1,70,8|0
308,208,131200,1,8
392,336,131500,6,0,B|324:356,1,70,8|0
268,304,131800,2,0,B|200:284,1,70,8|0
144,232,132100,2,0,B|76:252,1,70,8|0
4,276,132400,1,8
128,368,132700,6,0,B|200:377|268:348,1,140,8|0
340,324,133150,1,0
300,260,133300,2,0,B|227:269|160:240,1,140,8|0
140,168,133750,5,8
140,168,133900,2,0,B|176:128|240:136,1,104.999996870756,4|0
240,208,134350,1,8
240,208,134500,2,0,B|291:224|342:185,1,104.999996870756,4|0
364,120,134950,1,8
364,120,135100,2,0,B|192:160|160:36|264:-32|352:36|316:168|149:120,1,419.999987483025,4|4
256,192,136450,12,0,138400
60,60,138700,6,0,B|104:36|168:44|216:72,1,157.499995306134,2|0
240,136,139300,2,0,B|196:112|132:120|84:148,1,157.499995306134,2|0
48,208,139900,2,0,B|100:224,1,52.4999984353781,2|0
164,260,140200,2,0,B|112:276,1,52.4999984353781,2|0
64,328,140500,2,0,B|116:344,1,52.4999984353781,2|0
188,344,140800,2,0,B|240:328,1,52.4999984353781,2|0
308,308,141100,6,0,B|360:324|424:280,1,104.999996870756,2|0
360,236,141550,2,0,B|413:223|446:153,1,104.999996870756,2|0
304,108,142150,2,0,B|292:72|260:44|208:36|160:56,1,157.499995306134,2|0
172,200,142900,2,0,B|223:215|274:183,1,104.999996870756,2|4
372,76,143500,5,8
414,234,143800,1,8
298,350,144100,1,8
140,308,144400,1,8
97,149,144700,1,8
213,33,145000,1,8
372,76,145300,6,0,B|424:96,1,52.4999984353781,8|0
472,148,145600,2,0,B|420:168,1,52.4999984353781,8|0
448,236,145900,2,0,B|416:252|376:252|340:240,1,104.999996870756,8|0
304,304,146350,2,0,B|268:301|233:281|208:253,1,104.999996870756,8|0
176,180,146800,5,8
360,140,147100,2,0,B|312:116,1,52.4999984353781,8|0
224,84,147400,2,0,B|176:108,1,52.4999984353781,8|0
92,148,147700,1,4
32,344,148300,6,0,B|80:368|152:360|200:328,1,174.999997392297,4|8
264,284,148750,1,0
232,212,148900,2,0,B|280:188|352:196|400:228,1,174.999997392297,0|8
468,268,149350,1,0
488,196,149500,6,0,B|442:116,1,87.4999986961484,8|0
368,48,149800,2,0,B|414:127,1,87.4999986961484,8|0
424,228,150100,2,0,B|378:148,1,87.4999986961484,8|0
304,80,150400,2,0,B|350:159,1,87.4999986961484,8|0
392,252,150700,6,0,B|384:300|340:308|340:308|288:300|256:336,1,174.999997392297,8|0
176,336,151150,2,0,B|143:299|91:307|91:307|47:299|39:251,1,174.999997392297,8|0
64,96,151750,1,8
192,188,152050,1,8
320,96,152350,1,8
320,96,152500,2,0,B|372:128|388:200|340:248,1,174.999997392297,0|8
224,352,153100,6,0,B|272:384|320:384|360:360|380:324,1,174.999997392297,4|8
496,224,153700,2,0,B|448:192|400:190|363:214|341:247,1,174.999997392297,0|8
224,352,154300,6,0,B|172:380|96:364|60:316,1,174.999997392297,0|8
16,172,154900,2,0,B|100:136,1,87.4999986961484,8|0
120,60,155200,2,0,B|204:96,1,87.4999986961484,8|0
260,148,155500,6,0,B|256:200|216:216|216:216|220:260|264:288,1,174.999997392297,8|0
324,340,155950,2,0,B|372:340|408:316,1,87.4999986961484,8|0
468,268,156250,2,0,B|426:244|383:246,1,87.4999986961484,8|0
308,232,156550,1,8
168,308,156850,6,0,B|136:360|64:372|8:348,1,174.999997392297,8|8
4,272,157300,2,0,B|36:220|108:208|164:232,1,174.999997392297,0|4
476,280,157900,6,0,B|448:332|380:364|324:352,1,174.999997392297,4|0
256,276,158350,1,0
172,212,158500,2,0,B|200:160|268:128|324:140,1,174.999997392297,4|0
420,176,158950,1,0
388,276,159100,5,12
180,308,159400,1,12
148,100,159700,1,12
356,68,160000,1,12
388,276,160300,6,0,B|308:240|308:240|220:260,1,174.999997392297,8|0
140,324,160750,2,0,B|220:360|220:360|308:340,1,174.999997392297,8|0
388,276,161200,6,0,B|448:244|448:164|384:136,1,174.999997392297,8|8
232,104,161800,1,8
196,256,162100,2,0,B|155:277|100:272|64:228|76:180,1,174.999997392297,8|4
160,52,162700,6,0,B|208:36|284:48|336:80,1,174.999997392297,4|8
388,128,163150,1,0
324,172,163300,2,0,B|291:143|237:141,1,87.4999986961484,0|0
184,196,163600,2,0,B|216:224|270:226,1,87.4999986961484,8|0
344,240,163900,5,8
224,368,164200,1,8
104,240,164500,1,8
220,108,164800,1,8
344,240,165100,5,8
452,356,165400,2,0,B|492:308|492:232|452:192,1,174.999997392297,8|0
360,148,165850,5,8
256,168,166000,1,0
152,148,166150,1,8
64,300,166450,6,0,B|84:348|168:376|220:356,1,174.999997392297,8|0
220,252,166900,2,0,B|305:229,1,87.4999986961484,0|0
408,200,167200,2,0,B|388:152|304:124|252:140,1,174.999997392297,0|4
256,192,167650,12,4,169900
256,124,177100,6,0,B|256:52,2,70,8|0|8
256,192,177550,1,0
256,260,177700,2,0,B|256:332,2,70,8|0|8
256,192,178150,5,4
356,360,178450,1,4
156,360,178750,1,4
256,192,178900,12,0,181150
256,192,181450,6,0,B|256:236,2,26.2499992176891,8|8|8
