osu file format v14

[General]
AudioFilename: Marble Bright.mp3
AudioLeadIn: 0
PreviewTime: 147202
Countdown: 0
SampleSet: Normal
StackLeniency: 0.7
Mode: 0
LetterboxInBreaks: 1
WidescreenStoryboard: 0

[Editor]
Bookmarks: 28916,59345
DistanceSpacing: 2
BeatDivisor: 4
GridSize: 4
TimelineZoom: 1

[Metadata]
Title:Marble Bright
TitleUnicode:Marble Bright
Artist:Hatsune Miku
ArtistUnicode:初音ミク
Creator:Lalarun
Version:Insane
Source:Tom
Tags:vocaloid
BeatmapID:129506
BeatmapSetID:40902

[Difficulty]
HPDrainRate:7
CircleSize:4
OverallDifficulty:8
ApproachRate:9
SliderMultiplier:2
SliderTickRate:1

[Events]
//Background and Video events
0,0,"bg.jpg",0,0
//Break Periods
2,24116,28316
2,75830,92316
2,121687,128316
//Storyboard Layer 0 (Background)
//Storyboard Layer 1 (Fail)
//Storyboard Layer 2 (Pass)
//Storyboard Layer 3 (Foreground)
//Storyboard Sound Samples

[TimingPoints]
8345,285.714285714286,4,1,1,70,1,0
55702,-100,4,1,1,5,0,0
55916,-100,4,1,1,70,0,1
75630,-100,4,1,1,5,0,0
92845,-100,4,1,1,70,0,0
121416,-100,4,1,1,5,0,0
128845,-100,4,1,1,70,0,0
138130,-133.333333333333,4,2,1,70,0,0
146130,-100,4,2,1,70,0,0
147345,-100,4,1,1,75,0,1
167059,-100,4,1,1,5,0,0
167202,-100,4,1,1,70,0,1
185059,-100,4,1,1,5,0,0

[Colours]
Combo1 : 255,255,255
Combo2 : 87,174,0
Combo3 : 0,73,147
Combo4 : 145,0,0

[HitObjects]
56,40,9202,5,4,0:0:0:0:
96,44,9273,1,0,0:0:0:0:
136,60,9345,1,0,0:0:0:0:
172,84,9416,1,0,0:0:0:0:
208,100,9487,1,0,0:0:0:0:
248,104,9559,1,0,0:0:0:0:
288,100,9630,1,0,0:0:0:0:
328,92,9702,1,0,0:0:0:0:
368,84,9773,2,0,P|428:68|476:52,1,100,4|0,0:0|0:0,0:0:0:0:
456,212,10059,5,0,0:0:0:0:
440,248,10130,1,0,0:0:0:0:
408,272,10202,2,0,B|364:292|312:296,1,100,4|0,0:0|0:0,0:0:0:0:
332,188,10487,1,0,0:0:0:0:
184,324,10630,2,0,B|204:280|208:228,1,100,8|0,0:0|0:0,0:0:0:0:
80,72,10916,2,0,B|84:124|100:172,1,100
280,80,11202,1,8,0:0:0:0:
456,172,11344,6,0,B|472:124|476:72,1,100
348,204,11630,2,0,B|356:256|380:300,1,100,0|8,0:0|0:0,0:0:0:0:
376,116,11916,1,0,0:0:0:0:
340,104,11987,1,0,0:0:0:0:
300,100,12059,2,0,B|248:108|208:136,1,100
232,284,12344,1,8,0:0:0:0:
92,336,12487,2,0,B|112:240|108:136,1,200
48,44,12916,5,8,0:0:0:0:
128,120,13059,1,0,0:0:0:0:
228,164,13202,1,0,0:0:0:0:
336,176,13345,1,0,0:0:0:0:
444,164,13487,1,8,0:0:0:0:
340,128,13630,5,4,0:0:0:0:
300,136,13702,1,0,0:0:0:0:
264,152,13773,1,0,0:0:0:0:
228,256,13916,1,0,0:0:0:0:
356,336,14059,2,0,B|372:288|376:232,1,100,8|0,0:0|0:0,0:0:0:0:
340,128,14345,5,0,0:0:0:0:
148,180,14487,1,0,0:0:0:0:
296,44,14630,1,8,0:0:0:0:
192,76,14773,6,0,B|140:72|92:60,1,100,4|0,0:0|0:0,0:0:0:0:
40,156,15059,1,0,0:0:0:0:
76,260,15202,2,0,B|80:312|92:360,1,100,8|0,0:0|0:0,0:0:0:0:
196,324,15487,5,0,0:0:0:0:
344,296,15630,1,0,0:0:0:0:
252,232,15773,1,8,0:0:0:0:
400,204,15916,1,0,0:0:0:0:
460,112,16059,6,0,B|412:104|360:104,1,100
168,112,16345,2,0,B|212:92|252:60,2,100,8|0|0,0:0|0:0|0:0,0:0:0:0:
64,76,16773,1,0,0:0:0:0:
84,184,16916,1,8,0:0:0:0:
48,332,17059,1,0,0:0:0:0:
144,276,17202,5,4,0:0:0:0:
184,288,17273,1,0,0:0:0:0:
224,300,17345,1,0,0:0:0:0:
264,312,17416,1,0,0:0:0:0:
304,320,17487,2,0,B|352:316,3,50,8|0|0|0,0:0|0:0|0:0|0:0,0:0:0:0:
448,344,17773,5,0,0:0:0:0:
448,344,17845,1,0,0:0:0:0:
448,344,17916,1,0,0:0:0:0:
360,220,18059,1,8,0:0:0:0:
408,120,18202,2,0,L|360:64,1,50
300,128,18345,5,0,0:0:0:0:
260,140,18416,1,0,0:0:0:0:
220,152,18488,1,0,0:0:0:0:
180,164,18559,1,0,0:0:0:0:
140,172,18630,2,0,B|92:168,3,50,8|0|0|0,0:0|0:0|0:0|0:0,0:0:0:0:
48,76,18916,5,0,0:0:0:0:
76,48,18987,1,0,0:0:0:0:
112,36,19059,1,0,0:0:0:0:
152,32,19130,1,0,0:0:0:0:
192,40,19202,1,8,0:0:0:0:
400,144,19345,6,0,B|348:140|296:128,1,100,4|0,0:0|0:0,0:0:0:0:
364,40,19630,1,0,0:0:0:0:
336,240,19773,2,0,B|340:292|352:344,1,100,8|0,0:0|0:0,0:0:0:0:
492,192,20059,5,0,0:0:0:0:
452,296,20202,1,0,0:0:0:0:
350,338,20345,1,8,0:0:0:0:
216,272,20487,6,0,B|164:268|112:268,1,100
36,344,20773,1,0,0:0:0:0:
124,164,20916,2,0,B|120:112|120:60,1,100,8|0,0:0|0:0,0:0:0:0:
220,112,21202,5,0,0:0:0:0:
20,120,21345,1,0,0:0:0:0:
116,20,21487,1,8,0:0:0:0:
320,56,21630,6,0,B|372:52|424:52,1,100
476,148,21916,1,0,0:0:0:0:
436,344,22059,2,0,B|440:292|440:240,1,100,8|0,0:0|0:0,0:0:0:0:
340,292,22345,5,0,0:0:0:0:
196,252,22487,1,0,0:0:0:0:
48,228,22630,1,8,0:0:0:0:
88,332,22773,6,0,B|120:296|136:244|136:244|136:188|124:136,1,200,4|0,0:0|0:0,0:0:0:0:
36,80,23202,1,8,0:0:0:0:
236,96,23345,2,0,B|272:64|324:48|324:48|380:48|432:60,2,200
56,308,28916,6,0,B|108:284|108:284|176:272|252:272,1,200,2|0,0:0|0:0,0:0:0:0:
440,340,29345,2,0,B|452:292|456:240,1,100,0|2,0:0|0:0,0:0:0:0:
336,152,29630,2,0,B|340:204|352:252,1,100,0|0,0:0|0:0,0:0:0:0:
444,128,29916,1,0,0:0:0:0:
368,48,30059,2,0,B|316:40|268:40,1,100,2|0,0:0|0:0,0:0:0:0:
68,64,30345,2,0,B|119:64|167:56,1,100,0|0,0:0|0:0,0:0:0:0:
236,144,30630,5,2,0:0:0:0:
216,252,30773,1,0,0:0:0:0:
156,344,30916,2,0,B|124:308|108:256|108:256|108:200|120:148,2,200,0|2|0,0:0|0:0|0:0,0:0:0:0:
316,232,31630,2,0,B|218:250,1,100,0|2,0:0|0:0,0:0:0:0:
400,312,31916,5,0,0:0:0:0:
444,212,32059,1,0,0:0:0:0:
380,124,32202,1,0,0:0:0:0:
272,108,32345,2,0,B|174:126,1,100,2|0,0:0|0:0,0:0:0:0:
12,24,32630,2,0,B|110:42,1,100
56,140,32916,1,2,0:0:0:0:
60,180,32987,1,0,0:0:0:0:
64,220,33059,1,0,0:0:0:0:
68,260,33130,1,0,0:0:0:0:
72,300,33202,1,0,0:0:0:0:
72,300,33487,6,0,B|176:292,1,100,2|0,0:0|0:0,0:0:0:0:
316,336,33773,2,0,B|420:328,2,100,0|0|2,0:0|0:0|0:0,0:0:0:0:
268,236,34202,2,0,B|368:220|464:188,1,200
456,40,34630,2,0,B|404:60|364:88,2,100,2|0|0,0:0|0:0|0:0,0:0:0:0:
256,40,35059,1,0,0:0:0:0:
212,140,35202,1,2,0:0:0:0:
100,96,35345,2,0,B|68:132|52:184|52:184|52:240|64:292,1,200
168,252,35773,1,2,0:0:0:0:
264,340,35916,2,0,B|281:242,2,100
456,232,36487,5,2,0:0:0:0:
272,264,36773,1,2,0:0:0:0:
344,80,37059,1,2,0:0:0:0:
244,68,37345,5,2,0:0:0:0:
272,264,37487,1,0,0:0:0:0:
152,104,37630,1,4,0:0:0:0:
152,104,38059,6,0,B|100:100|52:88,1,100,2|0,0:0|0:0,0:0:0:0:
36,200,38345,2,0,B|88:204|136:216,1,100
72,304,38630,1,2,0:0:0:0:
180,324,38773,2,0,B|228:308|228:308|300:296|384:300,2,200
476,348,39487,1,0,0:0:0:0:
476,348,39630,1,0,0:0:0:0:
472,196,39773,2,0,B|428:172|380:160,1,100,2|0,0:0|0:0,0:0:0:0:
340,56,40059,2,0,B|296:80|248:92,1,100
144,52,40345,5,2,0:0:0:0:
52,112,40487,1,0,0:0:0:0:
152,160,40630,5,0,0:0:0:0:
88,296,40773,1,0,0:0:0:0:
196,268,40916,5,2,0:0:0:0:
276,344,41059,2,0,B|332:332|424:336|476:324,2,200
316,240,41773,2,0,B|344:234|390:235|416:230,1,100
476,136,42059,1,2,0:0:0:0:
416,44,42202,1,0,0:0:0:0:
384,68,42273,1,0,0:0:0:0:
352,92,42345,2,0,B|323:86|278:88|251:82,1,100
52,88,42630,6,0,B|100:72|144:48,1,100,2|0,0:0|0:0,0:0:0:0:
168,156,42916,2,0,B|132:256|76:336,1,200,0|2,0:0|0:0,0:0:0:0:
68,188,43345,2,0,B|148:244|248:280,1,200
440,324,43773,2,0,B|388:328|340:340,2,100,2|0|0,0:0|0:0|0:0,0:0:0:0:
360,196,44202,1,0,0:0:0:0:
468,92,44345,5,2,0:0:0:0:
368,48,44487,2,0,B|312:60|220:56|168:68,1,200
60,76,44916,2,0,B|48:176,1,100,2|0,0:0|0:0,0:0:0:0:
164,340,45202,2,0,B|176:240,1,100
72,276,45487,1,2,0:0:0:0:
72,276,45630,2,0,B|128:264|220:268|272:256,2,200,4|0|0,0:0|0:0|0:0,0:0:0:0:
456,268,46345,1,0,0:0:0:0:
360,320,46487,1,0,0:0:0:0:
360,320,46559,1,0,0:0:0:0:
360,320,46630,1,2,0:0:0:0:
480,160,46773,6,0,B|432:144|432:144|360:132|276:136,1,200,4|0,0:0|0:0,0:0:0:0:
84,104,47202,2,0,B|132:96|180:76,1,100,2|0,0:0|0:0,0:0:0:0:
288,244,47487,2,0,B|280:292|260:340,1,100
152,316,47773,1,2,0:0:0:0:
24,236,47916,2,0,B|108:192|216:176,1,200
456,348,48345,2,0,B|408:340|360:320,1,100,2|0,0:0|0:0,0:0:0:0:
436,240,48630,5,0,0:0:0:0:
416,132,48773,1,0,0:0:0:0:
308,104,48916,1,2,0:0:0:0:
232,184,49059,2,0,B|176:172|84:176|32:164,1,200
68,60,49487,2,0,B|96:54|142:56|168:50,1,100,2|0,0:0|0:0,0:0:0:0:
272,88,49773,1,0,0:0:0:0:
456,40,49916,6,0,B|412:68|412:68|384:132|372:212,2,200,0|2|2,0:0|0:0|0:0,0:0:0:0:
476,240,50630,2,0,B|448:288|412:316,1,100,2|2,0:0|0:0,0:0:0:0:
224,244,50916,1,2,0:0:0:0:
300,324,51059,1,2,0:0:0:0:
112,256,51202,1,2,0:0:0:0:
32,128,51345,6,0,B|80:112|132:108,1,100,4|0,0:0|0:0,0:0:0:0:
324,60,51630,2,0,B|276:60|224:44,1,100,0|2,0:0|0:0,0:0:0:0:
256,192,51916,1,0,0:0:0:0:
416,300,52059,2,0,B|424:252|432:192,2,100,0|0|4,0:0|0:0|0:0,0:0:0:0:
312,336,52487,2,0,B|256:324|164:328|112:316,2,200
48,208,53202,2,0,B|76:202|122:203|148:198,1,100,2|0,0:0|0:0,0:0:0:0:
220,116,53487,1,2,0:0:0:0:
416,76,53630,6,0,B|388:70|342:71|316:66,2,100,2|0|2,0:0|0:0|0:0,0:0:0:0:
464,272,54059,1,2,0:0:0:0:
388,192,54202,1,2,0:0:0:0:
372,332,54345,1,2,0:0:0:0:
308,112,54487,1,2,0:0:0:0:
292,340,54630,1,2,0:0:0:0:
228,36,54773,1,2,0:0:0:0:
212,348,54916,1,6,0:0:0:0:
256,192,54987,12,0,55773,0:0:0:0:
444,216,55916,6,0,B|408:184|356:168|356:168|300:168|248:180,1,200,4|0,0:0|0:0,0:0:0:0:
112,320,56345,2,0,B|136:280|152:228,1,100,8|0,0:0|0:0,0:0:0:0:
44,60,56630,2,0,B|48:112|64:160,1,100
164,112,56916,1,8,0:0:0:0:
256,52,57059,2,0,B|283:46|329:49|355:43,1,100
440,168,57345,2,0,B|413:162|367:165|341:159,2,100,0|8|0,0:0|0:0|0:0,0:0:0:0:
464,316,57773,1,0,0:0:0:0:
360,276,57916,1,0,0:0:0:0:
320,288,57987,1,0,0:0:0:0:
288,312,58059,1,8,0:0:0:0:
140,336,58202,6,0,B|180:304|180:304|212:240|216:160,1,200,4|0,0:0|0:0,0:0:0:0:
64,64,58630,2,0,B|68:120|84:164,1,100,8|0,0:0|0:0,0:0:0:0:
52,268,58916,1,0,0:0:0:0:
276,56,59059,2,0,B|249:50|203:53|177:47,1,100,0|8,0:0|0:0,0:0:0:0:
364,120,59345,2,0,B|391:114|437:117|463:111,2,100
288,200,59773,1,8,0:0:0:0:
448,320,59916,1,0,0:0:0:0:
340,300,60059,2,0,B|313:306|267:303|241:309,1,100
92,344,60345,5,8,0:0:0:0:
92,344,60416,1,0,0:0:0:0:
92,344,60487,2,0,B|84:296|84:244,1,100,4|0,0:0|0:0,0:0:0:0:
200,80,60773,2,0,B|196:128|180:180,1,100,0|8,0:0|0:0,0:0:0:0:
80,132,61059,1,0,0:0:0:0:
320,104,61202,2,0,B|347:98|393:101|419:95,2,100,0|0|8,0:0|0:0|0:0,0:0:0:0:
256,240,61630,6,0,B|312:252|404:248|456:260,1,200
68,316,62059,2,0,B|95:310|141:313|167:307,1,100,8|0,0:0|0:0,0:0:0:0:
152,196,62345,1,0,0:0:0:0:
48,88,62487,1,0,0:0:0:0:
88,84,62559,1,0,0:0:0:0:
128,80,62630,1,8,0:0:0:0:
232,116,62773,6,0,B|296:132|296:132|360:156|432:156,1,200,4|0,0:0|0:0,0:0:0:0:
400,48,63202,1,8,0:0:0:0:
444,264,63345,2,0,B|417:270|371:267|345:273,1,100
148,312,63630,2,0,B|192:292|240:260,1,100,0|8,0:0|0:0,0:0:0:0:
96,204,63916,1,0,0:0:0:0:
32,340,64059,1,0,0:0:0:0:
52,60,64202,1,0,0:0:0:0:
148,112,64345,2,0,B|175:106|221:109|247:103,1,100,8|0,0:0|0:0,0:0:0:0:
440,48,64630,2,0,B|413:42|367:45|341:39,1,100,0|0,0:0|0:0,0:0:0:0:
384,184,64916,5,8,0:0:0:0:
384,184,64987,1,0,0:0:0:0:
384,184,65059,2,0,B|384:236|392:284,1,100,4|0,0:0|0:0,0:0:0:0:
484,344,65345,1,0,0:0:0:0:
288,312,65487,2,0,B|240:300|240:300|160:300|92:324,1,200,8|0,0:0|0:0,0:0:0:0:
248,196,65916,2,0,B|196:196|132:208,1,100,0|8,0:0|0:0,0:0:0:0:
40,228,66202,1,0,0:0:0:0:
0,84,66345,2,0,B|27:90|73:87|99:93,1,100
300,100,66630,2,0,B|252:84|200:60,1,100,8|0,0:0|0:0,0:0:0:0:
408,48,66916,5,0,0:0:0:0:
416,88,66987,1,0,0:0:0:0:
416,128,67059,1,0,0:0:0:0:
400,164,67130,1,0,0:0:0:0:
372,196,67202,1,8,0:0:0:0:
468,336,67345,6,0,B|432:304|380:288|380:288|324:288|272:300,1,200,4|0,0:0|0:0,0:0:0:0:
72,340,67773,2,0,B|120:332|172:320,1,100,8|0,0:0|0:0,0:0:0:0:
208,216,68059,1,0,0:0:0:0:
48,96,68202,1,0,0:0:0:0:
96,196,68345,1,8,0:0:0:0:
184,76,68487,6,0,B|220:108|272:124|272:124|328:124|380:112,1,200
460,48,68916,1,8,0:0:0:0:
460,48,69059,1,0,0:0:0:0:
484,196,69202,1,0,0:0:0:0:
444,204,69273,1,0,0:0:0:0:
412,228,69345,1,0,0:0:0:0:
392,260,69416,1,0,0:0:0:0:
388,300,69487,1,8,0:0:0:0:
192,340,69630,6,0,B|240:320|288:280,1,100,4|0,0:0|0:0,0:0:0:0:
80,248,69916,2,0,B|64:296|56:344,1,100,0|8,0:0|0:0,0:0:0:0:
196,200,70202,1,0,0:0:0:0:
72,116,70345,2,0,B|116:100|116:100|176:72|268:72,1,200,0|8,0:0|0:0,0:0:0:0:
452,144,70773,2,0,B|468:96|472:40,2,100
324,224,71202,2,0,B|336:276|364:332,1,100,8|0,0:0|0:0,0:0:0:0:
448,256,71487,5,0,0:0:0:0:
348,132,71630,1,0,0:0:0:0:
244,168,71773,1,8,0:0:0:0:
164,244,71916,1,0,0:0:0:0:
164,244,71987,1,0,0:0:0:0:
164,244,72059,6,0,B|160:296|144:344,1,100,4|0,0:0|0:0,0:0:0:0:
56,276,72345,1,8,0:0:0:0:
44,76,72487,2,0,B|96:80|144:96,1,100
256,52,72773,1,0,0:0:0:0:
388,320,72916,1,8,0:0:0:0:
388,320,73059,2,0,B|356:284|340:232|340:232|340:176|352:124,1,200
468,40,73487,2,0,B|464:88|456:140,2,100,8|4|0,0:0|0:0|0:0,0:0:0:0:
456,240,73916,1,0,0:0:0:0:
280,336,74059,1,8,0:0:0:0:
84,296,74202,5,0,0:0:0:0:
84,296,74273,1,0,0:0:0:0:
84,296,74345,1,4,0:0:0:0:
256,192,74416,12,0,75630,0:0:0:0:
80,296,92916,6,0,B|136:284|136:284|236:280|280:296,1,200,2|0,0:0|0:0,0:0:0:0:
468,228,93345,2,0,B|420:236|368:236,1,100,0|2,0:0|0:0,0:0:0:0:
404,340,93630,2,0,B|416:284|416:284|420:184|404:140,1,200
312,84,94059,2,0,B|264:72|212:72,1,100,2|0,0:0|0:0,0:0:0:0:
164,268,94345,2,0,B|204:240|236:200,1,100
140,144,94630,2,0,B|113:138|67:141|41:135,2,100,2|0|0,0:0|0:0|0:0,0:0:0:0:
140,144,95202,6,0,B|167:138|213:141|239:135,1,100,2|0,0:0|0:0,0:0:0:0:
472,40,95487,2,0,B|445:46|399:43|373:49,1,100,0|0,0:0|0:0,0:0:0:0:
356,160,95773,1,2,0:0:0:0:
472,256,95916,2,0,B|436:288|384:304|384:304|328:304|276:292,1,200
84,312,96345,2,0,B|128:296|184:292,1,100,2|0,0:0|0:0,0:0:0:0:
32,212,96630,2,0,B|76:196|132:192,1,100
240,200,96916,5,2,0:0:0:0:
280,204,96987,1,0,0:0:0:0:
320,196,97059,1,0,0:0:0:0:
352,172,97130,1,0,0:0:0:0:
372,136,97202,1,0,0:0:0:0:
452,348,97487,6,0,B|444:300|444:244,1,100,2|0,0:0|0:0,0:0:0:0:
480,144,97773,1,0,0:0:0:0:
424,48,97916,2,0,B|376:40|320:40,1,100,0|2,0:0|0:0,0:0:0:0:
32,116,98202,2,0,B|88:104|180:108|232:96,2,200
68,220,98916,2,0,B|95:226|141:223|167:229,1,100
272,196,99202,5,2,0:0:0:0:
388,292,99345,2,0,B|352:324|300:340|300:340|244:340|192:328,2,200
412,144,100059,2,0,B|406:117|409:71|403:45,2,100,0|0|2,0:0|0:0|0:0,0:0:0:0:
388,292,100487,5,2,0:0:0:0:
156,324,100773,1,2,0:0:0:0:
124,92,101059,1,2,0:0:0:0:
356,60,101345,5,2,0:0:0:0:
256,192,101487,1,0,0:0:0:0:
156,324,101630,1,4,0:0:0:0:
156,324,101916,5,0,0:0:0:0:
48,220,102059,2,0,B|75:214|121:217|147:211,1,100,2|0,0:0|0:0,0:0:0:0:
44,100,102345,2,0,B|71:94|117:97|143:91,1,100
244,136,102630,1,2,0:0:0:0:
452,144,102773,2,0,B|456:92|456:92|432:52|316:44,1,200
344,192,103202,2,0,B|352:244|364:292,1,100,2|0,0:0|0:0,0:0:0:0:
464,336,103487,1,0,0:0:0:0:
464,336,103630,1,0,0:0:0:0:
264,320,103773,5,2,0:0:0:0:
116,344,103916,1,0,0:0:0:0:
40,264,104059,1,0,0:0:0:0:
120,188,104202,5,0,0:0:0:0:
120,188,104273,1,0,0:0:0:0:
120,188,104345,2,0,B|112:132|100:84,1,100,2|0,0:0|0:0,0:0:0:0:
224,248,104630,2,0,B|232:192|244:144,1,100
204,44,104916,1,2,0:0:0:0:
324,64,105059,2,0,B|372:80|372:80|448:128|468:212,1,200
388,324,105487,2,0,B|364:280|348:228,2,100,2|0|0,0:0|0:0|0:0,0:0:0:0:
360,176,105916,5,0,0:0:0:0:
224,316,106059,1,2,0:0:0:0:
192,336,106130,1,0,0:0:0:0:
152,340,106202,1,0,0:0:0:0:
112,332,106273,1,0,0:0:0:0:
76,312,106345,2,0,B|56:264|52:212,1,100
76,108,106630,5,2,0:0:0:0:
160,232,106773,1,0,0:0:0:0:
160,32,106916,2,0,B|180:80|184:132,1,100
288,92,107202,1,2,0:0:0:0:
472,172,107345,2,0,B|436:204|384:220|384:220|328:220|276:208,2,200
412,80,108059,1,0,0:0:0:0:
428,324,108202,5,0,0:0:0:0:
428,324,108345,2,0,B|380:328|328:320,1,100,2|0,0:0|0:0,0:0:0:0:
220,300,108630,1,0,0:0:0:0:
80,340,108773,2,0,B|104:292|104:292|124:224|120:148,1,200
52,60,109202,1,0,0:0:0:0:
28,208,109345,2,0,B|55:202|101:205|127:199,1,100,0|2,0:0|0:0,0:0:0:0:
388,64,109630,2,0,B|332:76|240:72|188:84,2,200,4|0|0,0:0|0:0|0:0,0:0:0:0:
472,120,110345,1,0,0:0:0:0:
436,316,110487,1,0,0:0:0:0:
436,316,110559,1,0,0:0:0:0:
436,316,110630,1,2,0:0:0:0:
332,352,110773,6,0,B|308:304|308:304|288:236|292:160,1,200,4|0,0:0|0:0,0:0:0:0:
408,220,111202,2,0,B|435:214|481:217|507:211,1,100,2|0,0:0|0:0,0:0:0:0:
192,316,111487,2,0,B|165:322|119:319|93:325,1,100
28,188,111773,1,2,0:0:0:0:
72,88,111916,6,0,B|124:64|124:64|192:52|268:48,1,200
460,100,112345,2,0,B|408:108|356:108,1,100,2|0,0:0|0:0,0:0:0:0:
300,300,112630,2,0,B|294:273|297:227|291:201,1,100
188,160,112916,1,2,0:0:0:0:
152,264,113059,2,0,B|208:252|300:256|352:244,1,200
448,296,113487,2,0,B|454:269|451:223|457:197,1,100,2|0,0:0|0:0,0:0:0:0:
360,144,113773,1,0,0:0:0:0:
464,84,113916,2,0,B|428:52|376:36|376:36|320:36|268:48,2,200,0|2|2,0:0|0:0|0:0,0:0:0:0:
228,156,114630,5,2,0:0:0:0:
160,56,114773,1,2,0:0:0:0:
276,46,114916,1,2,0:0:0:0:
111,165,115059,1,2,0:0:0:0:
40,68,115202,1,2,0:0:0:0:
176,268,115345,6,0,B|240:284|240:284|304:308|376:308,1,200
428,116,115773,2,0,B|400:156|360:188,1,100,2|0,0:0|0:0,0:0:0:0:
252,164,116059,1,0,0:0:0:0:
144,148,116202,1,0,0:0:0:0:
64,224,116345,1,2,0:0:0:0:
92,36,116487,2,0,B|148:48|240:44|292:56,1,200
400,80,116916,1,2,0:0:0:0:
424,300,117059,1,0,0:0:0:0:
464,176,117202,6,0,B|436:182|390:181|364:186,1,100
292,268,117487,1,2,0:0:0:0:
96,308,117630,6,0,B|124:314|170:313|196:318,2,100,2|0|2,0:0|0:0|0:0,0:0:0:0:
40,88,118059,1,2,0:0:0:0:
84,180,118202,1,0,0:0:0:0:
120,76,118345,1,2,0:0:0:0:
148,228,118487,1,2,0:0:0:0:
200,64,118630,1,2,0:0:0:0:
216,272,118773,5,2,0:0:0:0:
280,52,118916,1,2,0:0:0:0:
284,316,119059,1,2,0:0:0:0:
360,40,119202,1,2,0:0:0:0:
352,360,119345,1,2,0:0:0:0:
440,24,119487,1,2,0:0:0:0:
472,212,119630,6,0,B|412:196|324:184|264:168,1,200,2|4,0:0|0:0,0:0:0:0:
256,192,119987,12,0,121487,0:0:0:0:
108,324,128916,5,8,0:0:0:0:
256,352,129059,2,0,B|224:316|208:264|208:264|208:208|220:156,1,200,4|0,0:0|0:0,0:0:0:0:
416,136,129487,2,0,B|376:168|332:188,1,100,8|0,0:0|0:0,0:0:0:0:
304,40,129773,5,0,0:0:0:0:
200,148,129916,1,0,0:0:0:0:
52,172,130059,1,8,0:0:0:0:
32,64,130202,6,0,B|96:80|96:80|160:104|232:104,1,200
416,36,130630,2,0,B|384:76|360:120,1,100,8|0,0:0|0:0,0:0:0:0:
404,316,130916,2,0,B|412:268|408:212,1,100
300,200,131202,1,8,0:0:0:0:
96,328,131345,2,0,B|152:316|244:320|296:308,2,200
204,224,132059,2,0,B|175:218|130:220|104:214,1,100
64,68,132345,1,8,0:0:0:0:
352,76,132487,6,0,B|316:108|264:124|264:124|208:124|156:112,1,200
348,200,132916,1,8,0:0:0:0:
456,180,133059,2,0,B|472:68,1,100
420,276,133345,5,0,0:0:0:0:
232,340,133487,1,8,0:0:0:0:
308,260,133630,1,0,0:0:0:0:
120,324,133773,2,0,B|112:272|108:224,1,100
24,152,134059,1,8,0:0:0:0:
200,56,134202,2,0,B|192:108|176:156,1,100
100,76,134487,2,0,B|200:56|308:52,2,200
352,240,135345,5,0,0:0:0:0:
432,168,135487,2,0,B|444:68,1,100
264,160,135773,1,8,0:0:0:0:
240,308,135916,2,0,B|184:320|92:316|40:328,1,200
144,216,136345,1,8,0:0:0:0:
36,112,136487,2,0,B|92:100|184:104|236:92,1,200
376,40,136916,2,0,B|403:46|449:43|475:49,1,100,8|0,0:0|0:0,0:0:0:0:
440,340,137202,2,0,B|446:312|444:266|450:240,1,100
384,152,137487,1,8,0:0:0:0:
256,72,137630,5,4,0:0:0:0:
256,72,137702,1,0,0:0:0:0:
256,72,137773,1,0,0:0:0:0:
256,184,137916,1,0,0:0:0:0:
256,296,138059,1,8,0:0:0:0:
152,332,138202,6,0,B|128:240|120:184,1,150.000005722046,4|0,0:0|0:0,0:0:0:0:
32,32,138630,2,0,B|68:104,1,74.9999977648259
164,96,138916,2,0,B|196:88|250:90|281:84,1,112.500004291535
320,104,139202,1,0,0:0:0:0:
292,212,139345,2,0,B|336:202|410:205|452:196,1,149.999995529652,4|0,0:0|0:0,0:0:0:0:
476,300,139773,2,0,B|449:295|406:297|382:291,1,74.9999977648259
420,108,140059,2,0,B|414:82|416:39|410:15,2,74.9999977648259
320,104,140487,6,0,B|329:148|326:222|335:264,1,149.999995529652,4|0,0:0|0:0,0:0:0:0:
476,300,140916,2,0,B|482:274|480:231|486:207,1,74.9999977648259
396,352,141202,2,0,B|369:346|326:348|302:342,1,74.9999977648259
232,324,141487,1,0,0:0:0:0:
268,240,141630,2,0,B|244:208|244:208|192:196|132:204,1,149.999995529652,4|0,0:0|0:0,0:0:0:0:
64,260,142059,2,0,B|52:336,2,74.9999977648259
44,172,142487,2,0,B|56:96,1,74.9999977648259
136,56,142773,6,0,B|180:65|254:62|296:71,1,149.999995529652,4|0,0:0|0:0,0:0:0:0:
348,172,143202,2,0,B|374:142|387:98|387:98|387:52|377:9,2,149.999995529652
236,180,143916,2,0,B|241:206|239:249|245:273,1,74.9999977648259,4|0,0:0|0:0,0:0:0:0:
312,344,144202,1,0,0:0:0:0:
396,268,144345,2,0,B|422:262|465:264|489:258,2,74.9999977648259
428,160,144773,2,0,B|401:154|358:156|334:150,1,74.9999977648259
324,44,145059,6,0,B|274:56|274:56|224:75|168:75,1,149.999995529652,4|0,0:0|0:0,0:0:0:0:
68,48,145487,2,0,B|62:74|64:117|58:141,1,74.9999977648259
60,252,145773,2,0,B|65:278|63:321|69:345,2,74.9999977648259
156,192,146202,6,0,B|204:184|256:192|256:192|304:204|360:192,1,200,4|2,0:0|0:0,0:0:0:0:
184,84,146630,1,2,0:0:0:0:
328,300,146773,1,2,0:0:0:0:
372,48,146916,1,2,0:0:0:0:
140,336,147059,1,2,0:0:0:0:
40,296,147202,5,0,0:0:0:0:
40,296,147273,1,0,0:0:0:0:
40,296,147345,2,0,B|68:252|68:252|132:224|212:212,1,200,4|0,0:0|0:0,0:0:0:0:
384,316,147774,2,0,B|332:308|288:288,1,100,8|0,0:0|0:0,0:0:0:0:
308,180,148059,1,0,0:0:0:0:
464,52,148202,2,0,B|412:60|368:80,1,100,0|8,0:0|0:0,0:0:0:0:
60,120,148488,2,0,B|156:112|256:84,1,200
424,196,148916,1,8,0:0:0:0:
296,276,149059,2,0,B|200:256,1,100
68,332,149345,1,0,0:0:0:0:
52,296,149416,1,0,0:0:0:0:
44,256,149488,1,8,0:0:0:0:
112,44,149631,6,0,B|108:96|96:148,1,100,4|0,0:0|0:0,0:0:0:0:
156,236,149916,1,0,0:0:0:0:
424,196,150059,2,0,B|388:164|336:148|336:148|280:148|228:160,1,200,8|0,0:0|0:0,0:0:0:0:
212,348,150488,2,0,B|240:312|256:260,1,100,0|8,0:0|0:0,0:0:0:0:
148,152,150774,5,0,0:0:0:0:
320,52,150916,1,0,0:0:0:0:
260,144,151059,1,0,0:0:0:0:
432,44,151201,1,8,0:0:0:0:
480,240,151345,1,0,0:0:0:0:
396,156,151488,5,0,0:0:0:0:
368,184,151559,1,0,0:0:0:0:
356,224,151631,1,0,0:0:0:0:
356,264,151702,1,0,0:0:0:0:
368,304,151774,1,8,0:0:0:0:
68,328,151916,6,0,B|120:340|120:340|188:328|268:328,1,200,4|0,0:0|0:0,0:0:0:0:
144,232,152345,2,0,B|196:228|244:228,1,100,8|0,0:0|0:0,0:0:0:0:
44,200,152631,1,0,0:0:0:0:
392,124,152774,2,0,B|340:128|292:128,1,100,0|8,0:0|0:0,0:0:0:0:
24,88,153059,2,0,B|116:60|224:44,1,200
348,228,153488,2,0,B|400:232|448:232,1,100,8|0,0:0|0:0,0:0:0:0:
480,84,153774,5,0,0:0:0:0:
452,56,153845,1,0,0:0:0:0:
412,44,153916,1,0,0:0:0:0:
372,44,153988,1,0,0:0:0:0:
332,52,154059,1,8,0:0:0:0:
236,228,154202,6,0,B|228:280|208:324,1,100,4|0,0:0|0:0,0:0:0:0:
80,244,154488,1,0,0:0:0:0:
124,48,154631,2,0,B|132:100|152:144,1,100,8|0,0:0|0:0,0:0:0:0:
332,52,154916,1,0,0:0:0:0:
228,16,155059,1,0,0:0:0:0:
436,88,155202,1,8,0:0:0:0:
392,348,155345,2,0,B|360:312|344:260|344:260|344:204|356:152,1,200
228,244,155774,2,0,B|212:296|188:348,1,100,8|0,0:0|0:0,0:0:0:0:
20,236,156059,2,0,B|72:220|124:196,1,100
48,64,156345,5,8,0:0:0:0:
48,64,156416,1,0,0:0:0:0:
48,64,156488,2,0,B|112:72|112:72|180:88|248:80,1,200,4|0,0:0|0:0,0:0:0:0:
444,48,156916,2,0,B|440:100|432:152,1,100,8|0,0:0|0:0,0:0:0:0:
324,168,157202,1,0,0:0:0:0:
444,328,157345,1,0,0:0:0:0:
348,276,157488,1,8,0:0:0:0:
56,280,157631,6,0,B|92:248|144:232|144:232|200:232|252:244,1,200
64,152,158059,2,0,B|112:132|160:124,1,100,8|0,0:0|0:0,0:0:0:0:
324,168,158345,1,0,0:0:0:0:
288,152,158416,1,0,0:0:0:0:
268,116,158488,1,0,0:0:0:0:
272,76,158559,1,0,0:0:0:0:
300,48,158631,1,8,0:0:0:0:
448,152,158774,6,0,B|460:104|460:52,1,100,4|0,0:0|0:0,0:0:0:0:
396,244,159059,1,0,0:0:0:0:
396,244,159202,2,0,B|404:296|424:340,1,100,8|0,0:0|0:0,0:0:0:0:
276,308,159488,2,0,B|212:300|212:300|144:284|76:292,1,200,0|8,0:0|0:0,0:0:0:0:
244,180,159916,1,0,0:0:0:0:
164,52,160059,2,0,B|152:100|128:148,1,100
52,64,160345,1,8,0:0:0:0:
272,40,160488,1,0,0:0:0:0:
472,156,160631,5,0,0:0:0:0:
432,164,160702,1,0,0:0:0:0:
396,148,160774,1,0,0:0:0:0:
356,152,160845,1,0,0:0:0:0:
320,140,160916,1,8,0:0:0:0:
384,276,161059,6,0,B|332:284|284:296,1,100,4|0,0:0|0:0,0:0:0:0:
176,192,161345,2,0,B|124:184|76:172,1,100,0|8,0:0|0:0,0:0:0:0:
52,64,161631,1,0,0:0:0:0:
364,52,161774,2,0,B|268:72|164:72,1,200,0|8,0:0|0:0,0:0:0:0:
72,332,162202,2,0,B|124:324|172:312,1,100
276,204,162488,1,0,0:0:0:0:
472,244,162631,2,0,B|464:296|452:344,1,100,8|0,0:0|0:0,0:0:0:0:
352,296,162916,5,0,0:0:0:0:
392,100,163059,1,0,0:0:0:0:
300,40,163202,1,8,0:0:0:0:
188,140,163345,5,0,0:0:0:0:
188,140,163416,1,0,0:0:0:0:
188,140,163488,2,0,B|136:132|88:120,1,100,4|0,0:0|0:0,0:0:0:0:
28,28,163774,1,8,0:0:0:0:
64,224,163916,2,0,B|56:276|44:324,1,100
192,288,164202,1,0,0:0:0:0:
328,224,164345,2,0,B|336:276|348:324,1,100,8|0,0:0|0:0,0:0:0:0:
436,256,164631,5,0,0:0:0:0:
384,64,164774,1,0,0:0:0:0:
456,148,164916,1,8,0:0:0:0:
288,120,165059,6,0,B|224:136|224:136|160:160|88:160,1,200,4|0,0:0|0:0,0:0:0:0:
120,52,165488,1,8,0:0:0:0:
392,332,165631,1,0,0:0:0:0:
392,332,165702,1,0,0:0:0:0:
392,332,165774,1,4,0:0:0:0:
256,192,165845,12,0,167059,0:0:0:0:
108,152,167202,6,0,B|116:204|128:252,1,100,8|0,0:0|0:0,0:0:0:0:
256,328,167487,1,0,0:0:0:0:
332,248,167630,2,0,B|384:240|432:228,2,100,0|8|0,0:0|0:0|0:0,0:0:0:0:
256,116,168059,5,0,0:0:0:0:
256,116,168202,1,0,0:0:0:0:
456,132,168345,1,8,0:0:0:0:
456,132,168487,1,0,0:0:0:0:
360,60,168630,1,0,0:0:0:0:
32,124,168773,1,0,0:0:0:0:
144,56,168916,1,8,0:0:0:0:
148,164,169059,6,0,B|136:232|136:232|120:292|80:352,1,200
4,272,169487,2,0,B|56:268|104:268,1,100,8|0,0:0|0:0,0:0:0:0:
212,292,169773,1,0,0:0:0:0:
316,328,169916,1,0,0:0:0:0:
424,308,170059,1,8,0:0:0:0:
336,128,170202,6,0,B|388:124|436:112,1,100
312,24,170488,1,0,0:0:0:0:
232,100,170631,2,0,B|228:152|216:200,1,100,8|0,0:0|0:0,0:0:0:0:
116,312,170916,5,0,0:0:0:0:
136,52,171059,1,0,0:0:0:0:
396,72,171202,1,8,0:0:0:0:
376,332,171345,1,0,0:0:0:0:
292,208,171488,6,0,B|340:200|392:200,2,100,0|0|8,0:0|0:0|0:0,0:0:0:0:
116,312,171916,2,0,B|108:264|108:212,1,100
192,140,172202,1,0,0:0:0:0:
88,104,172345,1,8,0:0:0:0:
288,88,172488,1,0,0:0:0:0:
428,40,172631,5,0,0:0:0:0:
416,76,172702,1,0,0:0:0:0:
412,116,172773,1,0,0:0:0:0:
412,156,172845,1,0,0:0:0:0:
420,196,172916,2,0,B|472:220,3,50,8|0|0|0,0:0|0:0|0:0|0:0,0:0:0:0:
432,312,173202,5,0,0:0:0:0:
432,312,173274,1,0,0:0:0:0:
432,312,173345,1,0,0:0:0:0:
284,180,173487,1,8,0:0:0:0:
240,332,173630,2,0,L|288:308,1,50
140,340,173774,5,0,0:0:0:0:
128,300,173845,1,0,0:0:0:0:
116,260,173917,1,0,0:0:0:0:
104,220,173988,1,0,0:0:0:0:
96,180,174059,2,0,B|100:132,3,50,8|0|0|0,0:0|0:0|0:0|0:0,0:0:0:0:
12,80,174345,5,0,0:0:0:0:
40,52,174416,1,0,0:0:0:0:
76,40,174488,1,0,0:0:0:0:
116,36,174559,1,0,0:0:0:0:
156,44,174631,1,8,0:0:0:0:
336,132,174774,6,0,B|388:128|440:116,1,100
368,28,175059,1,0,0:0:0:0:
448,212,175202,2,0,B|444:264|432:316,1,100,8|0,0:0|0:0,0:0:0:0:
324,332,175488,5,0,0:0:0:0:
336,132,175631,1,0,0:0:0:0:
232,168,175774,1,8,0:0:0:0:
180,308,175916,6,0,B|128:312|76:312,1,100
32,116,176202,1,0,0:0:0:0:
128,60,176345,2,0,B|180:56|232:56,1,100,8|0,0:0|0:0,0:0:0:0:
232,168,176631,5,0,0:0:0:0:
88,212,176774,1,0,0:0:0:0:
376,124,176916,1,8,0:0:0:0:
472,240,177059,6,0,B|445:234|399:237|373:231,1,100
432,336,177345,1,0,0:0:0:0:
220,336,177487,2,0,B|247:330|293:333|319:327,2,100,8|0|0,0:0|0:0|0:0,0:0:0:0:
112,312,177916,1,0,0:0:0:0:
44,124,178059,1,8,0:0:0:0:
136,184,178202,6,0,B|172:152|224:136|224:136|280:136|332:148,1,200
376,244,178631,1,8,0:0:0:0:
268,264,178774,2,0,B|236:228|220:176|220:176|220:120|232:68,2,200
376,244,179487,5,0,0:0:0:0:
444,156,179630,2,0,B|396:144|344:136,1,100,0|8,0:0|0:0,0:0:0:0:
416,48,179916,1,0,0:0:0:0:
308,32,180059,2,0,B|260:44|208:52,1,100
100,64,180345,1,8,0:0:0:0:
144,164,180487,2,0,B|132:232|132:232|116:292|76:352,1,200
240,232,180916,2,0,B|228:284|208:332,1,100,8|0,0:0|0:0,0:0:0:0:
320,340,181202,5,0,0:0:0:0:
336,304,181273,1,0,0:0:0:0:
352,268,181345,1,0,0:0:0:0:
364,228,181416,1,0,0:0:0:0:
372,188,181487,1,8,0:0:0:0:
376,148,181559,1,0,0:0:0:0:
372,108,181630,1,0,0:0:0:0:
360,68,181702,1,0,0:0:0:0:
324,56,181773,6,0,B|272:52|224:72,2,100,4|0|0,0:0|0:0|0:0,0:0:0:0:
136,128,182202,2,0,B|84:132|36:112,2,100,4|0|0,0:0|0:0|0:0,0:0:0:0:
64,260,182630,1,4,0:0:0:0:
144,336,182773,2,0,B|171:330|217:333|243:327,1,100
444,312,183059,1,4,0:0:0:0:
464,204,183202,2,0,B|437:198|391:201|365:195,1,100,0|0,0:0|0:0,0:0:0:0:
48,180,183487,2,0,B|75:174|121:177|147:171,1,100,4|0,0:0|0:0,0:0:0:0:
256,36,183773,5,0,0:0:0:0:
256,36,183845,1,0,0:0:0:0:
256,36,183916,1,4,0:0:0:0:
256,192,184059,12,0,185059,0:0:0:0:
