osu file format v14

[General]
AudioFilename: Marble Bright.mp3
AudioLeadIn: 0
PreviewTime: 147202
Countdown: 0
SampleSet: Normal
StackLeniency: 0.7
Mode: 0
LetterboxInBreaks: 1
WidescreenStoryboard: 1

[Editor]
Bookmarks: 28916,59345
DistanceSpacing: 1.1
BeatDivisor: 4
GridSize: 4
TimelineZoom: 1

[Metadata]
Title:Marble Bright
TitleUnicode:Marble Bright
Artist:Hatsune Miku
ArtistUnicode:初音ミク
Creator:Lalarun
Version:Hard
Source:Tom
Tags:vocaloid
BeatmapID:794313
BeatmapSetID:40902

[Difficulty]
HPDrainRate:5
CircleSize:4
OverallDifficulty:6
ApproachRate:8
SliderMultiplier:1.8
SliderTickRate:1

[Events]
//Background and Video events
0,0,"bg.jpg",0,0
//Break Periods
2,24116,28166
2,39544,54237
//Storyboard Layer 0 (Background)
//Storyboard Layer 1 (Fail)
//Storyboard Layer 2 (Pass)
//Storyboard Layer 3 (Foreground)
//Storyboard Sound Samples

[TimingPoints]
8345,285.714285714286,4,1,1,70,1,0
55702,-100,4,1,1,5,0,0
55916,-100,4,1,1,70,0,1
75630,-100,4,1,1,5,0,0
92845,-100,4,1,1,70,0,0
121416,-100,4,1,1,5,0,0
128845,-100,4,1,1,70,0,0
138130,-133.333333333333,4,2,1,70,0,0
146130,-100,4,2,1,70,0,0
147345,-100,4,1,1,75,0,1
167059,-100,4,1,1,5,0,0
167202,-100,4,1,1,70,0,1
185059,-100,4,1,1,5,0,0

[Colours]
Combo1 : 255,255,255
Combo2 : 87,174,0
Combo3 : 0,73,147
Combo4 : 145,0,0

[HitObjects]
52,168,9202,6,0,P|136:156|176:148,1,90
240,64,9487,2,0,L|196:36,2,45
240,164,9773,1,0,0:0:0:0:
176,240,9916,1,0,0:0:0:0:
80,264,10059,1,0,0:0:0:0:
148,336,10202,6,0,P|268:318|326:307,1,180
436,164,10630,2,0,P|380:200|336:228,1,90
240,164,10916,1,0,0:0:0:0:
324,108,11059,1,0,0:0:0:0:
408,56,11202,1,0,0:0:0:0:
236,68,11344,6,0,P|115:50|57:39,1,180
240,164,11773,2,0,P|156:152|116:144,1,90
72,264,12059,2,0,P|156:252|196:244,1,90
324,108,12344,1,0,0:0:0:0:
412,156,12487,6,0,P|394:276|383:334,1,180
284,328,12916,2,0,L|304:228,1,90
324,108,13202,1,0,0:0:0:0:
240,164,13345,1,0,0:0:0:0:
152,116,13487,1,0,0:0:0:0:
68,60,13630,6,0,L|12:80,2,45
68,160,13916,2,0,P|56:244|48:284,1,90
152,116,14202,1,0,0:0:0:0:
240,164,14345,2,0,P|324:152|364:144,1,90
440,72,14630,1,0,0:0:0:0:
428,172,14773,6,0,P|446:292|457:350,1,180
340,248,15202,2,0,P|328:332|320:372,1,90
252,204,15487,2,0,P|168:216|128:224,2,90
428,172,15916,1,0,0:0:0:0:
440,72,16059,6,0,P|356:60|316:52,1,90
264,104,16345,2,0,P|144:86|86:75,1,180
84,176,16773,2,0,P|96:260|104:300,2,90
252,204,17202,6,0,L|236:252,2,45
440,72,17487,6,0,L|456:120,2,45
396,252,17773,6,0,L|400:296,2,45
348,144,18059,5,0,0:0:0:0:
256,104,18202,2,0,P|172:92|132:84,1,90
40,40,18487,2,0,P|52:124|60:164,1,90
132,188,18773,1,0,0:0:0:0:
28,272,18916,2,0,P|148:290|206:301,1,180
344,344,19345,5,0,0:0:0:0:
344,344,19416,1,0,0:0:0:0:
344,344,19487,2,0,P|428:332|468:324,1,90
476,192,19773,2,0,P|392:180|352:172,1,90
304,60,20059,2,0,P|388:48|428:40,2,90
256,192,20487,6,0,P|136:174|78:163,1,180
44,68,20916,2,0,P|128:56|168:48,1,90
168,280,21202,2,0,P|84:292|44:300,2,90
256,192,21630,6,0,P|376:210|434:221,1,180
468,316,22059,2,0,P|384:328|344:336,1,90
344,104,22345,2,0,P|428:92|468:84,2,90
244,92,22773,6,0,P|226:212|215:270,1,180
148,100,23202,1,0,0:0:0:0:
44,36,23345,2,0,P|62:156|73:214,2,180
256,160,28916,6,0,P|238:280|227:338,2,180
184,68,29630,2,0,P|304:50|362:39,1,180
444,124,30059,2,0,P|360:136|320:144,1,90
344,236,30345,2,0,P|356:320|364:360,1,90
476,316,30630,2,0,P|464:232|456:192,1,90
444,124,30916,1,0,0:0:0:0:
184,68,31202,6,0,P|172:152|164:192,1,90
72,156,31487,2,0,P|90:276|101:334,1,180
188,284,31916,2,0,P|272:296|312:304,1,90
280,196,32202,2,0,P|380:181|428:172,1,135
448,140,32487,2,0,P|364:128|324:120,1,90
420,48,32773,1,0,0:0:0:0:
188,284,33059,1,0,0:0:0:0:
40,68,33345,5,0,0:0:0:0:
40,68,33487,2,0,P|160:50|218:39,1,180
176,148,33916,2,0,P|92:160|52:168,1,90
270,111,34202,2,0,P|390:129|448:140,2,180
176,148,34916,1,0,0:0:0:0:
312,316,35202,5,0,0:0:0:0:
216,344,35345,2,0,P|96:326|38:315,2,180
232,244,36059,2,0,P|316:232|356:224,2,90
132,248,36487,5,0,0:0:0:0:
200,68,36773,1,0,0:0:0:0:
380,136,37059,1,0,0:0:0:0:
312,316,37345,1,0,0:0:0:0:
132,248,37487,2,0,P|48:260|8:268,1,90
312,316,37916,5,0,0:0:0:0:
252,236,38059,2,0,P|372:218|430:207,2,180
216,144,38773,2,0,P|96:126|38:115,1,180
100,36,39202,2,0,P|184:24|224:16,1,90
256,192,54987,12,0,55773,0:0:0:0:
304,160,55916,6,0,L|504:124,1,180
384,152,56345,2,0,L|296:236,1,90
228,252,56630,2,0,L|148:68,1,180
92,164,57059,2,0,L|180:344,1,180
268,320,57487,1,0,0:0:0:0:
364,304,57630,1,0,0:0:0:0:
356,204,57773,1,0,0:0:0:0:
288,132,57916,2,0,L|240:72,2,45
188,120,58202,6,0,L|188:312,1,180
96,264,58630,2,0,L|72:160,1,90
120,88,58916,2,0,L|312:60,1,180
388,108,59345,2,0,L|352:300,1,180
268,236,59773,1,0,0:0:0:0:
176,196,59916,1,0,0:0:0:0:
80,220,60059,1,0,0:0:0:0:
80,220,60130,1,0,0:0:0:0:
80,220,60202,1,0,0:0:0:0:
144,296,60345,1,0,0:0:0:0:
240,308,60487,6,0,L|448:256,1,180
344,192,60916,2,0,L|408:128,1,90
240,84,61202,2,0,L|48:120,1,180
100,208,61630,2,0,L|300:256,1,180
304,156,62059,2,0,L|384:56,2,90
212,120,62487,1,0,0:0:0:0:
212,120,62559,1,0,0:0:0:0:
212,120,62630,1,0,0:0:0:0:
168,208,62773,6,0,L|340:312,1,180
420,276,63202,2,0,L|452:184,1,90
388,116,63487,2,0,L|172:72,1,180
120,120,63916,2,0,L|112:332,1,180
212,300,64345,1,0,0:0:0:0:
308,320,64487,1,0,0:0:0:0:
292,224,64630,1,0,0:0:0:0:
284,124,64773,1,0,0:0:0:0:
284,124,65059,6,0,L|468:76,1,180
360,60,65487,2,0,L|152:52,1,180
100,112,65916,1,0,0:0:0:0:
100,112,66059,1,0,0:0:0:0:
140,204,66202,2,0,L|348:280,1,180
408,248,66630,2,0,L|420:132,1,90
352,84,66916,1,0,0:0:0:0:
252,84,67059,2,0,L|212:44,2,45
284,176,67345,6,0,L|180:328,1,180
92,288,67773,2,0,L|72:172,1,90
76,100,68059,2,0,L|272:72,1,180
348,100,68487,2,0,L|268:264,1,180
188,320,68916,5,0,0:0:0:0:
116,252,69059,1,0,0:0:0:0:
84,160,69202,1,0,0:0:0:0:
88,156,69274,1,0,0:0:0:0:
88,156,69345,1,0,0:0:0:0:
260,72,69487,1,0,0:0:0:0:
348,116,69630,6,0,L|444:300,1,180
336,300,70059,2,0,L|284:216,1,90
204,168,70345,2,0,L|32:112,1,180
260,72,70773,2,0,L|440:60,1,180
504,136,71202,1,0,0:0:0:0:
504,136,71345,1,0,0:0:0:0:
436,208,71487,2,0,L|336:232,1,90
276,296,71773,1,0,0:0:0:0:
504,136,72059,5,0,0:0:0:0:
432,68,72202,1,0,0:0:0:0:
336,48,72345,1,0,0:0:0:0:
340,148,72487,2,0,L|256:328,1,180
172,272,72916,1,0,0:0:0:0:
124,184,73059,2,0,L|264:52,1,180
432,68,73487,1,0,0:0:0:0:
460,164,73630,2,0,L|328:296,1,180
236,316,74059,1,0,0:0:0:0:
144,280,74202,1,0,0:0:0:0:
144,280,74273,1,0,0:0:0:0:
144,280,74345,1,0,0:0:0:0:
256,192,74416,12,0,75773,0:0:0:0:
