osu file format v9

[General]
AudioFilename: Hatsune Miku - Lovely Day.mp3
AudioLeadIn: 0
PreviewTime: 32900
Countdown: 1
SampleSet: Soft
StackLeniency: 0.7
Mode: 0
LetterboxInBreaks: 1

[Editor]
Bookmarks: 10420,96429,190420
DistanceSpacing: 0.8
BeatDivisor: 2
GridSize: 8

[Metadata]
Title:Lovely Day
Artist:Hatsune Miku
Creator:SapphireGhost
Version:Relax
Source:Vocaloid
Tags:High Note

[Difficulty]
HPDrainRate:1
CircleSize:3
OverallDifficulty:1
ApproachRate:3
SliderMultiplier:1.5
SliderTickRate:2

[Events]
//Background and Video events
0,0,"hatsune_miku_maid_1024x768.jpg"
//Break Periods
2,96620,102980
2,176620,188980
//Storyboard Layer 0 (Background)
//Storyboard Layer 1 (Fail)
//Storyboard Layer 2 (Pass)
//Storyboard Layer 3 (Foreground)
//Storyboard Sound Samples
//Background Colour Transformations
3,100,163,162,255

[TimingPoints]
420,500,4,2,0,100,1,0
78150,-100,4,1,0,80,0,0
80650,-100,4,2,0,100,0,0
106920,-100,4,2,0,85,0,0
107420,-100,4,2,0,71,0,0
107920,-100,4,2,0,55,0,0
108420,-100,4,2,0,100,0,0
158170,-100,4,1,0,50,0,0
160670,-100,4,2,0,100,0,0
240420,-100,4,1,0,70,0,1
256420,-100,4,2,0,70,0,0

[Colours]
Combo1 : 190,104,223
Combo2 : 0,251,251
Combo3 : 252,220,177

[HitObjects]
72,216,10420,6,0,B|72:120|160:88,1,150,2|0
256,56,11420,1,0
368,96,11920,1,0
440,192,12420,6,0,B|440:288|352:320,1,150,2|0
256,352,13420,1,0
144,312,13920,1,0
256,264,14420,6,0,B|336:264,2,75,2|0|0
256,144,15420,2,0,B|176:144,2,75
376,144,16420,6,0,B|352:48|264:48,1,150,2|0
152,48,17420,1,0
32,48,17920,6,0,B|32:112|32:160,2,75,0|0|2
120,128,18920,1,0
216,200,19420,2,0,B|288:240|368:200,1,150
296,104,20420,5,2
176,112,20920,2,0,B|96:144|112:240,1,150
136,352,21920,1,0
256,328,22420,5,2
368,280,22920,1,0
256,232,23420,2,0,B|144:232,2,75
176,152,24420,5,2
256,64,24920,1,0
344,152,25420,1,0
256,232,25920,6,0,B|256:312,2,75,0|0|2
192,128,26920,1,0
312,128,27420,1,0
432,128,27920,6,0,B|432:48,2,75,0|0|2
376,232,28920,1,0
256,256,29420,1,0
136,232,29920,1,0
136,112,30420,6,0,B|192:48|272:64,1,150,2|0
384,112,31420,1,0
384,112,31670,1,0
384,112,31920,1,0
296,192,32420,1,6
176,192,32920,6,0,B|176:272,2,75
176,72,33920,1,0
176,72,34170,1,0
176,72,34420,1,2
288,104,34920,6,0,B|360:128|440:104,1,150
360,200,35920,2,0,B|288:176|208:200,1,150,0|2
96,200,36920,6,0,B|96:112,2,75
256,208,37920,1,0
256,208,38170,1,0
256,208,38420,1,2
360,152,38920,5,0
328,264,39420,2,0,B|256:304|176:264,1,150
152,152,40420,1,2
56,88,40920,6,0,B|112:40,2,75
56,208,41920,1,0
56,208,42170,1,0
56,208,42420,1,2
152,280,42920,6,0,B|216:232|344:232,1,150
408,272,43920,2,0,B|344:320|216:320,1,150,0|2
256,200,44920,5,0
136,200,45420,1,0
224,120,45920,1,0
104,120,46420,2,0,B|16:168|64:264,1,150,2|0
256,304,47420,6,0,B|176:304,2,75
376,304,48420,1,2
336,192,48920,6,0,B|432:192,2,75
216,192,49920,1,0
216,192,50170,1,0
216,192,50420,1,2
280,88,50920,6,0,B|208:48|136:88,1,150
136,207,51920,1,0
220,291,52420,1,0
312,208,52920,6,0,B|368:256,2,75
424,176,53920,1,0
424,176,54170,1,0
424,176,54420,1,2
328,104,54920,6,0,B|256:72|176:104,1,150
184,224,55920,2,0,B|256:256|336:224,1,150,0|2
408,136,56920,5,0
408,136,57170,1,0
408,136,57420,1,0
408,256,57920,2,0,B|408:336,2,75,0|0|2
320,336,58920,6,0,B|128:336,1,150
256,248,59920,1,0
256,248,60170,1,0
256,248,60420,1,2
152,192,60920,6,0,B|152:112|224:64,1,150
344,64,61920,1,0
344,64,62170,1,0
344,64,62420,1,2
376,184,62920,5,0
256,184,63420,1,0
136,184,63920,1,0
256,192,64420,12,0,67420
136,88,68420,5,2
376,88,69420,1,0
432,320,70420,5,2
312,320,70920,1,0
192,320,71420,1,0
72,320,71920,1,0
156,235,72420,6,0,B|172:155|260:107,1,150,2|0
256,224,73420,1,0
376,224,73920,1,0
376,104,74420,5,2
272,40,74920,2,0,B|64:40,1,150
120,160,75920,1,0
232,120,76420,6,0,B|304:192|232:288,1,150,2|0
360,192,77420,1,0
360,192,77670,1,0
360,192,77920,1,0
480,184,78420,6,2,B|472:24|256:0|40:24|32:192,1,600,2|6
152,192,80920,5,0
272,192,81420,1,0
392,192,81920,2,0,B|392:272,2,75,0|0|2
328,88,82920,5,0
208,88,83420,1,0
88,88,83920,2,0,B|88:8,2,75,0|0|2
136,200,84920,5,0
256,200,85420,1,0
376,200,85920,1,0
328,312,86420,6,0,B|240:312,2,75,2|0|0
256,216,87420,2,0,B|344:216,2,75
256,96,88420,5,2
136,96,88920,1,0
72,200,89420,2,0,B|72:352,1,150
184,312,90420,5,2
304,312,90920,1,0
368,208,91420,2,0,B|368:56,1,150
256,192,92420,12,4,96420
192,128,104420,5,2
312,128,104920,1,0
312,248,105420,1,0
192,248,105920,1,0
72,248,106420,6,0,B|88:336|192:352,3,150,2|0|0|0
256,192,108420,12,2,111920
160,128,112920,6,0,B|120:200|160:280,1,150,0|0
256,200,113920,1,0
256,200,114170,1,0
256,200,114420,1,2
224,312,114920,2,0,B|312:336|376:256,2,150,0|0|0
256,192,116420,1,2
256,88,116920,6,0,B|256:0,2,75
256,208,117920,1,0
256,208,118170,1,0
256,208,118420,1,2
152,152,118920,5,0
184,264,119420,2,0,B|256:304|336:264,1,150
360,152,120420,1,2
456,88,120920,6,0,B|400:40,2,75
456,208,121920,1,0
456,208,122170,1,0
456,208,122420,1,2
360,280,122920,6,0,B|296:232|168:232,1,150
104,272,123920,2,0,B|168:320|296:320,1,150,0|2
256,200,124920,5,0
376,200,125420,1,0
288,120,125920,1,0
408,120,126420,1,2
256,304,127420,6,0,B|336:304,2,75
136,304,128420,1,2
176,192,128920,6,0,B|80:192,2,75
296,192,129920,1,0
296,192,130170,1,0
296,192,130420,1,2
232,88,130920,6,0,B|304:48|376:88,1,150
392,208,131920,1,0
296,280,132420,1,2
200,208,132920,6,0,B|144:256,2,75
88,176,133920,1,0
88,176,134170,1,0
88,176,134420,1,2
184,104,134920,6,0,B|256:72|336:104,1,150
328,224,135920,2,0,B|256:256|176:224,1,150,0|2
104,136,136920,5,0
104,136,137170,1,0
104,136,137420,1,0
104,256,137920,6,0,B|104:336,2,75,0|0|2
192,336,138920,2,0,B|384:336,1,150
256,248,139920,1,0
256,248,140170,1,0
256,248,140420,1,2
360,192,140920,6,0,B|360:112|288:64,1,150
168,64,141920,1,0
168,64,142170,1,0
168,64,142420,1,2
168,184,142920,5,0
288,184,143420,2,0,B|368:184,2,75
256,192,144420,12,2,146420
256,88,147420,5,0
256,88,147670,1,0
256,88,147920,1,0
376,88,148420,5,2
136,88,149420,1,0
80,320,150420,5,2
200,320,150920,1,0
320,320,151420,1,0
440,320,151920,1,0
355,235,152420,6,0,B|339:155|251:107,1,150,2|0
256,224,153420,1,0
136,224,153920,1,0
136,104,154420,1,2
240,40,154920,6,0,B|448:40,1,150
392,160,155920,1,0
280,112,156420,6,0,B|208:184|280:280,1,150,2|0
152,192,157420,1,0
152,192,157670,1,0
152,192,157920,1,0
32,184,158420,6,2,B|40:24|256:0|472:24|480:192,1,600,2|6
360,192,160920,5,0
240,192,161420,1,0
120,192,161920,2,0,B|120:272,2,75,0|0|2
184,88,162920,5,0
304,88,163420,1,0
424,88,163920,2,0,B|424:8,2,75,0|0|2
376,200,164920,5,0
256,200,165420,1,0
136,200,165920,1,0
184,312,166420,6,0,B|272:312,2,75,2|0|0
256,216,167420,2,0,B|168:216,2,75
256,96,168420,5,2
376,96,168920,1,0
440,200,169420,2,0,B|440:352,1,150
328,312,170420,5,2
208,312,170920,1,0
144,208,171420,2,0,B|144:56,1,150
256,192,172420,12,4,176420
80,216,190420,5,2
80,216,190670,1,0
80,216,190920,1,0
152,120,191420,2,0,B|224:152|304:120,1,150
392,48,192420,6,0,B|392:216,2,150,2|0|0
304,128,193920,2,0,B|304:296,1,150,0|2
216,192,194920,5,0
216,192,195170,1,0
216,192,195420,1,0
144,96,195920,2,0,B|216:56|288:96,1,150,0|2
216,192,196920,6,0,B|144:232|72:192,1,150,0|0
80,312,197920,1,0
200,312,198420,1,2
320,312,198920,6,0,B|336:232|400:184,1,150
280,184,199920,2,0,B|200:184,2,75,0|0|2
256,64,200920,5,0
136,64,201420,1,0
120,184,201920,2,0,B|192:224|264:184,1,150,0|2
264,304,202920,6,0,B|192:264|120:304,1,150,0|0
88,192,203920,1,0
120,80,204420,1,2
240,80,204920,6,0,B|328:80,2,75
312,176,205920,2,0,B|224:176,2,75,0|0|2
256,280,206920,5,0
171,195,207420,1,0
255,110,207920,1,0
339,194,208420,1,2
456,224,208920,6,0,B|432:304|344:312,1,150
256,240,209920,1,0
256,240,210170,1,0
256,240,210420,1,2
192,136,210920,5,0
312,136,211420,1,0
416,192,211920,2,0,B|416:344,1,150,0|2
328,264,212920,6,0,B|256:288|168:264,1,150
256,176,213920,2,0,B|256:96,2,75,0|0|2
376,192,214920,6,0,B|344:256|236:280,1,150
136,192,215920,2,0,B|168:256|276:280,1,150,0|2
256,152,216920,5,0
256,32,217420,1,0
344,120,217920,1,0
344,120,218170,1,0
344,120,218420,1,2
440,192,218920,6,0,B|440:288|336:288,1,150
228,287,219920,2,0,B|144:288,2,75,0|0|2
304,192,220920,5,0
256,80,221420,1,0
208,192,221920,1,0
208,192,222170,1,0
208,192,222420,1,2
183,309,222920,6,0,B|255:333|335:309,2,150
256,216,224420,6,0,B|256:64,1,150,2|0
136,96,225420,1,0
136,216,225920,2,0,B|136:296,2,75,0|0|2
256,240,226920,6,0,B|336:256|408:240,1,150
336,144,227920,1,0
336,144,228170,1,0
336,144,228420,1,2
256,56,228920,6,0,B|144:168,1,150
272,152,229920,2,0,B|336:88,2,75,0|0|2
272,272,230920,6,0,B|120:272,1,150
136,152,231920,1,0
136,152,232170,1,0
136,152,232420,1,2
220,236,232920,6,0,B|292:220|332:140,1,150
408,232,233920,2,0,B|408:80,1,150,0|2
288,80,234920,6,0,B|216:104|128:80,2,150
256,192,236420,1,2
208,304,236920,5,0
160,192,237420,1,0
208,80,237920,1,0
208,80,238170,1,0
208,80,238420,1,2
256,192,238920,6,0,B|408:192,1,150
408,312,239920,2,0,B|256:312,1,150,0|2
256,72,241420,5,8
256,192,241920,1,0
256,192,242170,1,0
256,192,242420,1,2
328,288,242920,6,0,B|256:312|176:288,1,150,0|8
104,192,243920,1,0
104,192,244170,1,0
104,192,244420,1,2
184,104,244920,6,0,B|256:128|336:104,1,150,0|8
331,225,245920,2,0,B|259:201|179:225,1,150,0|2
256,320,246920,5,0
376,296,247420,1,8
432,192,247920,1,0
376,88,248420,1,2
256,56,248920,6,0,B|256:208,1,150,0|8
135,206,249920,2,0,B|135:294,2,75,0|0|2
192,104,250920,6,0,B|224:56|279:52|320:104,2,150,0|8|0
256,208,252420,6,0,B|96:208,1,150,2|0
192,296,253420,2,0,B|352:296,1,150,8|0
256,192,254420,12,4,256420
