osu file format v9

[General]
AudioFilename: Hatsune Miku - Lovely Day.mp3
AudioLeadIn: 0
PreviewTime: 32915
Countdown: 1
SampleSet: Soft
StackLeniency: 0.7
Mode: 0
LetterboxInBreaks: 1

[Editor]
Bookmarks: 10429,96429,104429,176429,190429,240429,256429
DistanceSpacing: 1
BeatDivisor: 4
GridSize: 8

[Metadata]
Title:Lovely Day
Artist:Hatsune Miku
Creator:SapphireGhost
Version:Groove
Source:Vocaloid
Tags:High Note

[Difficulty]
HPDrainRate:7
CircleSize:4
OverallDifficulty:7
ApproachRate:7
SliderMultiplier:2
SliderTickRate:2

[Events]
//Background and Video events
0,0,"hatsune_miku_maid_1024x768.jpg"
//Break Periods
2,96620,103520
2,176620,189520
//Storyboard Layer 0 (Background)
//Storyboard Layer 1 (Fail)
//Storyboard Layer 2 (Pass)
//Storyboard Layer 3 (Foreground)
//Storyboard Sound Samples
//Background Colour Transformations
3,100,0,255,255

[TimingPoints]
420,500,4,2,0,80,1,0
108415,-100,4,2,0,80,0,0
108920,-100,4,2,0,66,0,0
109420,-100,4,2,0,55,0,0
109920,-100,4,2,0,46,0,0
110415,-100,4,2,0,80,0,0
130915,-100,4,2,0,80,0,0
131915,-100,4,2,0,80,0,0
208540,-133.333333333333,4,2,0,80,0,0
216290,-100,4,2,0,80,0,0
240290,-100,4,1,0,70,0,1
256429,-100,4,2,0,80,0,0

[Colours]
Combo1 : 190,104,223
Combo2 : 0,251,251
Combo3 : 252,220,177

[HitObjects]
80,40,10420,1,2
256,136,10920,1,0
432,40,11420,1,2
304,192,11920,1,0
208,192,12170,1,0
208,192,12295,1,0
208,192,12420,1,2
376,88,12920,6,0,B|416:192|376:288,1,200,0|2
280,280,13670,1,0
176,280,13920,1,0
176,280,14045,1,0
176,280,14170,1,0
80,280,14420,5,2
80,232,14545,1,0
80,184,14670,1,0
176,184,14920,1,0
176,88,15170,1,0
272,88,15420,5,2
272,136,15545,1,0
272,184,15670,1,0
368,184,15920,1,0
368,280,16170,1,0
272,280,16420,6,0,B|72:280,1,200,2|0
72,80,17420,1,2
144,152,17670,1,0
216,80,17920,1,0
288,152,18170,1,0
360,80,18420,1,2
360,280,18920,5,0
160,280,19420,2,0,B|32:280|32:136,1,200,2|0
136,160,20170,1,0
240,160,20420,1,2
400,280,20920,1,0
296,112,21420,5,2
296,112,21545,1,0
296,112,21670,1,0
200,112,21920,2,0,B|96:112,2,100,0|0|2
400,112,22920,1,0
400,312,23420,5,2
352,312,23545,1,0
304,312,23670,1,0
256,312,23795,1,0
208,312,23920,1,0
208,112,24420,6,0,B|296:184|400:112,1,200,2|0
368,216,25170,1,0
320,216,25295,1,0
272,216,25420,1,2
320,304,25670,1,0
224,304,25920,1,0
272,112,26420,6,0,B|272:8,2,100,2|0|0
200,48,27170,1,0
200,144,27420,1,2
200,192,27545,1,0
200,240,27670,1,0
200,288,27795,1,0
200,336,27920,1,0
392,288,28420,6,0,B|440:192|384:96,1,200,2|0
344,192,29170,1,0
304,288,29420,1,2
280,240,29545,1,0
264,192,29670,1,0
280,144,29795,1,0
304,96,29920,1,0
208,96,30170,5,0
112,96,30420,2,0,B|160:192|104:296,1,200,2|0
56,200,31170,1,0
16,288,31420,1,2
16,288,31545,1,0
16,288,31670,1,0
104,336,31920,1,0
256,200,32420,5,6
400,64,32920,5,0
400,64,33045,1,0
400,64,33170,1,0
304,64,33420,2,0,B|200:64,1,100,2|0
200,160,33920,1,0
296,160,34170,1,0
392,160,34420,2,0,B|448:296|288:264,1,200,2|0
216,208,35170,5,0
136,144,35420,2,0,B|0:88|32:248,1,200,2|0
64,336,36170,2,2,B|184:336,1,100,0|2
264,336,36670,1,0
264,240,36920,5,0
264,240,37045,1,0
264,240,37170,1,0
264,144,37420,2,0,B|264:40,1,100,2|0
360,80,37920,2,0,B|360:200,1,100
360,280,38420,6,0,B|320:336|248:336,1,100,2|0
184,304,38920,1,0
184,208,39170,1,0
232,208,39295,1,0
280,208,39420,1,2
344,128,39670,2,0,B|416:216,2,100
272,56,40420,5,2
176,56,40670,1,0
176,104,40795,1,0
176,152,40920,1,0
224,152,41045,1,0
272,152,41170,1,0
368,152,41420,6,0,B|368:48|368:48|376:48|376:48,2,100,2|0|0
456,104,42170,1,0
432,200,42420,1,2
392,232,42545,1,0
352,264,42670,1,0
264,312,42920,2,0,B|216:336|160:320,1,100
216,232,43420,2,0,B|160:240|112:224|88:176|80:144|80:112,1,200,2|0
184,120,44170,1,0
256,192,44420,12,0,45920
256,64,46420,5,2
216,96,46545,1,0
176,128,46670,1,0
176,224,46920,1,0
256,168,47170,1,0
328,104,47420,2,0,B|400:48|440:48,2,100,2|0|0
416,160,48170,5,0
416,256,48420,1,2
320,256,48670,1,0
224,256,48920,2,2,B|224:304|280:344,2,100,0|2|2
272,168,49670,1,0
176,168,49920,5,0
144,208,50045,1,0
144,256,50170,1,0
56,208,50420,2,0,B|64:152|128:112,1,100,2|0
200,80,50920,1,0
200,80,51045,1,0
200,80,51170,1,0
304,80,51420,6,0,B|448:80,1,100,2|0
472,152,51920,1,0
472,200,52045,1,0
472,248,52170,1,0
472,296,52295,1,0
472,344,52420,1,2
384,296,52670,5,0
296,248,52920,1,0
296,248,53045,1,0
296,248,53170,1,0
384,208,53420,2,0,B|352:152|280:160,1,100,2|0
384,104,53920,5,0
336,88,54045,1,0
288,80,54170,1,0
240,88,54295,1,0
192,104,54420,1,2
192,200,54670,5,0
192,304,54920,1,0
288,304,55170,2,2,B|304:192,1,100,0|2
400,208,55670,2,0,B|384:320,1,100
472,256,56170,1,0
472,160,56420,1,2
296,64,56920,5,0
296,64,57045,1,0
296,64,57170,1,0
296,64,57295,1,0
296,64,57420,1,2
232,144,57670,1,0
336,144,57920,1,0
280,224,58170,1,0
224,304,58420,1,2
272,304,58545,1,0
320,304,58670,1,0
376,224,58920,6,0,B|440:216|424:144,1,100
368,72,59420,1,2
320,96,59545,1,0
272,120,59670,1,0
224,96,59795,1,0
176,72,59920,1,0
176,168,60170,5,0
80,168,60420,1,2
176,344,60920,1,0
232,264,61170,1,0
288,344,61420,1,2
312,304,61545,1,0
336,264,61670,1,0
336,168,61920,6,0,B|336:56,1,100
256,128,62420,1,2
256,128,62545,1,0
256,128,62670,1,0
256,128,62795,1,0
256,128,62920,1,0
200,48,63170,1,0
144,128,63420,1,2
200,208,63670,5,0
248,208,63795,1,0
296,208,63920,1,0
344,208,64045,1,0
392,208,64170,1,0
256,192,64420,12,2,66420
224,56,66920,5,0
224,256,67420,1,2
272,256,67545,1,0
320,256,67670,1,0
368,256,67795,1,0
416,256,67920,1,0
368,168,68170,5,0
464,168,68420,2,0,B|448:80|360:80,1,150,2|0
360,79,68920,1,0
272,120,69170,1,0
272,24,69420,1,2
184,80,69670,1,0
184,176,69920,5,0
184,176,70045,1,0
184,176,70170,1,0
256,240,70420,2,0,B|352:272|464:240,1,200,2|0
256,160,71420,2,0,B|160:128|48:160,1,200,2|0
256,256,72420,1,2
448,192,72920,5,0
448,192,73045,1,0
448,192,73170,1,0
448,192,73295,1,0
448,192,73420,1,2
448,96,73670,2,0,B|368:96|368:168,2,100
360,48,74420,1,2
160,48,74920,1,0
264,216,75420,5,2
264,216,75545,1,0
264,216,75670,1,0
264,112,75920,1,0
360,112,76170,1,0
360,160,76295,1,0
360,208,76420,1,2
360,304,76670,2,0,B|424:280|448:248,2,100
264,304,77420,1,2
216,304,77545,1,0
168,304,77670,1,0
216,216,77920,5,0
216,216,78045,1,0
216,216,78170,1,0
216,216,78295,1,0
216,216,78420,1,2
256,192,78670,12,0,79920
120,112,80420,5,2
88,208,80670,1,0
184,176,80920,1,0
160,272,81170,1,0
160,272,81295,1,0
160,272,81420,1,2
256,272,81670,2,0,B|360:272,1,100
456,272,82170,5,0
488,176,82420,1,2
392,208,82670,1,0
416,112,82920,1,0
416,112,83045,1,0
416,112,83170,1,0
320,112,83420,2,2,B|216:112,1,100
120,112,83920,5,0
80,200,84170,1,0
128,216,84295,1,0
176,232,84420,2,0,B|344:256|128:320|320:368,1,200,2|0
336,272,85170,1,0
288,184,85420,1,2
336,96,85670,5,0
424,144,85920,1,0
456,184,86045,1,0
464,232,86170,1,0
456,280,86295,1,0
432,328,86420,2,0,B|264:304|480:240|288:192,1,200,2|0
288,112,87170,1,0
192,112,87420,1,2
144,120,87545,1,0
104,144,87670,1,0
72,240,87920,1,0
168,240,88170,5,0
232,320,88420,1,2
264,288,88545,1,0
280,240,88670,1,0
280,144,88920,1,0
368,192,89170,2,2,B|416:144|376:72,1,100,0|2
472,40,89670,1,0
376,24,89920,1,0
296,56,90170,5,0
296,56,90295,1,0
296,56,90420,1,2
256,144,90670,1,0
296,232,90920,1,0
200,224,91170,1,0
240,312,91420,5,2
288,312,91545,1,0
336,312,91670,1,0
384,312,91795,1,0
432,312,91920,1,0
416,216,92170,1,0
400,120,92420,2,0,B|328:136|360:264|264:256,2,200,2|0|2
440,88,93545,1,0
480,64,93670,1,0
384,40,93920,1,0
288,64,94170,1,0
256,192,94420,12,4,96420
168,64,104420,5,2
128,152,104670,1,0
160,248,104920,1,0
344,64,105420,1,2
384,152,105670,1,0
352,248,105920,1,0
256,72,106420,2,0,B|256:304,3,200,2|0|2|0
192,80,108420,6,0,B|128:104|112:160,2,66.6666666666667
192,144,108920,2,0,B|216:208|272:224,2,66.6666666666667
256,128,109420,2,0,B|320:104|336:48,2,66.6666666666667
256,64,109920,2,0,B|232:0|176:-16,2,66.6666666666667
256,192,110420,12,2,112420
88,80,112920,5,0
88,80,113045,1,0
88,80,113170,1,0
40,168,113420,2,0,B|88:200|136:168,1,100,2|0
216,112,113920,1,0
296,56,114170,2,0,B|344:24|392:56,1,100,0|2
256,200,114920,5,0
408,72,115420,1,2
400,120,115545,1,0
392,168,115670,1,0
344,256,115920,1,0
296,168,116170,1,0
248,80,116420,6,0,B|192:80|160:120,1,100,2|0
104,200,116920,1,0
104,200,117045,1,0
104,200,117170,1,0
104,200,117295,1,0
104,200,117420,1,2
200,200,117670,5,0
248,288,117920,1,0
296,200,118170,1,0
248,112,118420,1,2
248,112,118545,1,0
248,112,118670,1,0
344,112,118920,1,0
440,112,119170,1,0
400,200,119420,5,2
400,200,119545,1,0
400,200,119670,1,0
400,200,119795,1,0
400,200,119920,1,0
304,224,120170,1,0
208,200,120420,1,2
232,104,120670,5,0
136,144,120920,1,0
96,168,121045,1,0
56,192,121170,1,0
96,280,121420,1,2
192,256,121670,1,0
280,304,121920,1,0
304,208,122170,1,0
296,112,122420,2,0,B|456:112|384:256,1,200,2|0
328,48,123420,5,2
232,48,123670,1,0
280,136,123920,1,0
280,136,124045,1,0
280,136,124170,1,0
256,192,124420,12,0,125920
256,192,126420,12,2,128420
400,64,128920,5,0
400,64,129045,1,0
400,64,129170,1,0
448,152,129420,1,2
352,152,129670,1,0
400,240,129920,2,0,B|352:264|304:240,1,100
208,200,130420,5,2
408,168,130920,1,0
208,128,131420,1,2
408,96,131920,1,0
208,56,132420,1,2
304,232,132920,5,0
256,232,133045,1,0
208,232,133170,1,0
184,136,133420,2,0,B|112:136|80:184,2,100,2|0|0
280,136,134170,1,0
376,136,134420,2,0,B|464:168|464:304,1,200,2|0
264,328,135420,5,2
264,280,135545,1,0
264,232,135670,1,0
176,280,135920,2,0,B|176:176,1,100
104,248,136420,1,2
176,64,136920,5,0
176,64,137045,1,0
176,64,137170,1,0
80,88,137420,2,0,B|80:144|144:168,1,100,2|0
232,168,137920,1,0
280,168,138045,1,0
328,168,138170,1,0
280,256,138420,5,2
280,256,138545,1,0
280,256,138670,1,0
280,256,138795,1,0
280,256,138920,1,0
192,304,139170,6,2,B|160:336|80:336,1,100,0|2
136,240,139670,2,0,B|168:208|248:208,1,100,0|0
328,208,140170,1,0
376,208,140295,1,0
424,208,140420,1,2
400,112,140670,5,0
304,144,140920,1,0
328,48,141170,1,0
232,80,141420,1,2
232,80,141545,1,0
232,80,141670,1,0
224,176,141920,6,0,B|224:248|304:248,1,100
376,264,142420,1,2
336,296,142545,1,0
296,328,142670,1,0
280,232,142920,1,0
320,200,143045,1,0
360,168,143170,1,0
432,96,143420,5,2
392,64,143545,1,0
352,32,143670,1,0
312,64,143795,1,0
272,96,143920,2,0,B|200:168,1,100
256,192,144420,12,2,146420
304,256,146920,1,0
256,256,147045,1,0
208,256,147170,1,0
256,168,147420,2,0,B|368:168,2,100,2|0|0
160,168,148170,1,0
64,168,148420,5,2
88,128,148545,1,0
120,88,148670,1,0
216,64,148920,2,0,B|264:104|312:64,1,100
312,168,149420,2,0,B|264:208|216:168,1,100,2|0
224,272,149920,1,0
320,272,150170,1,0
416,272,150420,6,0,B|464:216|472:216|384:168|376:168|416:96,1,200,2|0
304,272,151420,1,2
256,272,151545,1,0
208,272,151670,1,0
160,272,151795,1,0
112,272,151920,1,0
136,72,152420,6,0,B|160:192|200:192|224:40,1,200,2|0
272,72,153045,1,0
320,72,153170,1,0
368,72,153295,1,0
416,72,153420,1,2
352,152,153670,5,0
432,216,153920,1,0
352,288,154170,1,0
280,216,154420,1,2
280,216,154545,1,0
280,216,154670,1,0
248,120,154920,6,0,B|184:120|184:200,1,100
184,280,155420,1,2
184,280,155545,1,0
184,280,155670,1,0
88,264,155920,1,0
152,192,156170,5,0
248,208,156420,1,2
256,112,156670,1,0
256,112,156795,1,0
256,112,156920,1,0
280,16,157170,1,0
344,72,157420,2,0,B|344:176,1,100,2|0
416,248,157920,2,0,B|416:144,1,100,2|0
256,192,158420,12,2,160420
96,64,160920,5,0
296,64,161420,1,2
344,64,161545,1,0
392,64,161670,1,0
392,160,161920,1,0
336,240,162170,1,0
288,152,162420,2,0,B|240:248|288:368,1,200,2|0
80,336,163420,5,2
56,296,163545,1,0
48,248,163670,1,0
56,200,163795,1,0
80,160,163920,1,0
128,248,164170,5,0
192,328,164420,2,0,B|240:232|176:128,1,200,2|0
152,96,165045,1,0
120,56,165170,1,0
216,56,165420,1,2
264,56,165545,1,0
312,56,165670,1,0
408,56,165920,5,0
336,128,166170,1,0
432,128,166420,2,0,B|472:272|312:248,1,200,2|0
152,336,167420,1,2
128,288,167545,1,0
104,240,167670,1,0
136,144,167920,1,0
200,216,168170,5,0
208,120,168420,1,2
208,120,168545,1,0
208,120,168670,1,0
272,192,168920,1,0
280,96,169170,1,0
376,96,169420,1,2
376,192,169670,6,0,B|368:288|344:312,1,100
256,312,170170,1,0
160,288,170420,1,2
160,288,170545,1,0
160,288,170670,1,0
64,248,170920,6,0,B|96:192|176:208,1,100
200,216,171295,1,0
248,232,171420,1,2
256,136,171670,1,0
352,136,171920,1,0
344,232,172170,1,0
416,296,172420,5,2
416,296,172545,1,0
416,296,172670,1,0
320,296,172920,1,0
320,296,173045,1,0
320,296,173170,1,0
224,296,173420,5,2
224,296,173545,1,0
224,296,173670,1,0
128,296,173920,1,0
128,296,174045,1,0
128,296,174170,1,0
256,192,174420,12,4,176420
384,48,190420,5,2
336,136,190670,1,0
432,136,190920,1,0
128,48,191420,1,2
152,88,191545,1,0
176,136,191670,1,0
80,136,191920,1,0
104,232,192170,1,0
152,320,192420,6,0,B|256:344|376:320,1,200,2|0
440,280,193170,1,0
440,280,193295,1,0
440,280,193420,1,2
424,184,193670,2,0,B|376:208|360:256,2,100
400,88,194420,2,0,B|288:128|248:248,1,200,2|0
256,320,195170,5,0
208,320,195295,1,0
160,320,195420,1,2
64,320,195670,1,0
64,320,195795,1,0
64,320,195920,1,0
64,320,196045,1,0
64,320,196170,1,0
128,240,196420,6,0,B|336:240,1,200,2|0
376,152,197170,2,0,B|240:152,1,100,0|2
176,152,197670,1,0
128,152,197795,1,0
80,152,197920,1,0
80,48,198170,1,0
176,48,198420,6,0,B|400:48,1,200,2|0
424,136,199170,1,0
376,136,199295,1,0
328,136,199420,1,2
256,208,199670,1,0
304,208,199795,1,0
352,208,199920,1,0
400,208,200045,1,0
448,208,200170,1,0
384,288,200420,6,0,B|296:336|192:288,1,200,2|0
112,232,201170,1,0
112,232,201295,1,0
112,232,201420,1,2
64,144,201670,1,0
64,144,201795,1,0
64,144,201920,1,0
112,56,202170,1,0
256,192,202420,12,2,204420
256,64,204920,5,0
64,192,205420,5,2
112,192,205545,1,0
160,192,205670,1,0
208,192,205795,1,0
256,192,205920,1,0
304,192,206045,1,0
352,192,206170,1,0
400,192,206295,1,0
448,192,206420,1,2
256,320,206920,5,0
248,120,207420,2,2,B|248:128|248:128|264:128|264:128|248:136|248:136|264:136|264:136|248:144|248:144|264:144|264:144|248:152|248:152|264:152|264:152|248:160|248:160|264:160|264:160|248:168|248:168|264:168|264:168|248:176|248:176|264:176|264:176|248:184|248:184|264:184|264:184|248:192|248:192|264:192|264:192|248:200|248:200|264:200|264:200|248:208|248:208|264:208|264:208|248:216|248:216|264:216|264:216|248:224|248:224|264:224|264:224,1,400
320,264,208670,5,0
368,320,208920,2,0,B|400:296|392:240,1,74.9999977648259
352,192,209420,2,0,B|376:168|416:168|440:192,2,74.9999977648259,2|0|0
280,200,210170,1,0
240,264,210420,2,0,B|200:240|200:152|240:128,1,149.999995529652
312,128,211170,1,0
384,128,211420,2,0,B|400:72|336:56,1,74.9999977648259,2|0
288,40,211920,5,0
248,104,212170,1,0
200,48,212420,2,0,B|168:80|176:128,1,74.9999977648259,2|0
120,168,212920,2,0,B|152:200|200:192,1,74.9999977648259,0|0
264,184,213420,1,2
328,152,213670,1,0
320,224,213920,1,0
384,192,214170,1,0
384,264,214420,2,2,B|336:320|256:328|168:320|104:264,1,299.999991059304
80,88,216420,6,0,B|208:88|208:88|216:120|200:200|160:272|128:296|96:296|80:272|64:240|56:192|96:152|168:176|168:176|176:176|216:192|256:208|312:280,1,700,2|0
208,304,218420,2,0,B|272:216|296:120,2,200,2|0|2
440,304,219920,2,0,B|360:184|360:184|448:48,1,300,2|0
256,192,220920,12,4,222420
64,64,222920,5,0
160,64,223170,1,0
256,64,223420,1,0
304,80,223545,1,0
344,112,223670,1,0
368,160,223795,1,0
360,208,223920,1,0
288,280,224170,5,0
216,216,224420,1,0
56,96,224920,5,0
56,96,225045,1,0
56,96,225170,1,0
56,192,225420,2,0,B|128:192|128:128,1,100,2|0
136,40,225920,2,0,B|208:40|208:104,1,100
256,184,226420,5,2
256,232,226545,1,0
256,280,226670,1,0
344,232,226920,1,0
376,136,227170,1,0
424,224,227420,1,2
456,128,227670,1,0
384,64,227920,6,0,B|240:96,1,100
192,104,228420,1,2
192,104,228545,1,0
192,104,228670,1,0
104,56,228920,2,0,B|64:112|120:184,1,100
176,208,229420,1,2
176,304,229670,1,0
272,304,229920,5,0
272,208,230170,1,0
224,120,230420,1,2
224,120,230545,1,0
224,120,230670,1,0
128,80,230920,6,0,B|224:8|320:80,1,200,0|2
384,144,231670,1,0
288,144,231920,2,0,B|304:224|368:248,1,100
416,296,232420,1,2
416,296,232545,1,0
416,296,232670,1,0
320,328,232920,2,0,B|264:288|208:328,1,100
144,256,233420,1,2
200,176,233670,2,0,B|256:216|312:176,1,100
376,128,234170,1,0
424,40,234420,6,0,B|480:136|424:280,1,200,2|0
400,328,235170,1,0
304,328,235420,1,2
208,328,235670,1,0
112,328,235920,1,0
160,240,236170,1,0
112,152,236420,5,2
160,152,236545,1,0
208,152,236670,1,0
256,240,236920,1,0
304,152,237170,2,0,B|408:152,2,100,0|2|0
360,232,237920,1,0
456,232,238170,1,0
408,320,238420,5,2
304,320,238670,1,0
304,320,238795,1,0
304,320,238920,1,0
256,232,239170,1,0
256,136,239420,2,0,B|256:32,2,100,2|0|0
352,32,240420,6,4,B|400:104|328:152,1,100,2|0
288,192,240920,1,8
200,232,241170,1,0
200,232,241295,1,0
200,232,241420,1,2
112,184,241670,6,8,B|104:248|144:312,2,100,0|8|0
160,96,242420,1,2
208,80,242545,1,0
256,72,242670,1,0
304,80,242795,1,0
352,96,242920,1,8
352,192,243170,5,0
352,288,243420,1,2
304,304,243545,1,0
256,312,243670,1,0
208,304,243795,1,0
160,288,243920,1,8
216,208,244170,5,0
160,128,244420,2,0,B|216:88|288:144,1,100,2|0
320,200,244920,1,8
368,184,245045,1,0
416,168,245170,1,0
424,264,245420,2,0,B|320:304,1,100,2|0
232,328,245920,5,8
200,288,246045,1,0
168,248,246170,1,0
104,168,246420,1,2
184,112,246670,1,0
248,184,246920,1,8
264,88,247170,1,0
328,160,247420,1,2
344,64,247670,1,0
408,136,247920,5,8
408,136,248045,1,0
408,136,248170,1,0
408,136,248295,1,0
408,136,248420,1,2
464,216,248670,5,0
368,240,248920,1,8
320,248,249045,1,0
272,256,249170,1,0
176,272,249420,1,2
176,272,249545,1,0
176,272,249670,1,0
120,192,249920,6,0,B|224:168,1,100,8|0
256,80,250420,1,2
256,80,250545,1,0
256,80,250670,1,0
304,168,250920,2,0,B|408:192,1,100,8|0
352,280,251420,5,2
352,280,251545,1,0
352,280,251670,1,0
256,280,251920,1,8
160,280,252170,1,0
208,192,252420,5,2
208,96,252670,1,0
304,96,252920,1,8
304,96,253045,1,0
304,96,253170,1,0
400,96,253420,5,2
400,192,253670,1,0
304,192,253920,1,8
304,192,254045,1,0
304,192,254170,1,0
256,192,254420,12,4,256420
