osu file format v9

[General]
AudioFilename: Love-colored Ward.mp3
AudioLeadIn: 0
PreviewTime: 37721
Countdown: 0
SampleSet: Soft
StackLeniency: 0.7
Mode: 1
LetterboxInBreaks: 0

[Editor]
DistanceSpacing: 0.85
BeatDivisor: 4
GridSize: 8

[Metadata]
Title:Love-colored Ward
Artist:Hatsune Miku
Creator:Krisom
Version:lepidon! - Taiko Oni
Source:OSTER Project
Tags:Vocaloid Project Diva 2nd Garven Koiiro Byouto lepidopodus

[Difficulty]
HPDrainRate:4
CircleSize:5
OverallDifficulty:5
ApproachRate:5
SliderMultiplier:1.4
SliderTickRate:2

[Events]
//Background and Video events
0,0,"BGtaiko.png"
//Break Periods
//Storyboard Layer 0 (Background)
//Storyboard Layer 1 (Fail)
//Storyboard Layer 2 (Pass)
//Storyboard Layer 3 (Foreground)
//Storyboard Sound Samples
//Background Colour Transformations
3,100,163,162,255

[TimingPoints]
2750,342.857142857143,4,2,1,85,1,0
38407,-100,4,2,1,85,0,1
60350,-100,4,2,1,85,0,0
139892,-100,4,2,1,85,0,1
161835,-100,4,2,1,85,0,0
184635,-50,4,2,1,85,0,0
186350,-100,4,2,1,85,0,0

[Colours]
Combo1 : 251,125,251
Combo2 : 33,221,23
Combo3 : 240,5,5
Combo4 : 5,117,239
Combo5 : 248,230,7
SliderBorder : 233,233,233

[HitObjects]
192,136,2749,1,0
192,136,2921,1,0
192,136,3007,1,0
192,136,3092,1,8
152,184,3264,1,8
96,208,3435,1,0
48,248,3607,1,0
96,208,3778,1,8
152,216,3949,1,0
208,248,4121,1,0
264,280,4292,1,0
288,296,4378,1,0
312,312,4464,1,8
352,264,4635,1,0
384,216,4807,1,8
400,192,4892,1,8
416,168,4978,1,0
440,144,5064,1,0
440,144,5150,1,8
440,144,5235,1,8
440,144,5321,1,0
384,144,5492,1,0
328,144,5664,1,0
296,144,5750,1,0
240,144,5835,1,8
192,176,6007,1,0
144,208,6178,1,8
192,240,6350,1,0
248,264,6521,1,0
272,272,6607,1,0
296,280,6692,1,0
320,296,6778,1,8
344,304,6864,1,8
304,264,7035,1,0
264,216,7207,1,8
288,160,7378,1,0
304,136,7464,1,0
320,112,7550,1,8
360,152,7721,1,0
416,176,7892,1,8
440,192,7978,1,8
448,168,8064,1,0
456,144,8150,1,0
432,128,8235,5,0
144,216,10635,1,8
144,216,10721,1,8
144,216,10807,1,8
144,216,10892,1,8
176,216,10978,5,0
232,208,11150,1,0
264,200,11235,1,0
296,200,11321,1,8
248,176,11492,1,8
192,152,11664,1,0
144,112,11835,1,0
192,152,12007,1,8
144,112,12178,1,0
176,104,12264,1,0
208,96,12350,1,0
176,144,12521,1,0
160,168,12607,1,0
144,192,12692,1,8
120,248,12864,1,8
240,240,13207,1,8
272,240,13292,1,8
304,232,13378,1,0
360,232,13550,1,8
384,176,13721,1,8
408,120,13892,1,0
432,72,14064,1,8
320,104,14407,1,8
288,112,14492,1,8
256,120,14578,1,0
224,128,14664,1,0
192,136,14750,1,8
96,208,15092,1,8
56,256,15264,1,0
72,232,15350,1,0
72,232,15435,1,0
72,232,15607,1,8
128,248,15778,1,8
192,264,15950,1,0
256,280,16121,1,0
232,168,16464,5,0
200,56,16807,1,8
216,112,16978,1,0
216,112,17064,1,0
216,112,17150,1,0
256,152,17321,1,0
296,192,17492,1,8
256,144,17664,1,0
216,192,17835,1,0
176,240,18007,1,8
136,288,18178,1,0
136,288,18264,1,0
136,288,18350,1,8
112,168,18692,1,8
104,136,18778,1,8
104,104,18864,1,0
104,104,19035,1,8
160,112,19207,1,8
216,120,19378,1,0
272,128,19550,1,8
336,232,19892,1,8
320,208,19978,1,8
320,208,20064,1,0
320,208,20235,1,8
272,96,20578,1,8
296,152,20750,1,0
296,152,20835,1,0
296,152,20921,1,0
296,152,21092,1,8
344,184,21264,1,8
368,200,21350,1,8
400,208,21435,1,0
400,208,21521,1,0
400,208,21607,1,8
400,208,21692,1,8
400,208,21778,1,0
176,216,21950,5,0
232,208,22122,1,0
264,200,22207,1,0
296,200,22293,1,8
248,176,22464,1,8
192,152,22636,1,0
144,112,22807,1,0
192,152,22979,1,8
144,112,23150,1,0
176,104,23236,1,0
208,96,23322,1,0
176,144,23493,1,0
160,168,23579,1,0
144,192,23664,1,8
120,248,23836,1,8
240,240,24179,1,8
272,240,24264,1,8
304,232,24350,1,0
360,232,24522,1,8
384,176,24693,1,8
408,120,24864,1,0
432,72,25036,1,8
320,104,25379,1,8
288,112,25464,1,8
256,120,25550,1,0
224,128,25636,1,0
192,136,25722,1,8
96,208,26064,1,8
56,256,26236,1,0
72,232,26322,1,0
72,232,26407,1,0
72,232,26579,1,8
128,248,26750,1,8
120,216,26836,1,8
192,264,26922,1,0
168,240,27007,1,0
256,280,27093,1,0
256,224,27264,1,8
208,184,27435,5,0
208,128,27607,1,8
208,72,27778,1,0
208,72,27950,1,8
264,96,28121,1,0
320,120,28292,1,8
344,136,28378,1,8
368,144,28464,1,0
424,168,28635,1,8
368,176,28807,1,0
312,184,28978,1,8
256,192,29150,1,0
200,200,29321,1,8
144,208,29492,1,0
200,232,29664,1,8
200,232,29750,1,8
200,232,29835,1,8
200,232,30007,1,8
248,200,30178,1,0
296,160,30350,1,8
296,160,30521,1,0
344,192,30692,1,8
368,208,30778,1,8
368,208,30864,1,0
368,208,31035,1,8
368,208,31207,1,0
336,208,31292,1,0
304,208,31378,1,8
304,152,31550,1,4
304,96,31721,1,4
360,96,31892,1,12
416,96,32064,1,12
296,112,32407,1,0
264,112,32492,1,8
232,120,32578,1,8
176,128,32750,1,0
152,184,32921,5,0
208,200,33092,1,8
264,216,33264,1,0
320,232,33435,1,8
376,240,33607,1,0
432,256,33778,1,8
432,256,33864,1,8
432,256,33950,1,0
432,256,34121,1,8
384,216,34292,1,4
336,184,34464,1,12
280,160,34635,1,12
224,136,34807,1,4
112,160,35150,1,8
80,168,35235,1,8
80,168,35321,1,0
80,200,35407,1,0
80,232,35492,1,8
200,256,35835,1,8
232,264,35921,1,8
264,272,36007,1,0
296,280,36092,1,0
328,288,36178,1,0
368,176,36521,1,0
360,208,36607,1,0
344,232,36692,1,8
344,232,36778,1,8
344,232,36864,1,0
360,176,37035,1,4
360,176,37207,1,4
360,176,37550,1,12
304,280,37892,1,8
320,256,37978,1,8
320,256,38064,1,8
320,256,38150,1,8
320,256,38235,1,0
264,232,38407,5,0
208,208,38578,1,8
152,184,38750,1,0
104,152,38921,1,8
72,144,39007,1,8
104,152,39092,1,0
48,136,39264,1,8
104,136,39435,1,0
160,136,39607,1,8
192,136,39692,1,8
224,136,39778,1,8
208,192,39950,1,0
264,216,40121,1,8
288,224,40207,1,8
312,240,40292,1,0
312,240,40378,1,0
312,240,40464,1,0
256,264,40635,1,0
200,288,40807,1,8
144,304,40978,1,0
120,312,41064,1,0
96,328,41150,1,0
112,272,41321,1,0
120,216,41492,1,8
128,184,41578,1,8
136,152,41664,1,0
192,128,41835,1,0
240,96,42007,1,0
264,80,42092,1,8
296,72,42178,1,8
296,72,42350,1,0
264,120,42521,1,4
232,176,42692,1,4
128,232,43035,1,4
104,248,43378,1,0
104,248,43464,1,8
104,248,43550,1,8
130,260,43635,1,8
104,248,43721,1,0
80,192,43892,5,0
56,136,44064,1,8
56,136,44235,1,0
112,120,44407,1,8
144,112,44492,1,8
176,104,44578,1,0
232,96,44750,1,8
264,88,44835,1,8
296,80,44921,1,0
296,80,45092,1,0
288,139,45264,1,0
280,197,45435,1,8
272,256,45607,1,0
265,314,45778,1,8
268,284,45864,1,8
268,284,45950,1,0
327,280,46121,1,8
356,278,46207,1,8
385,276,46292,1,0
414,276,46378,1,0
414,276,46464,1,8
363,244,46635,1,0
312,212,46807,1,8
261,180,46978,1,0
235,163,47064,1,0
209,147,47150,1,8
218,205,47321,1,0
272,228,47492,1,8
299,239,47578,1,8
326,250,47664,1,0
379,275,47835,1,8
363,244,48007,1,4
363,244,48178,1,4
247,216,48521,1,4
365,223,48864,1,8
335,221,48950,1,8
335,221,49035,1,8
335,221,49121,1,8
335,221,49207,1,0
264,232,49378,5,0
208,208,49549,1,8
152,184,49721,1,0
104,152,49892,1,8
72,144,49978,1,8
104,152,50063,1,0
48,136,50235,1,8
104,136,50406,1,0
160,136,50578,1,8
192,136,50663,1,8
224,136,50749,1,8
208,192,50921,1,0
264,216,51092,1,8
288,224,51178,1,8
312,240,51263,1,0
312,240,51349,1,0
312,240,51435,1,0
256,264,51606,1,0
228,252,51692,1,0
200,288,51778,1,8
144,304,51949,1,0
120,312,52035,1,0
96,328,52121,1,0
112,272,52292,1,0
120,216,52463,1,8
128,184,52549,1,8
136,152,52635,1,0
192,128,52806,1,0
240,96,52978,1,0
264,80,53063,1,8
296,72,53149,1,8
296,72,53321,1,0
264,120,53492,1,4
232,176,53663,1,4
128,232,54006,1,4
104,248,54349,1,0
104,248,54435,1,8
104,248,54521,1,8
130,260,54606,1,8
104,248,54692,1,0
80,192,54863,5,0
56,136,55035,1,8
56,136,55206,1,0
112,120,55378,1,8
144,112,55463,1,8
176,104,55549,1,0
232,96,55721,1,8
264,88,55806,1,8
296,80,55892,1,0
296,80,56063,1,0
275,101,56150,1,0
288,139,56235,1,0
280,197,56406,1,8
272,256,56578,1,0
265,314,56749,1,8
268,284,56835,1,8
268,284,56921,1,0
327,280,57092,1,8
356,278,57178,1,8
385,276,57263,1,0
414,276,57349,1,0
414,276,57435,1,8
363,244,57606,1,0
312,212,57778,1,8
261,180,57949,1,0
235,163,58035,1,0
209,147,58121,1,8
218,205,58292,1,0
272,228,58463,1,8
299,239,58549,1,8
326,250,58635,1,0
379,275,58806,1,8
363,244,58978,1,4
363,244,59149,1,4
247,216,59492,1,4
192,232,59664,1,0
160,240,59750,1,0
207,171,59835,1,0
207,171,59921,1,0
207,171,60007,1,8
207,171,60092,1,8
207,171,60178,1,8
160,136,60350,5,0
88,169,60692,1,4
49,56,61035,1,8
68,111,61207,1,0
93,96,61292,1,0
68,111,61378,1,8
68,111,61550,1,0
183,139,61892,1,0
240,153,62064,1,8
266,206,62235,1,0
279,232,62321,1,0
292,258,62407,1,0
348,241,62578,1,8
376,233,62664,1,8
376,233,62750,1,0
376,233,62835,1,0
376,233,62921,1,0
318,217,63092,1,0
260,200,63264,1,0
202,184,63435,1,8
144,168,63607,1,0
172,176,63692,1,0
172,176,63778,1,0
172,176,63950,1,8
227,195,64121,1,0
282,215,64292,1,8
389,266,64635,1,0
334,240,64807,1,8
334,240,64978,1,0
306,186,65150,1,0
292,159,65235,1,0
278,132,65321,1,0
265,104,65407,1,0
265,104,65492,1,8
265,104,65578,1,8
265,104,65664,1,8
286,159,65835,5,8
297,186,65921,1,8
308,213,66007,1,0
329,267,66178,1,4
224,209,66521,1,8
172,180,66692,1,0
119,151,66864,1,8
178,156,67035,1,12
296,167,67378,1,4
414,179,67721,1,12
297,202,68064,1,0
267,208,68150,1,0
238,214,68235,1,8
208,220,68321,1,8
178,226,68407,1,0
79,158,68750,1,8
103,174,68835,1,8
127,191,68921,1,0
127,191,69007,1,0
127,191,69092,1,8
127,191,69435,1,8
127,191,69521,1,8
127,191,69607,1,0
127,191,69692,1,0
127,191,69778,1,0
224,122,70121,1,0
272,88,70292,1,8
223,122,70464,1,0
248,105,70550,1,0
248,105,70635,1,0
276,157,70807,1,0
304,209,70978,1,8
332,261,71150,1,0
346,286,71235,1,0
360,312,71321,5,0
362,371,71492,1,0
360,311,71664,1,8
362,370,71835,1,0
249,332,72178,1,0
192,313,72350,1,8
192,313,72521,1,0
192,313,72607,1,0
192,313,72692,1,0
247,289,72864,1,0
301,266,73035,1,0
356,244,73207,1,0
301,266,73378,1,0
328,255,73464,1,0
328,255,73550,1,0
328,255,73721,1,0
328,255,73807,1,0
328,255,73892,1,0
387,259,74064,1,0
327,255,74235,1,0
386,259,74407,1,8
326,255,74578,1,0
268,237,74750,1,0
239,228,74835,1,0
210,219,74921,1,0
153,202,75092,1,8
124,193,75178,1,8
95,184,75264,1,8
150,204,75435,1,0
205,224,75607,1,8
260,244,75778,1,0
315,265,75950,1,8
374,265,76121,1,8
374,265,76207,1,8
374,265,76292,1,0
374,265,76378,1,0
374,265,76464,1,0
256,192,76635,12,0,80750
164,148,80921,5,0
115,256,81264,1,0
94,311,81435,1,0
173,248,81778,1,0
75,367,81950,1,8
94,311,82121,1,0
115,255,82292,1,0
229,221,82635,1,8
286,204,82807,1,8
286,204,83150,1,8
286,204,83321,1,0
286,204,83492,1,0
286,204,83664,1,8
282,144,83835,1,0
278,84,84007,1,8
235,125,84178,1,0
141,199,84521,1,0
48,273,84864,1,8
71,254,84950,1,8
94,236,85035,1,8
152,249,85207,1,8
209,262,85378,1,0
267,275,85550,1,0
231,227,85721,1,0
194,179,85892,1,8
34,97,86407,5,0
139,151,86750,1,0
86,123,86921,1,0
63,112,87264,1,0
63,112,87435,1,8
63,112,87607,1,0
63,112,87778,1,0
176,146,88121,1,8
232,163,88292,1,8
345,198,88635,1,8
287,180,88807,1,0
343,197,88978,1,0
288,222,89150,1,8
288,222,89321,1,0
288,222,89492,1,8
288,222,89664,1,0
169,233,90007,1,0
228,227,90178,1,8
228,227,90350,1,0
287,226,90521,1,0
346,226,90692,1,0
346,226,90864,1,8
346,226,91035,1,8
346,226,91378,1,8
346,226,91550,1,0
238,176,91892,5,0
129,126,92235,1,0
183,151,92407,1,0
75,100,92750,1,0
128,125,92921,1,8
181,150,93092,1,0
181,150,93264,1,0
282,212,93607,1,0
231,180,93778,1,8
341,224,94121,1,8
395,246,94292,1,0
339,223,94464,1,8
393,246,94635,1,0
336,265,94807,1,0
279,284,94978,1,8
335,266,95150,1,0
224,222,95492,1,0
113,178,95835,1,8
113,178,95921,1,8
113,178,96007,1,8
113,178,96178,1,8
113,178,96350,1,0
113,178,96521,1,0
113,178,96692,1,0
113,178,96864,1,8
72,351,97378,5,0
190,336,97721,1,0
248,329,97892,1,8
307,322,98064,1,0
366,316,98235,1,8
306,322,98407,1,0
365,316,98578,1,4
133,127,99435,1,8
148,152,99521,1,8
164,176,99607,1,8
164,176,99692,1,8
225,201,99778,1,8
272,160,99950,2,0,B|496:32|496:32|384:368|384:368|-8:288|-8:288|-48:24|-48:24|320:16|320:16|512:360,1,2030
102,179,105607,5,8
102,179,105950,1,0
249,181,106292,1,0
278,182,106464,1,0
128,272,106550,1,0
336,184,106635,1,8
280,206,106807,1,0
221,198,106978,1,8
191,194,107064,1,8
161,190,107150,1,0
102,183,107321,1,8
218,156,107664,1,0
218,156,107835,1,8
218,156,107921,1,8
218,156,108007,1,8
218,156,108178,1,8
258,199,108350,1,0
369,239,108692,1,8
424,260,108864,1,0
424,260,108950,1,0
424,260,109035,1,0
424,260,109207,1,8
424,260,109292,1,8
424,260,109378,1,0
424,260,109550,1,0
367,242,109721,1,0
253,207,110064,1,8
214,161,110235,1,0
194,138,110321,1,0
175,114,110407,1,8
76,230,110578,1,0
90,203,110664,1,8
104,176,110750,1,8
118,150,110835,1,8
132,123,110921,1,0
248,144,111264,5,0
296,176,111435,1,8
344,208,111607,1,0
288,232,111778,1,0
264,240,111864,1,0
240,248,111950,1,8
184,272,112121,1,0
128,296,112292,1,8
160,296,112378,1,8
192,296,112464,1,0
152,184,112807,1,8
128,128,112978,1,0
120,96,113064,1,0
120,96,113150,1,0
112,152,113321,1,0
112,184,113407,1,0
112,184,113492,1,8
112,184,113578,1,8
112,184,113664,1,0
168,200,113835,1,8
224,216,114007,1,0
280,224,114178,1,8
312,232,114264,1,8
344,240,114350,1,0
344,240,114521,1,0
344,240,114692,1,0
344,240,114778,1,8
344,240,114864,1,8
344,240,115035,1,0
288,232,115207,1,0
256,224,115292,1,0
224,216,115378,1,0
344,240,115550,1,8
344,240,115721,1,8
296,272,115892,1,0
272,288,115978,1,0
248,304,116064,1,0
248,304,116150,1,8
248,304,116235,1,8
248,304,116407,1,8
272,288,116492,1,0
296,272,116578,5,8
240,168,116921,1,8
184,176,117092,1,0
152,184,117178,1,0
120,192,117264,1,8
176,208,117435,1,0
147,199,117521,1,0
118,190,117607,1,8
60,174,117778,1,8
116,154,117950,1,0
172,134,118121,1,8
228,115,118292,1,0
256,105,118464,1,8
308,132,118635,1,0
334,146,118721,1,8
360,160,118807,1,8
385,174,118892,1,8
411,188,118978,1,8
353,203,119150,1,0
306,245,119321,1,0
280,260,119407,1,0
255,275,119492,1,0
204,307,119664,1,8
204,307,119835,1,0
233,307,119921,1,0
262,307,120007,1,0
291,308,120092,1,0
291,308,120178,1,0
261,256,120350,1,8
231,204,120521,1,0
288,190,120692,1,8
317,183,120778,1,8
375,170,120864,1,0
316,159,121035,1,8
286,153,121121,1,8
256,148,121207,1,0
198,132,121378,1,0
169,123,121464,1,0
140,115,121550,1,0
140,115,121635,1,0
140,115,121721,1,8
140,115,121807,1,8
140,115,121892,1,8
104,162,122064,5,0
206,221,122407,1,4
298,146,122750,1,8
344,109,122921,1,0
320,127,123007,1,0
320,127,123092,1,8
320,127,123264,1,8
294,180,123435,1,8
264,177,123521,1,8
269,234,123607,1,0
244,288,123778,1,8
269,233,123950,1,0
158,189,124292,1,8
130,177,124378,1,8
102,166,124464,1,0
74,155,124550,1,0
74,155,124635,1,0
133,154,124807,1,0
252,152,125150,1,4
133,146,125492,1,8
73,144,125664,1,0
102,145,125750,1,0
102,145,125835,1,8
102,145,126007,1,8
102,145,126178,1,8
102,145,126264,1,8
102,145,126350,1,0
102,145,126521,1,8
102,145,126692,1,0
216,178,127035,1,8
216,178,127121,1,8
216,178,127207,1,0
216,178,127292,1,0
216,178,127378,1,0
273,193,127550,5,8
301,200,127635,1,8
329,208,127721,1,0
329,208,127892,1,4
433,264,128235,1,8
406,250,128321,1,8
406,250,128407,1,0
406,250,128492,1,0
378,261,128578,1,8
321,240,128750,1,12
209,199,129092,1,4
97,157,129435,1,12
210,121,129778,1,0
181,130,129864,1,0
181,130,129950,1,8
181,130,130035,1,8
181,130,130121,1,0
181,130,130464,1,8
181,130,130550,1,8
181,130,130635,1,0
181,130,130721,1,0
181,130,130807,1,0
65,157,131150,1,0
93,150,131235,1,0
93,150,131321,1,8
93,150,131407,1,8
99,178,131492,1,8
199,242,131835,1,0
249,274,132007,1,0
298,305,132178,1,0
221,213,132521,1,8
201,190,132607,1,8
182,167,132692,1,0
162,144,132778,1,0
143,120,132864,1,8
261,133,133207,1,4
261,133,133378,1,4
248,160,133550,1,12
322,252,133892,1,0
340,275,133978,1,0
359,297,134064,1,0
377,320,134150,1,0
377,320,134235,1,8
377,320,134321,1,8
377,320,134407,5,8
329,284,134578,1,8
280,248,134750,1,8
328,356,135092,1,8
303,301,135264,1,8
280,246,135435,1,8
303,301,135607,1,8
332,185,135950,1,8
318,242,136121,1,8
333,184,136292,1,8
94,160,136464,1,8
214,172,136635,1,8
154,166,136807,1,8
94,160,136978,1,8
205,202,137321,1,8
232,212,137407,1,8
259,222,137492,1,8
259,222,137664,1,0
312,247,137835,1,8
338,259,137921,1,8
338,259,138007,1,0
338,259,138092,1,0
338,259,138178,1,0
312,256,138264,1,0
280,256,138350,1,0
304,136,138692,1,12
304,136,139035,1,4
304,136,139378,1,12
192,184,139721,1,12
128,184,140064,5,4
184,184,140235,1,12
112,120,140407,1,8
144,112,140492,1,8
176,104,140578,1,0
232,96,140750,1,8
264,88,140835,1,8
296,80,140921,1,0
296,80,141092,1,0
272,96,141178,1,0
288,139,141264,1,0
280,197,141435,1,8
272,256,141607,1,0
265,314,141778,1,8
268,284,141864,1,8
268,284,141950,1,0
327,280,142121,1,8
356,278,142207,1,8
385,276,142292,1,0
414,276,142378,1,0
414,276,142464,1,8
363,244,142635,1,0
312,212,142807,1,8
261,180,142978,1,0
235,163,143064,1,0
209,147,143150,1,8
218,205,143321,1,0
272,228,143492,1,8
299,239,143578,1,8
326,250,143664,1,0
379,275,143835,1,8
363,244,144007,1,4
363,244,144178,1,4
247,216,144521,1,4
365,223,144864,1,8
335,221,144950,1,8
335,221,145035,1,8
335,221,145121,1,8
335,221,145207,1,0
304,216,145292,1,0
264,232,145378,5,0
208,208,145549,1,8
152,184,145721,1,0
104,152,145892,1,8
72,144,145978,1,8
104,152,146063,1,0
48,136,146235,1,8
104,136,146406,1,0
160,136,146578,1,8
192,136,146663,1,8
224,136,146749,1,8
256,136,146835,1,8
208,192,146921,1,0
264,216,147092,1,8
288,224,147178,1,8
312,240,147263,1,0
312,240,147349,1,0
312,240,147435,1,0
256,264,147606,1,0
228,252,147692,1,0
200,288,147778,1,8
144,304,147949,1,0
120,312,148035,1,0
96,328,148121,1,0
112,272,148292,1,0
120,216,148463,1,8
128,184,148549,1,8
136,152,148635,1,0
192,128,148806,1,0
240,96,148978,1,0
264,80,149063,1,8
296,72,149149,1,8
312,96,149235,1,8
296,72,149321,1,0
264,120,149492,1,4
232,176,149663,1,4
128,232,150006,1,4
104,248,150349,1,0
104,248,150435,1,8
104,248,150521,1,8
130,260,150606,1,8
104,248,150692,1,0
96,216,150778,1,0
80,192,150863,5,0
56,136,151035,1,8
56,136,151206,1,0
112,120,151378,1,8
144,112,151463,1,8
176,104,151549,1,0
232,96,151721,1,8
264,88,151806,1,8
296,80,151892,1,0
296,80,152063,1,0
275,101,152150,1,0
288,139,152235,1,0
280,197,152406,1,8
272,256,152578,1,0
265,314,152749,1,8
268,284,152835,1,8
268,284,152921,1,0
327,280,153092,1,8
356,278,153178,1,8
385,276,153263,1,0
414,276,153349,1,0
414,276,153435,1,8
363,244,153606,1,0
312,212,153778,1,8
261,180,153949,1,0
235,163,154035,1,0
209,147,154121,1,8
240,144,154207,1,8
218,205,154292,1,0
272,228,154463,1,8
299,239,154549,1,8
326,250,154635,1,0
379,275,154806,1,8
363,244,154978,1,4
363,244,155149,1,4
247,216,155492,1,4
192,232,155664,1,0
160,240,155750,1,0
207,171,155835,1,0
207,171,155921,1,8
207,171,156007,1,8
264,192,156178,6,4,B|-16:16|-16:16|32:336|32:344|32:344|384:360|384:360|432:96|432:96|0:288,1,1750
480,280,161835,5,0
368,232,162178,1,12
312,208,162350,1,0
288,200,162435,1,0
264,192,162521,1,0
208,168,162692,1,8
208,168,162778,1,8
208,168,162864,1,0
208,168,163035,1,8
152,184,163207,1,0
120,192,163292,1,0
88,200,163378,1,0
88,200,163550,1,8
144,216,163721,1,0
176,224,163807,1,0
208,232,163892,1,8
240,184,164064,1,8
256,160,164150,1,8
256,160,164235,1,0
256,160,164321,1,0
256,160,164407,1,8
312,184,164578,1,8
424,224,164921,1,4
368,224,165092,1,0
336,224,165178,1,0
368,208,165264,1,8
424,224,165436,1,0
368,208,165607,1,8
400,216,165693,1,8
400,216,165778,1,8
376,200,165864,1,8
352,184,165950,1,0
296,200,166121,1,0
240,216,166292,1,8
208,224,166378,1,8
176,232,166464,1,8
152,176,166635,1,0
136,120,166807,1,8
136,120,166892,1,8
160,136,166978,1,8
184,152,167064,1,8
208,168,167150,1,0
305,235,167492,5,0
353,269,167664,1,12
294,276,167835,1,0
264,280,167921,1,0
234,284,168007,1,8
177,267,168178,1,0
262,168,168350,1,8
269,139,168435,1,8
175,292,168521,1,8
153,236,168692,1,0
132,180,168864,1,8
121,152,168950,1,8
121,152,169035,1,8
121,152,169207,1,0
121,152,169378,1,8
121,152,169464,1,8
121,152,169550,1,0
121,152,169721,1,0
121,152,169892,1,8
178,135,170064,1,0
215,181,170235,1,0
252,227,170407,1,8
270,249,170492,1,8
288,272,170578,1,0
307,294,170664,1,8
325,317,170750,1,0
270,294,170921,1,0
214,271,171092,1,8
186,259,171178,1,8
158,248,171264,1,0
176,191,171435,1,0
185,162,171521,1,0
194,133,171607,1,0
203,105,171692,1,0
213,76,171778,1,8
160,104,171950,1,0
108,133,172121,1,8
82,148,172207,1,8
56,163,172292,1,0
56,163,172378,1,0
56,163,172464,1,0
79,217,172635,1,0
96,240,172721,1,8
102,271,172807,5,0
199,202,173150,1,12
253,225,173321,1,0
307,249,173492,1,8
334,261,173578,1,8
334,261,173664,1,0
334,261,173750,1,0
334,261,173835,1,8
281,232,174007,1,0
255,218,174092,1,0
228,203,174178,1,0
185,245,174350,1,0
228,204,174521,1,8
250,183,174607,1,8
228,203,174692,1,0
284,183,174864,1,8
312,173,174950,1,8
339,163,175035,1,0
339,163,175121,1,0
339,163,175207,1,8
284,187,175378,1,0
229,211,175550,1,0
171,196,175721,1,0
226,217,175892,1,8
253,227,175978,1,8
280,237,176064,1,0
307,247,176150,1,0
334,258,176235,1,8
361,269,176321,1,8
388,279,176407,1,0
352,232,176578,1,0
336,208,176664,1,0
320,184,176750,1,8
280,224,176921,1,12
192,304,177264,1,12
144,264,177435,1,0
120,248,177521,1,0
96,224,177607,1,0
72,208,177692,1,0
72,208,177778,1,8
72,208,177864,1,8
72,208,177950,1,8
256,192,178121,12,0,184464
448,120,184807,6,4,B|56:120|56:120|144:352|144:352|368:256,1,840
