osu file format v9

[General]
AudioFilename: Love-colored Ward.mp3
AudioLeadIn: 0
PreviewTime: 37721
Countdown: 0
SampleSet: Soft
StackLeniency: 0.7
Mode: 0
LetterboxInBreaks: 0

[Editor]
DistanceSpacing: 1.3
BeatDivisor: 4
GridSize: 4

[Metadata]
Title:Love-colored Ward
Artist:Hatsune Miku
Creator:Krisom
Version:G-Hard
Source:OSTER Project
Tags:Vocaloid Project Diva 2nd Garven Koiiro Byouto lepidopodus

[Difficulty]
HPDrainRate:6
CircleSize:4
OverallDifficulty:5
ApproachRate:6
SliderMultiplier:1.5
SliderTickRate:2

[Events]
//Background and Video events
0,0,"BG.png"
//Break Periods
2,80921,90842
2,134435,137642
//Storyboard Layer 0 (Background)
//Storyboard Layer 1 (Fail)
//Storyboard Layer 2 (Pass)
//Storyboard Layer 3 (Foreground)
//Storyboard Sound Samples
//Background Colour Transformations
3,100,163,162,255

[TimingPoints]
2750,342.857142857143,4,2,1,80,1,0
16464,-125,4,2,1,80,0,0
21264,-100,4,2,1,80,0,0
38235,-100,4,2,1,80,0,1
69950,-100,4,2,1,51,0,1
71235,-100,4,2,1,60,0,1
72521,-100,4,2,1,70,0,1
74407,-100,4,2,1,80,0,1
79550,-100,4,2,1,80,0,0
91892,-125,4,2,1,80,0,0
99778,-100,4,2,1,80,0,0
139721,-100,4,2,1,80,0,1
156178,-140.845070422535,4,2,1,80,0,0
160464,-100,4,2,1,80,0,0
184464,-100,4,2,1,0,0,0
184807,-100,4,1,1,80,0,1
184892,-100,4,1,1,80,0,0

[Colours]
Combo1 : 251,125,251
Combo2 : 33,221,23
Combo3 : 240,5,5
Combo4 : 5,117,239
Combo5 : 248,230,7
SliderBorder : 202,202,202

[HitObjects]
60,140,10978,1,4
112,84,11150,2,0,B|160:28|236:56|240:120,1,150,2|0
248,168,11664,1,2
260,240,11835,1,0
272,316,12007,1,8
332,180,12350,2,0,B|332:256|332:256|380:312,1,150,2|8
452,336,12864,2,0,B|452:312|452:312|480:284|480:256|452:232|452:232|452:196,1,150,2|8
312,128,13550,1,0
240,136,13721,5,2
260,208,13892,1,0
332,196,14064,1,8
288,60,14407,1,2
364,48,14579,1,0
380,120,14750,1,8
424,264,15092,6,0,B|352:300|352:212|280:264,1,150,2|8
223,304,15607,1,0
176,252,15778,1,2
124,304,15950,1,10
72,356,16121,1,10
72,212,16464,6,0,B|72:92,1,120,4|2
72,92,16978,1,0
140,72,17150,2,0,B|196:28|252:72,1,120,8|2
250,70,17664,1,8
292,128,17835,21,2
360,156,18007,1,8
424,120,18178,1,2
468,60,18350,2,0,B|504:8,2,60,2|8|2
460,220,19035,5,8
420,280,19207,1,2
420,280,19378,1,0
420,280,19550,1,0
256,280,19892,1,10
256,280,20064,1,0
256,280,20235,1,0
92,280,20578,6,0,B|92:212,1,60,2|0
164,208,20921,2,0,B|164:140,1,60,2|0
416,68,21607,2,0,B|440:68,8,18.75,0|0|0|0|0|2|2|2|4
328,76,22121,5,0
252,84,22292,1,10
184,120,22464,1,2
128,164,22635,2,0,B|88:192|84:240,1,75
168,232,22978,2,0,B|136:268|152:304,1,75,10|0
220,284,23321,1,0
424,176,23664,1,8
424,104,23835,2,0,B|368:92|320:140|312:180,1,150,2|2
172,296,24521,21,0
112,256,24692,2,0,B|32:200|88:128,1,150,2|8
260,52,25378,2,0,B|240:104|288:144|260:204,1,150,2|8
404,320,26064,5,2
476,196,26407,1,8
452,128,26578,1,0
404,72,26750,2,0,B|372:52|328:60,2,75,2|0|8
380,140,27264,2,0,B|412:184|416:240|368:280,1,150,4|2
216,316,27950,5,2
52,244,28292,2,0,B|96:288|160:204|200:244,1,150,2|2
356,160,28978,1,2
192,84,29321,1,2
364,36,29664,2,0,B|404:16|448:16,2,75,2|8|2
232,160,30350,5,2
400,224,30692,1,2
248,320,31035,2,0,B|176:372|108:320,1,150,2|2
68,260,31550,1,0
44,188,31721,1,2
68,116,31892,1,2
124,64,32064,2,0,B|232:4|344:64,1,225,2|8
476,176,32921,22,0,B|496:260|444:324,1,150,4|8
408,204,33607,2,0,B|408:288|332:324,1,150,0|8
156,296,34292,1,0
128,228,34464,1,0
160,164,34635,1,10
160,164,34807,1,4
408,52,35321,5,8
408,52,35492,1,4
372,228,35835,1,0
372,228,36007,1,10
372,228,36178,1,4
216,316,36521,2,2,B|140:344|60:276|80:192,1,225,0|2
104,120,37207,1,2
264,36,37550,1,4
444,92,37892,5,8
476,156,38064,1,8
484,228,38235,2,0,B|472:308|400:344,1,150,4|0
324,360,38750,1,10
252,368,38921,2,0,B|216:376|172:376,2,75
280,300,39435,1,8
344,260,39607,2,0,B|392:192|376:112,1,150,2|0
312,80,40121,1,10
236,80,40292,1,0
208,152,40464,2,0,B|132:152,1,75,2|0
144,228,40807,2,0,B|68:228,1,75,10|2
8,364,41321,1,2
8,364,41492,1,8
228,324,42007,6,0,B|296:288|296:288|324:216,1,150,2|0
348,148,42521,1,8
348,148,42692,1,0
196,244,43035,1,2
256,76,43378,1,10
316,244,43721,1,2
372,192,43892,2,0,B|396:164|396:164|368:136|368:136|420:80,1,150,4|8
480,36,44407,21,0
508,104,44578,2,0,B|520:144|520:144|508:180,1,75,0|2
484,248,44921,1,10
416,308,45092,2,0,B|380:341|350:306|350:306|333:349|289:328,1,150,2|2
128,332,45778,6,0,B|172:332|200:304,1,75,0|2
268,252,46121,1,2
332,188,46292,1,8
364,104,46464,2,0,B|384:64|440:48|524:92|448:200,1,225,4|8
340,332,47321,5,2
192,304,47664,1,2
68,220,48007,1,2
68,220,48178,1,8
192,136,48521,1,10
324,68,48864,2,2,B|376:48|432:80|448:136,1,150,2|4
492,292,49550,1,2
492,292,49721,1,8
312,316,50064,6,0,B|352:380,2,75,0|2|8
268,236,50578,2,0,B|224:276|216:336|252:372,1,150,2|0
312,316,51092,2,0,B|352:248,1,75,8|0
388,184,51435,1,2
416,116,51607,1,0
388,48,51778,1,10
316,24,51950,2,0,B|228:4|176:76,1,150,2|2
384,292,52978,22,0,B|348:248|292:248|256:292,1,150,2|2
196,336,53492,1,0
196,336,53664,1,2
320,184,54007,1,2
440,344,54350,1,10
472,276,54521,1,0
496,204,54692,2,4,B|520:156|464:112|496:56,1,150,4|0
316,52,55378,6,0,B|232:52,2,75,0|2|2
392,52,55892,1,8
468,52,56064,2,0,B|524:76|524:144|468:164,1,150,4|8
272,164,56750,2,0,B|196:164,2,75,0|2|2
348,164,57264,1,8
424,164,57435,2,0,B|480:188|480:256|424:280,2,150,4|8|2
208,224,58464,6,0,B|136:260,2,75,0|2|2
256,192,58978,12,4,60178
256,192,60692,5,4
124,68,61035,21,2
76,128,61207,1,0
52,200,61378,2,0,B|36:236|40:280,1,75,8|0
340,284,62235,1,0
392,340,62407,1,0
444,284,62578,2,8,B|508:224|444:152,1,150
396,92,63092,1,4
348,152,63264,1,0
300,92,63435,1,8
256,268,63778,5,0
184,248,63950,2,0,B|116:236|60:160,1,150,2|4
192,40,64635,1,2
256,208,64978,1,2
320,40,65321,1,2
448,164,65664,2,0,B|488:280|360:352,1,225,2|4
288,356,66350,5,0
212,356,66521,2,0,B|168:292,2,75
288,356,67035,1,10
368,192,67378,1,10
288,28,67721,1,8
72,192,68235,5,8
72,192,68407,1,4
228,104,68750,2,0,B|300:60,2,75,2|8|4
228,280,69435,2,0,B|300:324,2,75,2|8|4
20,192,70292,21,8
20,192,70464,1,8
80,240,70635,2,8,B|140:192,1,75
196,144,70978,2,8,B|256:96,1,75
280,168,71321,5,8
280,168,71492,1,8
336,116,71664,1,8
388,172,71835,2,8,B|400:228|484:228|496:168,1,150
496,92,72350,1,8
336,12,72692,5,8
336,12,72864,1,8
336,12,73035,1,8
240,164,73378,1,8
176,124,73550,1,8
120,72,73721,2,8,B|88:48|72:16,2,75
200,284,74578,6,8,B|224:340|288:341|312:284,1,150,2|8
256,232,75092,1,8
256,156,75264,2,8,B|296:112|204:64|256:16,1,150,4|0
428,68,75950,21,0
480,124,76121,1,10
512,192,76292,1,0
480,260,76464,1,10
428,316,76635,1,4
256,192,76807,12,2,79550
44,256,91892,6,0,B|140:344|260:352|260:352|312:304|376:316,1,360,4|2
444,320,93092,1,0
256,104,93778,5,0
312,148,93950,2,0,B|312:184|288:204,1,60,2|0
200,148,94292,2,0,B|200:184|224:204,1,60,2|0
256,268,94635,1,0
256,340,94807,1,0
256,340,94978,1,2
440,100,95835,6,0,B|476:76,2,30,0|0|2
384,144,96178,1,0
336,200,96350,1,2
292,260,96521,1,0
240,308,96692,2,0,B|216:332|216:332|184:352,1,60,0|2
92,192,97378,38,0,B|104:116|196:88|256:144|256:144|316:88|408:116|420:192,1,420,0|4
180,208,99092,2,0,B|256:294|332:208,2,180,0|0|4
256,192,100292,12,4,105607
256,192,105950,5,8
388,72,106292,5,0
444,124,106464,1,0
476,192,106635,1,8
444,260,106807,1,0
392,312,106978,1,2
168,312,107321,1,2
80,192,107664,21,0
140,236,107835,1,2
212,252,108007,1,0
284,236,108178,2,0,B|348:228|352:176|400:148,1,150,4|0
464,192,108692,2,0,B|516:96|396:20|328:112,1,225,2|8
140,52,109550,6,0,B|100:32,2,37.5,0|2|8
372,52,110064,1,8
256,244,110407,1,0
256,244,110578,2,0,B|256:220|256:220|252:216|252:216|260:212|260:212|252:208|252:208|260:204|260:204|252:200|252:200|260:196|260:196|256:188|256:188|256:120,1,150,8|4
108,124,111264,21,0
108,200,111435,1,8
108,276,111607,1,0
268,196,111950,1,2
424,104,112292,2,0,B|500:128|500:256|424:280,1,225,4|8
356,256,112978,2,0,B|316:224|340:192|340:192|316:160|356:128,1,150,4|10
372,52,113492,2,0,B|356:16,2,37.5,0|2|0
424,104,113835,21,4
424,280,114178,1,0
364,328,114350,2,0,B|284:352|216:328,2,150,2|2|8
424,280,115207,1,2
448,132,115550,5,8
396,80,115721,1,0
328,48,115892,1,2
256,32,116064,1,2
184,48,116235,1,8
116,80,116407,1,8
64,132,116578,1,4
256,364,117264,5,8
256,364,117435,1,8
220,220,117778,2,0,B|168:80,1,150,2|8
256,124,118292,1,8
292,220,118464,2,0,B|344:80,2,150,4|8|2
256,192,119321,12,4,122064
148,84,122407,6,0,B|256:192,1,150,4|8
256,264,122921,2,0,B|332:264|332:264|332:192,1,150,8|2
332,116,123435,1,0
400,148,123607,1,0
400,224,123778,1,8
400,300,123950,1,8
256,340,124292,22,0,B|180:340|180:340|136:340|124:296,1,150,2|2
104,228,124807,1,8
256,60,125150,1,4
332,60,125321,1,0
408,60,125492,1,8
408,60,125664,1,8
336,192,126007,6,0,B|412:192|412:192|392:264|392:264|316:264,1,225,4|8
244,264,126692,1,8
116,76,127035,6,0,B|40:76,2,75,2|2|2
192,76,127550,1,2
416,76,127892,2,0,B|456:104|480:176|456:248|416:276,1,225,4|2
312,76,128750,5,8
256,292,129092,1,4
200,76,129435,1,4
80,192,129778,22,0,B|148:248|216:192,1,150,2|4
412,192,130464,1,8
356,144,130635,1,8
296,192,130807,1,4
256,336,131150,5,8
256,192,131492,1,4
256,48,131835,1,8
156,216,132178,1,4
356,216,132521,1,8
144,292,132864,5,4
368,292,133207,1,8
256,96,133550,1,4
256,320,133892,1,2
216,256,134064,1,2
296,256,134235,1,2
288,120,138692,5,8
115,265,139035,1,8
114,38,139378,1,8
40,252,139721,2,0,B|0:336|131:397|170:312,1,225,4|8
200,244,140407,21,0
228,172,140578,1,0
272,112,140750,1,2
328,60,140921,1,8
396,28,141092,2,0,B|444:16|504:60|496:116,1,150,4|0
476,184,141607,5,8
436,248,141778,1,0
376,292,141950,1,2
300,300,142121,2,0,B|252:308|228:280,1,75,2|8
176,228,142464,1,4
68,68,142807,2,0,B|92:36|108:28|124:56|124:56|140:28|156:36|180:68,1,150,2|2
116,284,143492,5,0
84,216,143664,1,8
116,148,143835,1,2
184,120,144007,1,2
184,120,144178,1,8
256,332,144521,1,8
328,120,144864,5,8
396,148,145035,1,8
428,216,145207,2,0,B|420:276|368:316|312:324,1,150,4|2
256,332,145721,1,8
208,160,146064,21,0
256,216,146235,1,2
304,160,146407,1,8
328,88,146578,2,0,B|256:53|184:87,1,150,2|0
132,144,147092,5,8
132,220,147264,1,0
188,268,147435,1,0
256,300,147607,1,2
324,268,147778,1,8
380,220,147950,2,0,B|432:224|456:180|432:140|380:144,2,150,0|2|2
308,348,148978,5,0
240,320,149150,1,8
172,288,149321,1,2
104,256,149492,1,8
104,256,149664,1,8
296,224,150007,1,2
104,184,150350,1,8
172,156,150521,1,2
240,128,150692,2,0,B|312:100,2,75,8|4|2
36,216,151378,6,0,B|12:168|16:116|72:88,1,150,2|0
104,156,151892,1,8
172,124,152064,2,0,B|236:84|236:84|232:56|296:52,1,150,4|2
368,56,152578,21,8
432,92,152750,1,0
480,148,152921,1,2
480,224,153092,1,2
432,280,153264,1,8
368,316,153435,2,0,B|292:316|292:316|280:340|220:312,1,150,4|2
408,76,154464,5,0
352,28,154635,1,8
280,12,154807,1,2
204,16,154978,1,4
132,36,155150,5,2
212,268,155492,1,8
376,104,155835,1,8
256,52,156178,22,0,B|304:4|304:4|380:-61|482:-4|538:97|473:173|473:173|377:270|377:270|207:100|207:100|111:196|111:196|46:272|103:374|205:431|281:365|281:365|329:317,1,1331.24998254329,4|8
192,248,160807,5,8
208,100,161150,2,0,B|152:44,2,75,2|8|8
260,152,161664,2,0,B|316:208,1,75,8|4
440,332,162178,5,2
484,156,162521,1,0
440,96,162692,1,8
396,156,162864,1,0
440,216,163035,1,4
256,284,163378,1,2
72,216,163721,1,2
256,140,164064,6,0,B|256:220,2,75,0|8|2
256,64,164578,1,4
256,216,164921,1,8
332,140,165264,2,0,B|332:216,2,75,2|8|2
332,64,165778,1,2
408,216,166121,5,0
408,140,166292,1,10
256,140,166635,1,8
256,64,166807,1,10
104,216,167150,1,4
104,140,167321,1,2
256,216,167664,21,0
256,292,167836,1,2
408,64,168178,1,0
408,140,168350,1,2
256,140,168692,1,0
256,216,168864,1,2
104,64,169207,1,0
104,140,169378,2,0,B|104:216,2,75,2|8|2
104,64,169892,6,0,B|160:8|248:4|312:52,1,225,4|8
432,140,170750,1,8
496,100,170921,2,0,B|532:164|476:220|435:213,1,150,2|2
368,212,171435,1,8
188,212,171778,1,8
276,332,172121,5,2
256,260,172292,1,2
296,196,172464,1,8
276,124,172635,2,0,B|276:80|276:80|272:24|220:12|196:24,1,150,4|2
128,24,173150,1,2
64,192,173492,5,8
100,260,173664,1,2
168,292,173835,1,2
200,224,174007,2,0,B|176:196|232:124|232:124|156:172|128:152,1,225,8|2
253,53,174864,21,2
306,107,175035,1,8
411,217,175378,1,8
357,163,175550,1,4
332,340,175892,6,0,B|272:359|233:325|252:260|252:260|199:303|142:246|184:192|184:192|119:212|85:173|105:113,1,450,0|10
367,89,177264,1,10
256,192,178121,37,4
256,192,178292,12,4,184807
