osu file format v5

[General]
AudioFilename: Hatsune Miku-- Love is War.mp3
AudioLeadIn: 0
PreviewTime: -1
Countdown: 0
SampleSet: Normal
StackLeniency: 0.7
Mode: 0
LetterboxInBreaks: 1
EditorBookmarks: 54912,232206
EditorDistanceSpacing: 1

[Metadata]
Title:Love is War
Artist:Hatsune Miku
Creator:Saturos-fangirl
Version:Normal
Source:ryo
Tags:

[Difficulty]
HPDrainRate:3
CircleSize:5
OverallDifficulty:6
SliderMultiplier:1.4
SliderTickRate:2

[Events]
//Background and Video events
0,0,"angry_miku.jpg"
//Break Periods
2,27652,42859
2,123652,133373
//Storyboard Layer 0 (Background)
//Storyboard Layer 1 (Fail)
//Storyboard Layer 2 (Pass)
//Storyboard Layer 3 (Foreground)
//Storyboard Sound Samples
//Background Colour Transformations
3,100,163,162,255

[TimingPoints]
10995,685.714285714286,4,2,1,67,1,0
101509,-50,4,1,1,74,0,1
112389,-50,4,1,1,74,0,0
112480,-50,4,1,1,74,0,1
123280,-50,4,1,1,74,0,0
123452,-50,4,1,1,74,0,1
125567,-100,4,2,1,74,0,0
186537,-50,4,1,1,74,0,1
197423,-100,4,1,1,74,0,0
197509,-50,4,1,1,74,0,1
208652,-50,4,1,1,74,0,0
230594,-100,4,1,0,0,0,0

[Colours]
Combo1 : 32,32,32
Combo2 : 0,206,206
Combo3 : 192,192,192
Combo4 : 64,128,128

[HitObjects]
88,224,12023,2,0,B|176:224,1,70,0|8
240,224,13052,1,0
304,168,13394,5,0
336,184,13737,1,8
360,216,14080,1,0
360,256,14423,1,8
336,288,14766,1,0
296,296,15109,2,0,L|248:280|272:248|232:216,1,140,8|0
233,217,16137,1,0
232,176,16480,2,0,B|280:152|280:80|224:56,2,140,8|0|8
128,192,18880,5,0
128,192,19223,2,0,B|128:40,3,140,8|0|8|8
256,192,21966,12,4,27452
320,192,43909,6,0,B|352:176|368:136|352:104|312:72|264:72|232:104|216:144|232:176|272:200,1,280
288,224,45623,1,0
288,264,45966,1,8
200,264,46652,1,0
112,264,47337,5,8
112,176,48023,2,0,B|184:176,1,70
224,176,48709,1,8
304,176,49395,5,0
384,176,50080,1,8
384,88,50766,1,0
296,88,51452,1,8
224,136,52137,5,0
184,136,52480,1,0
144,136,52823,2,0,B|144:88,2,35,8|0|0
104,136,53509,1,0
104,136,54195,1,8
256,192,54880,5,2
328,104,55566,2,0,B|288:72|232:72|192:112,1,140,8|0
200,216,56937,2,0,B|280:216,1,70
320,216,57623,2,0,B|344:264|320:336|264:368|160:336,1,210,8|0
160,336,58995,1,8
160,232,59680,5,0
160,176,60023,1,0
128,128,60366,2,0,B|280:128,2,140,8|0|8
192,72,62423,1,0
288,72,63109,6,0,B|400:176,1,140,8|0
464,128,64480,2,8,B|360:232,1,140,8|0
256,256,65852,5,8
184,168,66537,1,0
72,168,67223,1,8
88,224,67566,1,0
128,256,67909,1,8
184,256,68252,1,0
184,200,68595,2,0,B|240:208|248:248|240:312,1,140,8|0
296,312,69623,6,0,B|296:248|296:216|336:200|368:200,1,140,8|0
408,200,70652,1,8
464,200,70995,1,0
408,200,71337,1,8
256,192,72023,5,0
304,160,72366,2,0,B|320:104|296:64|224:64|192:104|216:160,1,210,8|0
256,192,73737,1,0
256,192,74080,2,0,B|112:192,1,140,8|0
256,192,75452,2,0,B|400:192,1,140,8|0
256,192,76823,1,4
136,88,77852,5,0
96,128,78194,1,8
64,176,78537,1,0
96,224,78880,1,8
144,256,79223,1,0
192,224,79566,2,0,B|192:72,1,140,8|0
304,88,80937,2,0,B|304:232,1,140,8|0
256,192,81966,5,0
200,152,82309,1,8
312,152,82994,1,0
312,240,83680,1,8
200,240,84366,1,0
256,192,84880,5,0
256,192,85052,1,8
192,192,85394,2,0,B|152:192,2,35,0|0|8
256,192,86080,1,0
320,192,86423,2,0,B|336:144|288:96|232:104,1,140,8|8
112,192,87794,5,4
224,192,88480,2,0,B|376:192,2,140,0|0|8
224,136,90194,2,0,B|184:136,1,35
152,136,90537,1,8
96,136,90880,1,0
80,192,91223,1,8
128,224,91566,1,0
176,192,91909,2,0,B|200:120,3,70,8|0|0|0
248,152,93280,5,8
360,152,93966,1,8
304,152,94309,1,0
248,152,94652,1,8
136,152,95337,5,8
136,152,96023,1,8
136,96,96366,1,0
136,40,96709,1,8
256,40,97394,5,4
256,192,98252,6,0,B|304:192,3,35
368,304,99794,5,0
424,264,100137,2,0,B|456:232|480:168|456:128,1,140
344,64,101509,5,4
184,64,102194,5,14
264,136,102880,6,0,B|152:232,1,140,4|0
72,232,103566,2,0,B|184:336,1,140,4|0
224,256,104252,5,14
344,336,104937,1,4
256,336,105280,5,0
328,232,105623,2,0,B|192:152,1,140,4|0
208,240,106309,2,0,B|336:152,1,140,4|0
248,112,106994,5,14
248,112,107680,1,4
304,56,108023,5,4
392,88,108366,2,0,B|264:176,1,140,12|0
162,246,109052,2,0,B|289:159,1,140,4|0
164,85,109737,2,0,B|298:182,1,140,6|0
394,244,110423,2,0,B|266:159,1,140,4|0
312,88,111109,1,14
408,88,111452,1,0
448,120,111623,1,0
408,144,111794,1,4
344,96,112137,1,0
408,48,112480,1,14
256,48,113166,5,12
200,104,113509,5,0
280,136,113852,2,0,B|176:272,1,140,4|0
224,320,114537,2,0,B|320:192,1,140,4|0
352,128,115223,1,14
256,32,115909,5,10
296,96,116252,5,0
232,136,116594,2,0,B|344:264,1,140,4|0
288,320,117280,2,0,B|192:208,1,140,4|0
128,136,117966,1,14
256,48,118652,5,10
352,48,118994,5,0
448,48,119337,1,4
448,48,119509,1,0
448,48,119680,1,0
448,136,120023,1,4
448,224,120366,1,0
360,176,120709,5,14
360,176,120880,1,0
360,176,121052,1,4
256,176,121394,2,0,B|168:176,3,70
112,176,122080,1,14
160,96,122423,1,0
256,96,122766,1,14
312,176,123109,1,10
208,176,123452,1,10
256,200,134423,5,0
320,144,135109,2,0,B|176:144,1,140,8|8
144,168,136137,1,0
160,208,136480,1,8
120,208,136823,1,0
160,208,137166,6,0,B|328:208,1,140,8|0
344,208,138194,5,0
344,208,138537,1,8
256,264,139223,6,0,B|184:240,1,70,8|0
152,224,139909,2,0,B|288:184,1,140,8|0
216,136,141280,2,0,B|72:104,1,140,8|0
104,72,142309,1,0
136,48,142652,1,8
216,48,143337,1,0
288,8,144023,1,8
328,24,144366,1,0
368,40,144709,1,8
400,56,145052,1,0
432,72,145394,6,0,L|392:104|408:136|376:152|368:176,1,140,8|0
344,248,146766,2,0,L|272:312,1,70,8|0
256,272,147452,2,0,L|200:224,1,70,8|0
168,200,148137,1,8
256,112,149166,5,0
256,152,149509,2,0,L|88:152,1,140,8|0
72,152,150537,1,0
72,152,150880,1,8
128,216,151566,1,0
168,216,151909,1,0
192,176,152252,2,0,L|224:224|264:224|320:224|352:168,1,210,8|0
288,128,153623,5,8
344,40,154309,1,8
240,40,154994,1,8
288,128,155680,1,8
288,224,156366,5,4
352,128,157394,5,0
376,160,157737,2,0,L|424:224,1,70,8|0
418,216,158423,2,0,L|328:216,1,70,8|0
304,216,159109,1,8
176,216,160137,5,0
176,256,160480,2,0,B|232:272|232:216|224:176|224:152,1,140,8|0
248,112,161509,1,8
279,151,161852,2,0,B|272:216|272:256|328:264|344:224|344:224|344:184|384:136|432:168|432:296|344:312|288:304|256:296,1,420
120,304,164423,6,0,B|176:304,3,35,8|0|0|8
200,304,165280,1,0
232,272,165623,1,0
264,240,165966,2,0,B|280:280|288:312|320:304|376:304,1,140,8|0
432,240,167337,6,0,B|376:248|344:216|344:152,1,140,8|0
344,72,168709,2,0,B|288:72|256:104|256:184,1,140,8|0
256,200,169737,5,0
224,176,170080,2,0,B|192:208|128:208|96:160,1,140,8|0
72,136,171109,1,0
40,160,171452,1,8
24,200,171794,1,0
40,240,172137,1,8
72,264,172480,1,0
112,224,172823,6,0,B|128:200|176:208|176:240|160:264|144:272|144:272|142:320,1,140,8|0
144,344,173852,1,0
144,344,174194,1,8
216,224,174880,6,0,B|232:200|280:208|280:240|264:264|248:272|248:272|246:320,1,140,8|0
248,344,175909,1,0
248,344,176252,1,8
384,80,178137,6,0,B|248:80,1,105,8|0
224,80,178995,1,8
144,80,179680,1,8
136,272,180709,5,8
192,272,181052,2,0,B|336:272,1,140,8|0
384,272,182080,1,0
384,272,182423,1,8
424,224,182766,1,8
424,224,183109,1,8
256,192,183795,5,4
72,72,184823,5,0
224,72,185509,1,0
320,72,185852,1,4
320,72,186195,1,4
416,96,186537,5,14
397,191,187223,2,0,B|237:191,2,140,0|0|10
400,88,188252,1,0
328,152,188595,1,4
328,88,188937,1,0
400,152,189280,1,14
256,128,189966,5,14
256,128,190309,6,0,B|264:80|304:88|296:128|288:144|272:168|248:184|248:184|224:168|168:128|200:72|224:104|240:120,1,280
192,208,191337,2,4,B|328:304,1,140,4|4
320,208,192023,2,0,B|184:304,1,140,14|0
272,336,192709,5,0
352,264,193052,5,0
352,160,193395,2,0,B|192:160,1,140,10|0
128,104,194080,2,0,B|280:104,1,140
368,104,194766,5,10
368,200,195109,1,14
256,200,195452,1,4
152,200,195795,1,0
152,200,195966,1,0
152,200,196137,5,10
152,304,196480,1,0
256,304,196823,1,4
368,304,197166,1,0
368,304,197337,1,10
368,304,197509,1,14
368,304,198195,6,0,L|400:264|336:264|392:248|352:232|368:216|368:168,1,280,14|4
368,80,199223,1,0
280,120,199566,2,0,B|136:120,2,140,10|0|14
344,216,200937,6,0,B|360:224|328:288|256:344|160:320|64:312|16:184|72:32|136:-40|360:-64|464:40|512:304|312:352|200:328|120:280|64:192|176:88|232:104|328:128|264:208|216:200|240:176,1,840,14|14
248,184,203680,1,10
344,160,204023,5,0
360,72,204366,2,0,L|216:160,1,140,4|0
248,72,205052,2,0,L|392:168,1,140,4|0
472,192,205737,5,14
376,192,206080,1,4
272,192,206423,1,14
160,192,206766,1,4
160,192,206937,1,0
160,192,207109,5,4
272,192,207452,2,0,L|360:192,2,70,0|0|10
272,288,208137,2,0,L|192:288,2,70
256,192,208652,12,4,211224
80,104,211909,6,0,L|112:160|208:160,3,140
184,64,213280,2,0,L|184:296,1,210
184,274,213966,1,10
320,136,214652,5,4
368,64,214995,5,0
416,136,215337,1,0
456,216,215680,1,0
368,248,216023,2,0,B|320:256|304:304|312:344|312:368,1,140,4|0
256,280,216709,5,14
256,248,216880,1,0
256,216,217052,1,4
200,144,217395,1,4
312,144,217737,1,4
256,80,218080,5,14
256,112,218252,1,0
256,144,218423,1,4
200,216,218766,1,4
312,216,219109,1,4
256,144,219452,1,14
256,24,220137,5,4
176,24,220480,1,4
112,80,220823,2,4,L|152:120|96:136|176:160|80:176|160:208|80:232|128:264|128:328,1,560,4|14
280,304,222880,5,0
384,304,223223,1,0
384,303,223566,2,4,L|384:267|432:235|352:211|432:179|336:163|416:139|360:123|400:83,1,560,4|14
256,56,225623,5,4
256,56,225966,5,0
256,56,226309,2,0,B|352:160,1,140,14|0
256,56,226995,2,0,B|160:160,1,140,4|0
256,160,227680,2,0,B|312:224,2,70,10|0|0
256,160,228366,2,0,B|200:224,2,70
208,88,229052,2,0,B|168:88,4,35,10|0|0|0|4
304,88,229737,2,0,B|328:88,16,17.5,14|0|0|0|0|0|0|0|4|0|10|10|10|10|10|10|14
256,192,230423,12,0,233166
