osu file format v9

[General]
AudioFilename: lost and found.mp3
AudioLeadIn: 0
PreviewTime: 33470
Countdown: 0
SampleSet: Soft
StackLeniency: 0.4
Mode: 0
LetterboxInBreaks: 0

[Editor]
Bookmarks: 22628,217790
DistanceSpacing: 0
BeatDivisor: 4
GridSize: 8

[Metadata]
Title:Lost and Found
Artist:Hatsune Miku
Creator:qinche
Version:Insane
Source:Vocaloid
Tags:chouchouP append soft y_u_c_a NanaDesu

[Difficulty]
HPDrainRate:7
CircleSize:5
OverallDifficulty:7
ApproachRate:8
SliderMultiplier:1.1
SliderTickRate:1

[Events]
//Background and Video events
0,0,"11929938.jpg"
Video,0,"lost and found.flv"
//Break Periods
2,32203,32720
2,64975,66959
2,107040,116524
2,128560,131198
2,171278,187937
//Storyboard Layer 0 (Background)
//Storyboard Layer 1 (Fail)
//Storyboard Layer 2 (Pass)
//Storyboard Layer 3 (Foreground)
//Storyboard Sound Samples
//Background Colour Transformations
3,100,255,225,196

[TimingPoints]
23036,326.086956521739,4,2,1,12,1,0
32403,-100,4,2,1,35,0,0
54040,-100,4,2,2,28,0,0
67709,326.086956521739,4,2,1,35,1,0
87500,-100,4,2,1,0,0,0
88520,-86.9565217391304,4,2,1,60,0,0
88578,-86.9565217391304,4,2,1,60,0,1
106350,-125,4,2,1,60,0,1
106633,-125,4,2,1,0,0,0
106840,-125,4,2,1,35,0,1
106841,-125,4,2,1,35,0,0
117001,-100,4,2,2,35,0,0
128340,-100,4,2,1,0,0,0
131948,326.086956521739,4,2,1,40,1,0
151789,-100,4,2,1,0,0,0
152790,-86.9565217391304,4,2,1,60,0,0
152817,-86.9565217391304,4,2,1,60,0,1
170674,-86.9565217391304,4,2,1,0,0,1
171078,-86.9565217391304,4,2,1,60,0,1
171079,-86.9565217391304,4,2,1,60,0,0
188291,-86.9565217391304,4,2,2,45,0,0
195778,-100,4,2,2,45,0,0
199400,-125,4,2,2,45,0,0
202864,-125,4,2,2,0,0,0
203400,-86.9565217391304,4,2,2,45,0,0
210550,-100,4,2,2,45,0,0
214250,-125,4,2,2,45,0,0
217682,-125,4,2,2,0,0,0

[Colours]
Combo1 : 247,210,157
Combo2 : 255,248,155
Combo3 : 223,236,185
Combo4 : 224,182,228
Combo5 : 237,180,180

[HitObjects]
80,128,23035,2,0,B|56:240,1,110,2|0
184,128,23688,2,0,B|184:192,1,55
288,104,24177,2,0,B|312:224,1,110,2|0
384,64,24829,2,0,B|432:120,1,55
472,160,25155,2,0,B|512:208,1,55
376,160,25644,2,0,B|400:280,1,110,2|0
280,144,26296,2,0,B|272:208,1,55
208,72,26785,2,0,B|144:168,1,110,2|0
112,24,27438,2,0,B|64:64,1,55
32,120,27764,2,0,B|32:200,1,55
184,184,28253,6,0,B|232:288,1,110,2|0
360,224,28905,2,0,B|312:192,1,55
432,112,29394,2,0,B|312:112,1,110,2|0
368,0,30046,2,0,B|296:24,1,55
240,8,30372,2,0,B|208:64,1,55
96,144,30862,1,2
416,144,31188,1,0
256,328,31514,1,2
256,328,31677,1,0
256,192,32003,5,4
152,74,33470,6,2,B|256:10|360:74,1,220,2|0
432,104,34285,2,0,B|432:160,1,55
360,184,34612,2,0,B|360:72,1,110,2|0
256,192,35264,1,2
152,72,35590,1,0
152,72,35753,1,0
152,72,36079,6,2,B|152:184,1,110,2|0
152,182,36568,1,0
256,288,36894,1,0
360,184,37220,2,2,B|360:72,1,110,2|0
256,288,37872,2,0,B|256:176,1,110,2|0
176,184,38362,6,0,B|136:136|176:80,1,110,0|2
248,104,38851,1,0
248,104,39014,2,0,B|272:160|360:136|392:176,1,165,0|0
390,174,39666,1,0
448,112,39829,2,0,B|528:112|512:176,1,110,2|0
452,232,40318,1,0
256,296,40644,1,2
60,232,40970,1,0
60,232,41133,1,0
0,175,41296,2,0,B|-16:112|64:112,1,110,2|0
144,128,41785,1,0
368,128,42112,1,0
256,272,42438,5,2
256,112,42764,1,0
144,256,43090,1,2
368,256,43416,1,0
368,256,43579,1,0
420,88,43905,6,2,B|380:160|276:112|236:192,1,220,2|0
204,264,44720,1,0
276,296,44883,1,0
308,224,45046,2,0,B|356:256|356:320,1,110,2|0
480,216,45699,2,0,B|432:184|432:120,1,110,2|0
404,48,46188,1,0
328,72,46351,1,0
356,144,46514,6,2,B|332:200|268:200,1,110,2|0
188,224,47003,1,0
188,224,47329,2,0,B|188:160|236:128,1,110,0|2
234,129,47981,2,2,B|346:129|346:129,1,110,0|2
344,129,48470,1,0
424,320,48796,1,0
424,320,48959,2,0,B|384:360|320:328,2,110
368,256,49775,1,0
288,248,49938,1,0
224,296,50101,1,0
224,296,50264,6,0,B|264:344|328:328,1,110,2|0
352,192,50916,1,0
352,192,51079,2,0,B|408:168|408:104,1,110,2|0
320,104,51568,1,0
272,40,51731,1,2
152,168,52057,1,0
96,224,52220,1,0
280,272,52546,1,0
256,192,52872,5,2
127,117,54340,5,2
192,64,54503,1,0
272,48,54666,1,0
352,72,54829,5,2
240,240,55155,1,0
280,312,55318,1,2
360,304,55481,1,0
376,224,55644,1,0
300,184,55807,5,2
120,144,56296,1,2
120,224,56459,5,0
120,304,56622,5,0
256,56,57112,5,2
256,320,57438,1,0
376,112,57764,2,0,B|424:144|424:208,1,110,2|0
488,256,58253,2,0,B|464:312|384:336,1,110,2|0
128,128,58905,1,2
208,128,59068,1,0
368,264,59394,1,2
288,264,59557,1,0
440,128,60046,5,2
368,168,60209,1,0
288,152,60372,1,0
232,88,60535,1,2
232,88,60862,1,0
168,144,61025,1,2
168,144,61351,1,0
88,152,61514,2,0,B|88:232|176:208|176:288,1,165,2|0
240,336,62166,5,0
320,320,62329,1,0
264,256,62492,2,0,B|312:216|368:248,1,110,2|0
248,112,63307,1,0
208,40,63470,1,2
296,40,63633,2,0,B|320:96|384:96,1,110
382,95,64122,1,0
456,64,64285,2,0,B|480:128|448:184,1,110,0|0
454,171,64775,1,2
88,88,67709,6,2,B|128:176|224:96|256:208,1,220,2|0
320,160,68524,2,0,B|368:192|424:176,1,110,0|2
425,175,69013,1,0
480,232,69176,2,0,B|432:264|376:264,1,110,0|2
192,296,69828,1,0
104,288,69991,1,0
152,224,70154,1,0
192,296,70317,6,2,B|136:280|112:224,1,110,2|0
40,192,70806,2,0,B|24:128|72:88,1,110
144,64,71295,1,0
208,112,71459,2,2,B|272:192|352:128,1,165,2|0
408,80,72111,1,2
368,240,72437,1,0
432,288,72600,5,0
360,320,72763,1,0
360,320,72926,2,0,B|304:336|256:288,1,110,2|0
144,80,73578,1,0
176,152,73741,1,0
248,120,73904,1,0
216,48,74067,2,0,B|276:24|312:80,1,110,2|0
384,120,74556,2,0,B|440:88,2,55,0|2|0
416,200,75045,1,0
416,200,75209,1,0
376,272,75372,1,0
304,304,75535,5,2
304,304,75698,1,0
224,288,75861,1,0
176,224,76024,5,0
176,224,76350,1,0
256,80,76676,1,2
336,224,77002,1,0
336,224,77165,1,0
256,224,77328,1,2
256,80,77654,1,0
256,80,77817,1,0
48,312,78143,6,2,B|176:296|192:168,1,220,2|0
112,168,78959,2,0,B|112:112|176:88,1,110,0|2
248,64,79448,2,0,B|304:40,1,55,0|0
256,192,79937,1,2
248,320,80263,2,0,B|304:296,1,55
352,184,80589,5,0
352,184,80752,2,2,B|408:208|448:152,1,110,2|0
272,88,81241,1,0
272,88,81404,2,0,B|208:104|208:168,1,110,0|0
328,296,81893,2,2,B|280:192,1,110,2|0
216,248,82382,2,0,B|152:248,2,55,0|2|0
88,64,83035,5,0
88,64,83198,2,0,B|72:128|128:160,1,110
125,158,83687,1,0
125,158,83850,1,0
256,216,84013,1,0
256,216,84176,2,0,B|256:160|256:160,1,55
256,80,84502,2,0,B|320:56|320:168|392:152,1,165,2|0
352,80,85154,5,2
432,88,85317,1,0
464,160,85480,1,0
416,224,85643,1,0
336,216,85806,1,0
304,144,85969,2,2,B|264:88|144:184|104:104,1,220,2|0
120,24,86785,1,0
40,40,86948,1,0
24,120,87111,1,2
256,176,87600,5,0
256,176,87763,2,0,B|256:208,8,27.5,0|0|0|0|0|0|0|0|0
256,64,88578,5,2
256,320,88904,1,0
256,64,89230,1,0
312,128,89393,2,0,B|386:90|350:23,2,126.500004146993,0|2|0
312,128,90372,1,0
240,168,90535,1,2
160,160,90698,1,0
96,104,90861,1,0
280,232,91024,6,0,B|248:296|184:304,1,126.500004146993,2|0
182,304,91513,1,0
112,248,91676,1,0
56,312,91839,1,2
56,312,92002,2,0,B|56:240|56:240,1,63.2500020734967
120,104,92328,6,0,B|176:144|240:104,1,126.500004146993,2|0
256,24,92817,2,0,B|328:40|328:120,1,126.500004146993,0|2
304,192,93306,1,0
224,208,93469,1,0
168,144,93632,6,0,B|96:144|64:208,1,126.500004146993,2|0
136,248,94122,2,0,B|152:312|224:328,1,126.500004146993,0|2
304,320,94611,1,0
384,304,94774,1,0
448,248,94937,2,0,B|480:184|448:128,1,126.500004146993,2|0
448,128,95426,1,0
128,112,95752,6,0,B|88:168|128:232,1,126.500004146993,2|0
127,230,96241,1,0
240,40,96404,2,0,B|280:96|240:160,1,126.500004146993,2|0
240,158,96893,2,0,B|272:216|344:224,1,126.500004146993
352,144,97382,2,0,B|464:128|512:224,1,189.75000622049,2|0
440,264,98035,2,0,B|336:312|277:211,1,189.75000622049
280,136,98687,1,0
280,56,98850,6,0,B|216:24|144:64|136:136,1,189.75000622049,2|0
272,288,99665,1,2
344,328,99828,1,0
384,256,99991,1,0
312,216,100154,2,0,B|256:176|288:104,1,126.500004146993,2|0
288,104,100643,1,0
336,40,100806,1,0
80,96,100969,1,2
160,72,101132,5,0
184,152,101295,1,0
104,176,101458,2,0,B|80:240|0:256,1,126.500004146993,2|0
10,253,101948,1,0
72,304,102111,1,0
152,320,102274,1,2
152,320,102437,1,0
232,304,102600,1,0
304,264,102763,6,0,B|368:232|384:168,1,126.500004146993,2|0
392,256,103252,2,0,B|408:328|480:336,1,126.500004146993,0|2
478,335,103741,1,0
336,320,103904,1,0
336,320,104067,2,0,B|272:328|224:264,1,126.500004146993,2|0
160,312,104556,2,0,B|128:248|168:192,1,126.500004146993,0|2
224,136,105045,1,0
304,128,105208,1,0
368,176,105372,1,0
392,248,105535,6,0,B|464:248,1,63.2500020734967,2|0
256,304,105861,1,0
120,248,106024,2,0,B|48:248,1,63.2500020734967,0|2
256,104,106350,2,0,B|256:192,1,88,0|0
256,192,106840,1,4
256,64,117274,5,2
256,144,117437,1,0
256,224,117600,1,0
256,304,117763,2,0,B|256:368,1,55,2|0
256,304,118252,5,0
256,224,118415,1,0
256,144,118578,1,2
256,64,118741,2,0,B|256:8,1,55
184,200,119230,5,0
328,200,119393,1,0
256,280,119556,2,0,B|256:360,1,55
256,48,120045,5,2
256,336,120372,1,0
208,128,120698,6,0,B|168:160|144:224,1,110,2|0
304,128,121187,2,0,B|344:160|368:224,1,110,2|0
104,216,121839,1,0
136,288,122002,1,2
208,320,122165,1,0
288,208,122328,1,0
360,176,122491,1,2
392,104,122654,1,0
392,104,122980,5,0
208,64,123143,2,0,B|168:112|208:168,1,110,0|2
328,328,123795,1,0
328,328,123958,2,0,B|368:280|328:224,1,110,0|0
330,226,124448,2,0,B|298:170|330:122,1,110,2|0
112,64,125100,5,2
192,80,125263,1,0
200,160,125426,1,0
128,192,125589,1,2
72,136,125752,2,0,B|128:128|168:200|224:192,1,165,0|0
264,128,126404,5,2
344,120,126567,1,0
400,176,126730,1,0
216,264,126893,1,0
272,320,127056,1,0
352,312,127219,1,0
300,244,127382,1,0
300,244,127708,2,0,B|332:164|436:188|460:100,1,220,2|0
256,104,131948,6,2,B|168:56|104:152|168:216,1,220,2|0
248,216,132763,1,0
248,216,132926,1,0
248,296,133089,2,0,B|336:344|400:248|336:184,1,220,2|0
272,136,133904,1,0
120,248,134067,1,0
120,248,134230,5,0
120,248,134393,1,0
120,248,134556,2,2,B|160:296|216:296,1,110,2|0
376,192,135045,2,0,B|336:232|272:224,1,110,2|0
128,112,135534,1,0
128,112,135698,2,2,B|232:160|344:120,1,220,2|2
342,120,136676,5,0
392,48,136839,2,0,B|448:72|448:136,1,110,0|2
408,204,137328,1,0
368,272,137491,2,0,B|304:248|304:192,1,110,0|0
312,120,137980,1,0
224,232,138143,1,0
224,232,138306,6,0,B|200:168|240:128,1,110,2|0
312,120,138795,1,0
168,104,138958,1,2
168,104,139121,6,0,B|200:56|264:56,1,110
312,120,139611,1,0
264,192,139774,2,0,B|264:256|312:288,1,110,2|0
312,120,140426,5,0
376,176,140589,2,0,B|472:224|512:128,1,165,0|0
432,120,141241,1,0
432,120,141404,1,0
368,72,141567,1,2
368,280,141893,1,0
368,280,142056,1,0
48,224,142382,6,2,B|200:248|272:104,1,275,2|0
271,104,143361,1,0
312,32,143524,2,0,B|320:119|384:176,1,165,2|0
320,256,144176,6,0,B|376:272|424:240,1,110,2|0
464,168,144665,1,0
424,96,144828,1,0
344,72,144991,1,2
288,248,145317,1,0
288,248,145480,2,0,B|280:184,1,55
208,216,145806,1,0
208,216,145969,2,0,B|152:168|152:168,1,55,0|2
128,248,146295,1,0
128,248,146458,2,2,B|128:304|184:336,1,110,0|2
184,336,147111,5,0
272,112,147274,1,0
272,112,147437,2,0,B|352:152|352:248,1,165
112,256,148252,1,0
56,200,148415,1,0
72,120,148578,1,0
144,88,148741,6,0,B|216:128|304:112,1,165,2|0
380,88,149393,1,2
380,88,149556,1,0
416,160,149719,2,0,B|448:208,2,55
336,160,150208,2,2,B|280:264|160:160|88:240,1,275,2|0
89,238,151187,1,0
89,238,151350,1,2
256,176,151839,5,0
256,176,152002,2,0,B|256:208,8,27.5
96,184,152817,5,2
416,184,153143,1,0
176,64,153469,1,0
176,64,153632,2,0,B|240:96|240:168,1,126.500004146993,0|2
392,304,154121,1,0
392,304,154284,2,0,B|344:256|344:184,1,126.500004146993
312,120,154774,5,2
232,112,154937,1,0
184,176,155100,1,0
216,248,155263,2,0,B|192:280|200:312,1,63.2500020734967,2|0
312,120,155589,1,0
312,120,155752,2,0,B|312:80|296:56,1,63.2500020734967
216,248,156078,6,0,B|248:320|312:320,1,126.500004146993,2|0
456,104,156567,2,0,B|448:176|368:176,1,126.500004146993,2|0
368,176,157056,2,0,B|368:248,1,63.2500020734967
64,208,157382,5,2
80,128,157545,1,0
152,96,157708,1,0
224,128,157871,2,0,B|296:160|328:240,1,126.500004146993,2|0
368,144,158361,2,0,B|438:164|488:128,1,126.500004146993,0|2
488,128,158850,1,0
424,72,159013,1,0
424,72,159176,2,0,B|288:72,1,126.500004146993,2|0
208,240,159665,6,0,B|160:184|208:120,1,126.500004146993,0|2
204,124,160154,1,0
312,216,160317,2,0,B|360:272|312:336,1,126.500004146993,0|2
256,24,160969,1,0
256,104,161132,2,0,B|256:240,1,126.500004146993
256,230,161621,2,0,B|256:359,1,126.500004146993,2|0
256,24,162274,1,0
89,199,162763,6,0,B|153:199,1,63.2500020734967
152,199,163089,2,0,B|184:263|256:255,1,126.500004146993,2|0
336,256,163578,1,0
416,256,163741,1,0
416,80,163904,2,0,B|488:80,2,63.2500020734967,2|0|0
416,80,164393,2,0,B|368:144|304:144,1,126.500004146993,2|0
232,144,164882,1,0
152,144,165045,1,0
48,240,165208,6,0,B|112:224,1,63.2500020734967
184,208,165534,1,0
128,144,165698,2,0,B|200:144|232:80,1,126.500004146993,2|0
288,24,166187,1,0
368,48,166350,1,0
464,240,166513,1,2
464,240,166676,2,0,B|424:192|424:192,1,63.2500020734967
423,191,167002,2,0,B|359:191|319:255,1,126.500004146993,2|0
319,253,167491,2,0,B|255:255|207:207,1,126.500004146993,0|2
205,205,167980,5,0
144,152,168143,1,0
144,152,168306,2,0,B|64:168|64:240,1,126.500004146993,2|0
368,232,168795,2,0,B|448:216|448:144,1,126.500004146993,0|2
447,148,169284,1,0
256,64,169448,1,0
368,144,169611,2,0,B|432:144,1,63.2500020734967,2|0
144,240,169937,2,0,B|80:240,1,63.2500020734967
256,320,170263,2,0,B|256:192,2,126.500004146993,0|0|0
256,320,171078,1,4
68,112,188687,5,0
112,40,188850,1,0
196,24,189013,1,2
264,72,189176,1,0
264,72,189502,1,0
280,152,189665,1,0
232,216,189828,1,0
152,232,189991,2,0,B|120:232|96:208,2,63.2500020734967,2|0|0
152,232,190643,5,0
232,216,190806,1,0
296,164,190969,1,2
328,88,191132,1,0
352,248,191458,1,2
416,304,191621,1,0
496,328,191784,1,2
432,64,192274,5,0
360,16,192437,1,0
276,32,192600,1,2
248,112,192763,1,0
248,112,193089,1,0
296,184,193252,1,2
272,264,193415,1,0
192,296,193578,1,0
120,256,193741,1,0
104,176,193904,5,0
176,120,194067,1,0
336,304,194393,1,0
408,344,194556,1,2
256,48,194882,1,0
192,104,195045,2,0,B|200:168,1,63.2500020734967,0|2
320,104,195371,2,0,B|312:168,1,63.2500020734967,0|2
256,344,195861,5,2
256,264,196024,2,0,B|256:208,1,55
256,128,196350,1,0
256,48,196513,1,2
256,128,196676,1,0
160,192,196839,2,0,B|80:192,1,55,2|0
352,192,197165,2,0,B|408:192,1,55,2|0
208,136,197654,6,0,B|208:64,1,55,2|0
304,256,197980,2,0,B|304:184,1,55,2|0
208,256,198306,1,2
208,336,198469,1,0
304,176,198632,1,2
304,256,198795,1,0
256,24,198958,1,2
256,104,199121,1,0
152,288,199447,6,0,B|200:280|216:232,1,88
192,160,199937,2,0,B|272:144|312:192,1,132,2|0
384,232,200589,2,0,B|400:280|456:280,1,88,0|2
408,344,201241,1,2
336,360,201567,1,2
272,320,201893,2,0,B|144:376|136:200|40:240,1,264,2|0
208,128,203524,6,0,B|136:128,1,63.2500020734967
216,192,203850,2,0,B|168:248,1,63.2500020734967,2|0
296,192,204176,2,0,B|336:240,1,63.2500020734967
304,128,204502,2,0,B|368:128,1,63.2500020734967,0|0
256,84,204828,5,2
336,68,204991,1,0
396,124,205154,1,0
388,204,205317,1,0
320,248,205480,1,2
244,224,205643,1,0
216,152,205806,1,2
112,328,206132,1,0
52,280,206295,1,2
80,208,206458,1,0
140,256,206621,1,2
280,192,207111,6,0,B|328:248,1,63.2500020734967
368,184,207437,2,0,B|440:192,1,63.2500020734967,2|0
472,128,207763,1,0
448,48,207926,1,0
368,32,208089,1,0
312,96,208252,6,0,B|248:120,1,63.2500020734967,0|2
208,56,208578,2,0,B|144:40,1,63.2500020734967
72,72,208904,1,0
56,152,209067,1,0
104,216,209230,1,0
184,216,209393,6,0,B|240:256,1,63.2500020734967,2|0
304,208,209719,2,0,B|352:248,1,63.2500020734967,0|2
424,208,210045,1,0
488,256,210208,1,2
160,40,210697,6,0,B|136:64|160:88,1,55,2|0
288,272,211024,2,0,B|312:248|288:224,1,55
228,168,211350,1,0
152,192,211513,1,0
136,268,211676,2,0,B|112:296|136:320,1,55,2|0
228,168,212002,2,0,B|252:144|228:120,2,55,2|0|0
400,40,212491,6,0,B|376:64|400:88,1,55,2|0
488,128,212817,2,0,B|512:152|488:176,1,55,2|0
424,224,213143,1,2
344,200,213306,1,0
288,264,213469,2,0,B|272:288|240:288,1,55,2|0
208,216,213795,2,0,B|182:228|154:212,2,55,2|0|0
272,160,214284,6,0,B|218:116|324:91|271:47,2,132,0|2|0
272,160,215426,1,2
344,200,215752,1,2
416,160,216078,1,2
416,80,216404,1,2
348,40,216730,2,0,B|240:56|312:208|192:232,1,264,2|0
