osu file format v5

[General]
AudioFilename: Hatsune Miku - Light Song.mp3
AudioLeadIn: 2007
PreviewTime: 147702
Countdown: 1
SampleSet: Soft
StackLeniency: 0.7
Mode: 0
LetterboxInBreaks: 1

[Metadata]
Title:Light Song
Artist:Hatsune Miku
Creator:James
Version:Normal
Source:
Tags:

[Difficulty]
HPDrainRate:2
CircleSize:4
OverallDifficulty:3
SliderMultiplier:1.4
SliderTickRate:2

[Events]
//Background and Video events
0,0,"mikukeigaro.png"
//Break Periods
2,74997,88556
2,119272,132402
//Storyboard Layer 0 (Background)
//Storyboard Layer 1 (Failing)
//Storyboard Layer 2 (Passing)
//Storyboard Layer 3 (Foreground)
//Storyboard Sound Samples
//Background Colour Transformations
3,100,0,0,0

[TimingPoints]
490,461.538461538462,4,2,0,100,1
18490,-100,4,2,0,100,0
21720,-100,4,2,0,100,0
89996,461.538461538462,4,2,0,100,1

[Colours]
Combo1 : 255,255,255
Combo2 : 11,202,198
Combo3 : 0,0,0
Combo4 : 235,78,10
Combo5 : 252,207,124

[HitObjects]
32,320,45720,1,0
144,320,46182,1,0
144,320,46413,1,0
256,320,46874,1,0
368,320,47336,1,0
480,320,47797,1,0
480,64,48490,5,0
368,64,48951,1,0
256,64,49413,1,0
256,64,49643,1,0
144,64,50105,1,0
32,64,50566,1,0
120,136,51490,6,0,B|416:136,1,280
360,248,53566,2,0,B|120:248,1,210
88,88,55413,5,0
88,88,55643,1,0
88,88,56105,2,0,B|88:168|88:208|80:296|264:248,1,280
344,248,57490,1,0
456,256,57951,1,0
480,80,60490,5,0
368,80,60952,1,0
368,80,61183,1,0
256,80,61643,2,0,B|24:80,1,210
40,192,62797,1,0
32,304,63260,5,0
144,304,63721,1,0
256,304,64183,1,0
256,304,64413,1,0
368,304,64875,1,0
480,304,65336,2,0,B|488:232|440:168|488:64,1,210
360,96,66490,5,0
248,96,66951,1,2
248,96,67182,1,0
200,192,67643,5,8
200,192,67874,1,8
152,288,68336,5,0
264,288,68797,1,2
264,288,69028,1,0
320,192,69490,5,8
320,192,69720,1,8
256,192,70182,12,0,72951
256,80,73413,5,8
256,192,73874,1,0
256,192,74105,1,8
256,192,74336,1,8
256,304,74797,1,4
200,112,89996,5,0
256,112,90226,1,0
312,112,90457,1,0
360,208,90919,2,0,B|360:304|360:304|248:368|144:304|144:304|144:176,1,420,0|0
184,104,92765,2,0,B|352:104,1,140
464,192,93688,6,0,B|32:192,1,420
88,296,95534,1,0
200,296,95996,1,0
312,296,96457,1,0
424,296,96919,1,0
344,56,97842,5,0
288,56,98072,1,0
232,56,98303,1,0
176,56,98534,2,0,B|152:136|200:208|168:296,1,210
288,272,99688,1,0
400,264,100149,1,0
400,152,100611,1,0
288,160,101072,1,0
288,272,101534,6,0,B|464:256,1,140
344,184,102457,2,0,B|184:200,1,140,0|0
272,112,103380,2,0,B|440:88,2,140,0|0|4
80,72,104765,5,0
72,128,104996,1,2
64,184,105226,1,0
176,160,105688,2,0,B|168:248,1,70,0|2
224,208,106149,2,0,B|232:112,1,70,0|2
280,120,106611,2,0,B|272:224,2,70,0|2|0
424,64,108457,6,0,B|448:144,1,70,0|2
392,152,108919,2,0,B|312:176,1,70,0|2
312,120,109380,2,0,B|296:48,1,70,0|2
296,51,109842,1,0
208,120,110303,1,0
272,208,110765,1,0
176,264,111226,1,0
248,352,111688,1,4
88,64,112380,5,2
144,64,112611,1,0
200,64,112842,1,2
256,64,113072,1,0
312,64,113303,1,2
368,64,113534,2,0,B|392:152|368:224,1,140
374,202,114226,1,2
264,200,114688,5,2
208,200,114919,1,0
152,200,115149,1,2
96,200,115380,2,0,B|72:288|104:352,1,140
97,337,116072,1,2
208,336,116534,1,2
320,336,116996,1,2
400,192,117688,6,4,B|224:192,1,140
120,192,118611,2,4,B|296:192,1,140
160,80,133842,6,0,B|328:80,1,140,4|2
300,80,134534,1,0
312,136,134765,1,0
312,136,134996,1,2
320,192,135226,1,0
320,192,135457,1,2
208,192,135919,2,0,B|112:192,1,70,0|2
208,248,136380,2,0,B|120:248,1,70,0|2
208,304,136842,2,0,B|112:304,2,70,0|0|2
320,304,137765,6,0,B|400:304,1,70,0|2
320,248,138226,2,0,B|416:248,1,70
320,192,138688,2,0,B|416:192,1,70,2|0
392,136,139149,2,0,B|224:136,1,140,2|2
252,136,139841,1,0
240,192,140072,1,0
240,192,140303,1,2
232,248,140533,1,0
232,248,140764,1,0
224,304,140996,1,2
224,304,141226,6,0,B|72:304,1,140
128,200,142149,2,0,B|288:200,1,140,2|2
232,88,143072,2,0,B|72:88,3,140,0|2|2|2
32,192,144919,5,0
144,192,145380,1,0
256,192,145842,1,2
368,192,146303,1,2
480,192,146765,5,0
368,192,147226,1,2
256,192,147688,1,2
144,192,148149,1,2
32,192,148611,1,4
80,328,149072,5,2
136,328,149303,1,0
192,328,149534,1,2
304,328,149996,1,2
336,280,150226,1,0
336,224,150457,1,2
304,176,150688,1,0
280,120,150919,1,2
280,64,151149,1,0
320,24,151380,1,2
208,24,151842,6,4,B|56:24,1,140
88,136,152765,1,2
144,136,152996,1,0
200,136,153226,1,2
256,136,153457,1,0
312,136,153688,1,2
368,136,153919,1,0
424,136,154149,2,2,B|456:208|424:280,1,140
336,208,155072,1,2
240,144,155534,2,0,B|208:216|240:288,1,140,2|2
64,320,156919,6,0,B|216:320|296:320,1,210
440,320,158303,2,0,B|456:232|432:160,1,140
438,180,158996,1,0
328,184,159457,1,0
328,184,159688,2,0,B|160:184,1,140,0|0
256,272,160611,2,0,B|408:272,1,140,0|0
328,184,161534,2,0,B|168:184,1,140,0|0
256,272,162457,2,0,B|424:272,2,140,0|0|4
256,112,163842,6,0,B|80:112,1,140,2|2
116,112,164534,1,0
56,112,164765,2,0,B|48:216,1,70,2|0
48,240,165226,2,0,B|152:248,1,70,2|0
176,248,165688,2,0,B|184:160,1,70,2|0
192,120,166149,2,0,B|32:112,2,140,2|2|2
352,128,167534,5,4
432,136,167765,1,0
424,216,167996,1,2
344,208,168226,1,0
352,128,168457,1,2
432,136,168688,1,0
424,216,168919,5,2
256,200,169380,1,2
272,32,169842,1,2
440,48,170303,1,2
424,216,170765,1,4
384,328,171457,6,0,B|88:328,1,280
104,328,172611,1,0
224,192,173072,2,0,B|328:192,1,70
144,56,173765,2,0,B|376:56,1,210
320,192,174919,1,0
320,192,175149,2,0,B|168:192,2,140
320,192,176303,1,0
256,328,176765,5,4
112,192,177226,1,4
256,64,177688,1,4
400,192,178149,1,4
256,192,178265,12,8,179534
256,192,179996,5,4
