osu file format v9

[General]
AudioFilename: Kyoko no Tsukiyo.mp3
AudioLeadIn: 0
PreviewTime: 57313
Countdown: 0
SampleSet: Soft
StackLeniency: 0.7
Mode: 0
LetterboxInBreaks: 0

[Editor]
DistanceSpacing: 1.2
BeatDivisor: 4
GridSize: 4

[Metadata]
Title:Kyokou no Tsukiyo
Artist:Hatsune Miku
Creator:Lan wings
Version:Normal
Source:Vocaloid
Tags:Moonlight Night Fiction

[Difficulty]
HPDrainRate:4
CircleSize:4
OverallDifficulty:4
ApproachRate:4
SliderMultiplier:1.5
SliderTickRate:2

[Events]
//Background and Video events
0,0,"BG.jpg"
//Break Periods
2,100847,119993
//Storyboard Layer 0 (Background)
//Storyboard Layer 1 (Fail)
//Storyboard Layer 2 (Pass)
//Storyboard Layer 3 (Foreground)
//Storyboard Sound Samples
//Background Colour Transformations
3,100,163,162,255

[TimingPoints]
1980,666.666666666667,4,2,2,42,1,0
21313,-100,4,2,1,22,0,0
21646,-100,4,2,2,42,0,0
36980,-133.333333333333,4,2,2,42,0,0
37980,-100,4,2,2,42,0,0
41981,-133.333333333333,4,2,2,42,0,0
42980,-100,4,2,2,42,0,0
57980,-100,4,2,2,47,0,1
100646,-100,4,2,2,42,0,0
146313,-133.333333333333,4,2,2,42,0,0
147313,-100,4,2,2,42,0,0
151302,-133.333333333333,4,2,2,42,0,0
152313,-100,4,2,2,42,0,0
167313,-100,4,2,2,47,0,1
187980,-100,4,2,2,42,0,0
205313,-133.333333333333,4,2,2,42,0,0
206646,-100,4,2,2,42,0,0
212646,-100,4,2,2,47,0,1
260646,-100,4,2,2,42,0,0

[Colours]
Combo1 : 155,255,155
Combo2 : 128,128,255
Combo3 : 255,255,128
Combo4 : 230,247,255
SliderBorder : 255,255,255

[HitObjects]
152,80,11980,1,8
152,80,12313,1,0
152,80,12647,2,0,B|232:48|300:128,1,150,0|8
336,192,13647,1,0
248,204,13980,2,0,B|280:284|376:276,1,150,0|12
420,204,14980,2,0,B|428:160|388:124,1,75
316,100,15647,2,0,B|192:96|140:236,1,225
300,316,17313,1,4
380,156,17980,6,0,B|329:82|233:118,1,150,0|8
161,138,18980,1,0
77,174,19313,2,0,B|121:254|229:230,1,150,0|12
294,227,20313,1,0
322,314,20647,2,0,B|418:274|354:130|458:50,1,300
280,116,22647,6,0,B|296:72|360:68,2,75,12|0|0
241,198,23647,1,0
225,287,23980,2,0,B|297:347|377:275,1,150,8|0
424,222,24980,1,0
426,133,25313,6,0,B|430:45|330:21,1,150,12|0
304,106,26313,2,0,B|224:106,2,75,0|8|0
334,192,27313,2,0,B|262:248|182:184,1,150,0|12
256,192,28647,12,4,29980
256,192,30647,5,8
368,332,31313,2,0,B|256:396|152:332,1,225
128,248,32647,2,0,B|136:156|252:140,1,150,0|12
312,132,33647,5,0
312,40,33981,2,0,B|400:60|400:152,1,150,0|8
312,132,34981,1,0
312,220,35314,2,0,B|220:200|228:96,1,150,0|12
312,132,36313,2,0,B|308:88|264:60,1,75
180,68,36981,2,0,B|118:136|146:228,1,168.749994970858
324,280,38647,6,0,B|408:308|460:224,2,150,12|0|8
240,252,40314,1,0
216,340,40647,2,0,B|132:300|156:188,1,150,0|12
152,128,41647,1,0
184,48,41981,2,0,B|268:64|292:172,1,168.749994970858
290,165,43313,1,0
468,144,43981,6,0,B|484:104|452:64,2,75,12|0|0
380,124,44981,1,0
364,36,45314,2,0,B|280:12|220:92,1,150,8|0
228,168,46314,1,0
156,224,46647,2,0,B|228:280|296:224,1,150,12|0
340,148,47647,2,0,B|388:164|388:236,2,75,0|8|0
340,148,48647,1,0
188,248,49314,6,0,B|224:284|292:284,2,75,12|0|0
148,168,50313,2,0,B|128:128|140:76,2,75,0|8|0
240,164,51313,2,0,B|376:84,2,150,0|12|12
104,44,53313,6,0,B|49:109|85:195,1,150,0|12
166,343,54647,6,0,B|244:320|250:226,1,150,0|12
382,109,55980,6,0,B|336:38|242:57,1,150,0|12
88,128,57313,5,12
80,216,57646,1,0
168,188,57980,1,0
344,188,58646,1,8
432,216,58979,1,0
424,128,59313,1,2
256,56,59980,5,12
256,56,60313,1,0
256,56,60647,2,0,B|256:152,1,75
176,172,61313,2,0,B|224:248|312:212,1,150,8|2
352,136,62313,2,0,B|360:136|404:144|416:208,1,75,0|12
404,272,62980,6,0,B|392:316|324:320,2,75
324,228,63980,2,0,B|220:108,1,150,8|0
144,80,64980,2,0,B|160:40|208:24,2,75,0|12|0
56,64,65980,2,0,B|8:132|56:240,1,150,0|8
120,256,66980,2,0,B|120:300|76:336,1,75,0|2
114,147,67980,6,0,B|194:83,1,75,12|0
238,163,68647,2,0,B|118:259,2,150,0|8|2
302,227,70313,2,0,B|222:291,2,75,0|12|0
394,231,71313,2,0,B|394:39|190:15,1,300,0|2
70,117,73313,6,0,B|14:29,2,75,12|0|0
70,117,74313,1,0
14,189,74647,2,0,B|118:252|138:142|246:207,1,225,8|0
229,198,75980,1,12
269,22,76647,6,0,B|357:94,1,75
409,30,77313,2,0,B|425:166,2,75,8|0|0
228,36,78646,5,12
140,56,78980,1,0
204,120,79314,2,0,B|148:184|60:184,1,150,0|8
148,256,80314,1,0
240,204,80647,2,0,B|216:284|248:364,1,150,2|12
304,264,81647,1,0
344,168,81980,2,0,B|372:92|456:48,2,150,0|8|0
320,272,83647,2,0,B|272:272|248:212,1,75,0|12
260,148,84313,6,0,B|280:108|328:112,2,75
180,192,85313,2,0,B|348:192,1,150,8|2
408,236,86313,1,0
488,192,86647,1,12
408,148,86980,1,0
408,236,87313,2,0,B|296:84,1,150,0|8
232,144,88313,1,0
148,112,88647,2,0,B|168:56|304:40,1,150,0|12
340,104,89647,5,0
404,40,89980,2,0,B|453:102|452:216,1,150,0|8
360,176,90980,1,0
399,258,91313,2,0,B|320:281|238:221,1,150,2|12
176,192,92313,1,0
256,148,92646,2,0,B|332:105|422:144,2,150,0|0|0
176,192,94313,2,0,B|256:248,1,75,0|12
320,204,94980,6,0,B|376:148,2,75
388,264,95980,2,0,B|251:358|72:276,1,300,0|12
102,198,97647,1,0
191,186,97980,1,0
256,192,98313,12,4,100647
440,72,121313,5,12
440,72,121646,1,0
440,72,121980,2,0,B|497:139|441:221,1,150,0|8
382,148,122980,1,0
361,235,123313,2,0,B|281:195|289:106,1,150,0|12
227,47,124313,2,0,B|187:31|139:55,1,75
216,112,124980,2,0,B|96:104|40:248,1,225
221,273,126646,1,12
400,263,127313,6,0,B|349:197|232:215,1,150,0|8
175,211,128313,1,0
87,189,128646,2,0,B|120:111|239:117,1,150,0|12
265,187,129646,1,0
274,276,129980,2,0,B|354:268|370:148,2,150,0|8|0
188,116,131980,6,0,B|148:132|140:196,2,75,12|0|0
276,92,132980,1,0
334,23,133313,2,0,B|373:96|326:183,1,150,8|0
275,235,134313,1,0
206,292,134646,2,0,B|278:340|358:284,1,150,12|0
415,232,135646,2,0,B|435:190|495:200,2,75,0|8|0
481,295,136646,1,0
395,136,137313,6,0,B|359:117|317:137,1,75,12|0
344,222,137980,2,0,B|261:217|216:126,2,150,0|8|0
188,313,139980,5,12
39,211,140646,2,0,B|69:84|215:63,1,225
228,150,141980,2,0,B|240:232|328:262,1,150,0|12
408,276,142980,5,0
468,208,143314,2,0,B|444:124|340:108,1,150,0|8
276,92,144314,1,0
216,32,144647,2,0,B|144:52|104:152,1,150,0|12
196,164,145647,2,0,B|212:116|264:108,1,75
260,180,146313,2,0,B|376:300,1,168.749994970858
456,172,147980,6,0,B|452:84|376:36,2,150,12|0|8
408,248,149647,1,0
356,172,149980,2,0,B|336:88|240:52,1,150,0|12
252,152,150980,1,0
160,132,151314,2,0,B|180:224|272:252,1,168.749994970858
267,250,152646,1,0
256,69,153314,6,0,B|296:53|348:65,2,75,12|0|0
182,121,154314,1,0
268,148,154647,2,0,B|344:125|412:204,1,150,8|0
316,216,155647,1,0
363,292,155980,2,0,B|284:311|219:228,1,150,12|0
156,192,156980,2,0,B|108:200|92:264,2,75,0|8|0
156,192,157980,1,0
312,100,158647,6,0,B|328:68|384:60,2,75,12|0|0
384,152,159646,2,0,B|416:168|416:232,2,75,0|8|0
300,184,160646,2,0,B|276:224|220:208,2,75,0|0|12
288,364,161980,5,12
59,81,163313,1,4
402,188,164647,2,0,B|419:104|322:52,1,150,12|2
160,50,165980,1,4
112,224,166647,5,12
112,224,166980,1,0
112,224,167313,2,0,B|164:304|254:260,2,150,0|8|2
73,142,168980,1,0
154,103,169313,2,0,B|226:152|306:87,1,150,12|0
367,148,170313,2,0,B|407:228,2,75,0|8|0
296,204,171313,2,0,B|256:292,2,75,2|0|12
340,284,172313,6,0,B|420:284,1,75
448,200,172980,1,0
400,128,173313,2,0,B|208:80,1,150,0|0
80,136,174647,5,12
80,136,174980,1,0
144,200,175313,2,0,B|224:249|200:344,1,150,0|8
292,315,176313,1,0
292,315,176646,2,0,B|277:235|361:171,1,150,0|12
263,146,177647,5,0
175,124,177980,2,0,B|225:54|321:66,1,150,0|8
452,167,179313,2,0,B|391:106|280:135,1,150,2|12
134,151,180647,2,0,B|207:133|321:294|414:279,1,300,0|2
220,305,182647,6,0,B|132:321,2,75,12|0|0
198,217,183647,1,0
196,127,183980,2,0,B|248:123|257:205|336:205,1,150,8|0
441,71,185313,2,0,B|417:39|353:39,2,75,12|0|0
481,151,186313,1,0
449,235,186647,1,8
361,259,186980,1,0
281,219,187313,1,2
104,200,187980,5,12
192,224,188313,1,0
120,280,188647,2,0,B|192:336|268:276,1,150,0|8
192,224,189647,1,0
192,224,189980,2,0,B|160:141|232:80,1,150,2|12
308,128,190980,1,0
296,40,191313,2,0,B|373:5|456:48,2,150,0|8|0
216,84,192980,2,0,B|173:99|160:148,1,75,0|12
160,228,193646,6,0,B|176:268|224:284,2,75
83,179,194646,2,0,B|63:233|110:288|83:331,1,150,8|0
175,328,195646,1,0
254,284,195980,1,12
202,210,196313,1,0
262,143,196646,2,0,B|314:211|420:189,1,150,0|8
346,117,197646,1,0
430,86,197980,2,0,B|378:19|262:46,1,150,2|12
205,53,198980,5,0
141,117,199313,2,0,B|104:197|171:269,1,150,0|8
224,321,200313,1,0
242,233,200646,2,0,B|326:207|372:290,1,150,2|12
458,294,201646,1,0
454,203,201980,2,0,B|467:122|382:75,2,150,0|8|0
407,279,203646,6,0,B|335:207,1,75,0|12
321,141,204313,2,0,B|401:117,2,75
256,84,205313,2,0,B|256:316,1,224.999993294478,8|12
256,308,206980,1,0
256,308,207313,1,0
256,192,207647,12,0,211313
92,228,211980,5,12
148,300,212314,1,0
204,228,212647,1,0
256,300,212980,1,0
312,228,213313,1,8
364,156,213647,5,8
312,84,213980,1,2
256,156,214313,1,0
200,84,214646,1,12
148,156,214980,1,0
132,244,215314,6,0,B|205:200,1,75
248,280,215980,2,0,B|296:200,1,75,8|8
372,244,216647,2,0,B|384:146,2,75,0|0|12
284,232,217647,6,0,B|260:272|204:280,2,75
205,190,218646,2,0,B|141:118,2,75,8|8|0
228,102,219647,2,0,B|244:62|292:46,2,75,0|12|0
143,71,220647,2,0,B|92:140|157:239,1,150,0|8
85,283,221647,2,0,B|99:333|157:339,1,75,8|0
134,334,222313,1,0
224,336,222647,6,0,B|304:272,1,75,12|0
316,205,223314,2,0,B|236:213,3,75,0|0|8|8
152,196,224647,2,0,B|192:124,3,75,2|0|12|0
168,42,225980,2,0,B|352:34|392:234,1,300
206,185,227980,6,0,B|174:153|174:97,2,75,12|0|0
268,252,228980,1,0
292,164,229314,2,0,B|338:105|477:147|524:100,1,225,8|0
472,196,230647,2,0,B|496:292,1,75,12|0
400,258,231314,2,0,B|340:339,1,75
317,231,231980,2,0,B|237:207,2,75,8|0|0
396,68,233314,5,12
356,148,233647,1,0
396,68,233981,2,0,B|348:92|290:41|252:92,1,150,0|8
256,180,234981,1,8
254,90,235314,2,0,B|221:46|156:97|98:67,1,150,2|12
156,148,236313,1,0
228,200,236647,2,0,B|268:224|322:200,3,75,0|0|8|8
356,136,237980,2,0,B|344:96|316:68,2,75,0|0|12
264,132,238980,6,0,B|236:110|190:109,2,75
192,184,239980,2,0,B|220:234|352:216,1,150,8|0
420,223,240980,1,0
444,135,241314,1,12
356,155,241647,1,8
324,239,241980,2,0,B|244:194|268:87,1,150,0|8
186,158,242980,1,8
110,107,243314,2,0,B|144:25|259:40,1,150,2|12
321,36,244313,5,8
410,50,244647,2,0,B|466:104|446:191,1,150,0|8
358,208,245647,1,8
409,278,245980,2,0,B|374:310|334:301,1,75,2|0
279,235,246647,2,0,B|249:202|182:213,1,75,12|0
147,146,247314,2,0,B|222:107|307:154,2,150,0|8|0
127,233,248980,6,0,B|207:289,1,75,0|12
239,201,249647,2,0,B|279:273,2,75,8|0|0
161,154,250647,2,0,B|301:54|441:174,1,300,8|12
340,192,252313,1,0
252,192,252647,1,0
252,192,253313,5,8
88,268,253980,2,0,B|88:116,2,150,0|8|12
256,192,255646,12,4,260646
