osu file format v9

[General]
AudioFilename: Kyoko no Tsukiyo.mp3
AudioLeadIn: 0
PreviewTime: 57313
Countdown: 0
SampleSet: Soft
StackLeniency: 0.7
Mode: 0
LetterboxInBreaks: 0

[Editor]
Bookmarks: 141776,165776,211443
DistanceSpacing: 0
BeatDivisor: 4
GridSize: 4

[Metadata]
Title:Kyokou no Tsukiyo
Artist:Hatsune Miku
Creator:Lan wings
Version:Hard
Source:Vocaloid
Tags:Moonlight Night Fiction

[Difficulty]
HPDrainRate:6
CircleSize:4
OverallDifficulty:6
ApproachRate:6
SliderMultiplier:2
SliderTickRate:2

[Events]
//Background and Video events
0,0,"BG.jpg"
//Break Periods
2,100846,120263
//Storyboard Layer 0 (Background)
//Storyboard Layer 1 (Fail)
//Storyboard Layer 2 (Pass)
//Storyboard Layer 3 (Foreground)
//Storyboard Sound Samples
//Background Colour Transformations
3,100,163,162,255

[TimingPoints]
1980,666.666666666667,4,2,2,20,1,0
12647,-100,4,2,2,42,0,0
39646,-100,4,2,1,22,0,0
39813,-100,4,2,2,42,0,0
40313,-100,4,2,1,22,0,0
40480,-100,4,2,2,42,0,0
57980,-100,4,2,2,47,0,1
75313,-100,4,2,1,22,0,1
75646,-100,4,2,2,47,0,1
79646,-100,4,2,1,22,0,1
79813,-100,4,2,2,47,0,1
80313,-100,4,2,1,22,0,1
80480,-100,4,2,2,47,0,1
80980,-100,4,2,1,22,0,1
81146,-100,4,2,2,47,0,1
81646,-100,4,2,1,22,0,1
81813,-100,4,2,2,47,0,1
100646,-100,4,2,2,42,0,0
148980,-100,4,2,1,22,0,0
149146,-100,4,2,2,42,0,0
149646,-100,4,2,1,22,0,0
149813,-100,4,2,2,42,0,0
167313,-100,4,2,2,47,0,1
178313,-100,4,2,1,22,0,1
178480,-100,4,2,2,47,0,1
178980,-100,4,2,1,22,0,1
179146,-100,4,2,2,47,0,1
179646,-100,4,2,1,22,0,1
179813,-100,4,2,2,47,0,1
180313,-100,4,2,1,22,0,1
180480,-100,4,2,2,47,0,1
187980,-100,4,2,2,42,0,0
212646,-100,4,2,2,47,0,1
260646,-100,4,2,2,42,0,0

[Colours]
Combo1 : 155,255,155
Combo2 : 128,128,255
Combo3 : 255,255,128
Combo4 : 230,247,255
SliderBorder : 255,255,255

[HitObjects]
152,72,11980,1,0
248,144,12313,1,0
132,176,12647,2,0,B|44:112,2,100,0|0|8
132,176,13646,1,0
240,232,13980,2,0,B|164:296,2,100,0|0|12
240,232,14980,1,0
304,128,15313,6,0,B|416:184,1,100,0|0
496,240,15980,2,0,B|466:289|384:312,1,100,8|0
296,304,16647,2,0,B|192:296|128:192,2,200,2|12|0
296,184,18312,5,0
296,184,18646,1,8
416,184,18980,2,0,B|376:64,1,100,0|0
268,116,19646,1,0
268,116,19980,1,12
168,184,20313,2,0,B|80:248,2,100,0|0|2
232,80,21313,2,0,B|128:56,2,100,8|0|2
453,174,22647,5,12
408,284,22980,1,0
336,188,23313,1,2
448,236,23647,1,0
336,188,23980,2,0,B|336:300,2,100,8|0|2
256,60,24980,1,0
112,104,25313,5,12
228,136,25647,1,0
132,208,25979,1,2
176,96,26313,1,0
132,208,26646,2,0,B|252:200,2,100,8|0|2
256,292,27647,1,0
404,280,27980,6,0,B|460:256|476:176,1,100,12|0
348,184,28646,1,2
348,184,28980,1,0
336,64,29313,2,0,B|280:72|248:152,1,100,8|0
304,236,29979,1,2
304,236,30313,1,0
304,236,30646,1,12
24,120,31313,5,2
60,264,31646,1,0
96,120,31979,1,8
132,264,32313,1,0
264,192,32647,1,2
488,108,33313,5,12
488,108,33647,2,0,B|432:236,1,100,0|0
380,300,34313,2,0,B|356:348,2,50,0|0|8
312,200,34980,2,0,B|248:208|208:168,1,100,0|2
116,112,35646,2,0,B|60:112,2,50,0|0|12
232,80,36313,2,0,B|292:76|340:112,1,100,0|0
356,156,36813,2,0,B|420:156,2,50,2|0|0
296,156,37313,1,8
176,156,37646,2,0,B|120:156,2,50,0|2|0
176,156,38313,1,2
60,128,38647,5,12
168,88,38980,1,0
60,128,39313,2,0,B|76:216|140:264,1,150,2|0
148,312,39980,2,0,B|224:316|296:252,1,150,8|0
285,261,40647,1,2
392,204,40980,2,0,B|448:192,2,50,2|2|12
292,140,41647,2,0,B|244:108|164:100,1,100
176,160,42147,2,0,B|176:256,1,50,2|0
140,258,42480,2,0,B|76:258,1,50,0|8
210,258,42980,2,0,B|266:258,2,50,0|2|0
257,147,43647,1,2
256,28,43980,5,4
256,28,44313,1,0
344,108,44647,2,0,B|464:156,1,100,2|0
340,216,45313,2,0,B|244:320,1,100,8|0
236,176,45980,2,0,B|196:80,1,100,2|0
92,144,46647,2,0,B|64:192|96:244,1,100,12|0
204,192,47313,1,2
324,192,47647,2,0,B|380:192,2,50,0|0|8
212,144,48313,2,0,B|180:192|220:248,1,100,0|2
324,192,48980,1,0
324,192,49313,1,12
256,292,49647,6,0,B|256:340,2,50,0|0|2
324,192,50313,1,0
324,192,50647,1,8
256,92,50980,2,0,B|256:28,2,50,0|0|2
200,200,51647,2,0,B|304:200,1,100,0|12
136,24,52647,5,6
256,112,52980,2,0,B|368:184,2,100,0|2|0
376,24,53980,1,6
256,112,54313,2,0,B|144:184,2,100,0|2|0
256,264,55313,1,6
256,112,55647,2,0,B|256:0,2,100,0|2|0
256,112,56647,1,6
488,48,57313,5,12
488,48,57647,2,0,B|485:103|448:160,1,100,0|2
360,72,58313,2,0,B|320:104|312:176,1,100,8|8
428,200,58980,1,0
344,288,59313,1,2
224,288,59647,2,0,B|208:352,2,50,2|2|12
256,172,60313,1,0
256,172,60647,1,2
136,192,60980,2,0,B|64:204,2,50,2|2|8
256,172,61647,5,0
352,244,61980,1,2
420,144,62313,1,8
324,72,62647,1,12
204,72,62980,2,0,B|132:80,2,50,2|2|0
324,72,63647,2,0,B|372:120|324:200,1,100,0|8
252,244,64313,1,0
148,184,64647,1,2
36,224,64980,2,0,B|68:344,2,100,0|12|8
24,104,65980,6,0,B|81:72|168:144|232:88,1,200,2|8
340,84,66980,2,0,B|404:92|444:164,1,100,0|2
436,252,67647,2,0,B|404:292|404:292,2,50,0|0|12
436,252,68313,1,0
332,192,68646,6,0,B|248:120,1,100,0|8
272,248,69313,2,0,B|176:312,1,100,8|0
208,184,69980,2,0,B|112:112,1,100,0|8
128,244,70647,2,0,B|40:300,1,100,12|0
20,180,71313,5,0
72,72,71647,2,0,B|40:24,2,50,2|2|8
192,80,72313,1,0
300,132,72647,1,2
300,252,72980,1,8
192,304,73313,1,12
72,320,73647,2,0,B|16:368,2,50,2|2|0
112,208,74313,5,2
112,208,74647,2,0,B|232:96|264:216|384:72,1,300,8|2
492,104,75980,2,0,B|428:144|477:263|428:304,1,200,12|0
320,268,76980,2,0,B|360:156,1,100,0|8
256,76,77646,2,0,B|256:180,1,100,0|2
192,268,78313,2,0,B|152:156,1,100,8|12
216,68,78980,5,0
320,128,79313,2,0,B|392:160|424:252,1,150,2|0
408,276,79980,2,0,B|325:276|256:356,1,150,8|0
236,336,80647,2,0,B|180:272|92:272,1,150,2|0
88,236,81313,2,0,B|120:152|208:116,1,150,8|0
224,112,81980,1,2
344,116,82313,6,0,B|408:116,2,50,2|2|8
252,192,82980,1,8
344,268,83313,1,2
436,192,83647,1,2
344,116,83980,1,12
228,80,84313,6,0,B|228:24,2,50,2|2|0
120,132,84980,1,8
120,252,85313,1,8
120,132,85647,1,0
120,252,85980,1,2
224,192,86313,1,0
104,192,86647,1,12
104,192,86980,1,0
104,192,87313,6,0,B|312:192,2,200,2|8|2
12,112,88980,1,0
104,192,89313,1,12
124,72,89647,1,2
244,56,89980,6,0,B|355:55|444:144,1,200,2|8
416,248,90980,1,2
312,308,91313,2,0,B|216:308|112:228,1,200,2|12
88,124,92313,2,0,B|102:102|160:116|192:92,1,100,2|2
292,144,92980,2,0,B|300:216,2,50,0|0|8
280,24,93647,1,0
392,68,93980,1,2
408,188,94313,1,8
320,272,94647,1,12
200,284,94980,6,0,B|208:212,2,50,2|2|0
80,260,95647,1,2
20,156,95980,2,0,B|108:76|212:140,1,200,8|0
304,204,96980,1,8
416,252,97313,2,0,B|392:300|336:316,2,100,12|0|6
256,192,98146,12,4,100646
104,104,121313,6,0,B|216:104,1,100,12|0
176,220,121980,2,0,B|368:132,1,200,2|8
240,120,122980,2,0,B|320:80,2,50,2|2|0
136,180,123647,2,0,B|264:228,1,100,0|12
348,240,124313,2,0,B|252:288,1,100,0|2
192,184,124980,1,2
308,160,125313,1,8
192,132,125647,1,0
256,32,125980,6,0,B|256:240,1,200,2|12
356,296,126980,1,0
240,328,127313,2,0,B|128:360|56:264,1,200,2|8
24,156,128313,2,0,B|76:148|80:176|128:164,1,100,2|0
240,192,128980,2,0,B|232:248,2,50,2|2|12
208,76,129647,2,0,B|268:72|312:112,1,100,2|0
388,188,130313,1,0
388,188,130647,1,8
336,296,130980,1,0
336,296,131313,1,2
128,176,131980,5,12
128,176,132313,1,2
128,176,132647,2,0,B|171:149|240:168,1,100,2|0
264,176,133147,1,0
272,216,133313,2,0,B|239:264|176:256,1,100,8|0
68,232,133980,1,2
68,232,134313,1,0
88,112,134647,6,0,B|115:65|176:48,1,100,12|2
204,40,135147,1,0
244,40,135313,2,0,B|316:48|356:120,1,100,2|0
400,184,135980,2,0,B|408:248|336:292,1,100,8|0
252,316,136647,1,2
252,316,136980,1,0
240,196,137313,6,0,B|288:180|312:116,1,100,12|2
300,88,137813,1,0
276,56,137980,2,0,B|180:16,1,100,2|0
144,152,138647,2,0,B|24:200,1,100,8|0
176,252,139313,2,0,B|96:348,1,100,2|0
252,336,139980,2,0,B|332:240,1,100,12|0
436,252,140647,2,0,B|382:158|258:151,1,200,2|8
152,152,141647,2,0,B|104:152,2,50,2|2|0
388,116,142647,6,0,B|496:32,2,100,12|0|2
272,152,143647,2,0,B|252:248,1,100,2|8
251,249,144313,1,2
130,250,144647,2,0,B|98:298,2,50,2|2|0
200,152,145313,1,12
200,152,145647,1,2
304,92,145980,6,0,B|360:68,1,50,0|2
400,180,146480,2,0,B|384:236,1,50,0|8
272,192,146980,1,0
152,192,147313,2,0,B|96:192,4,50,2|0|2|0|12
240,272,148313,5,0
360,296,148647,2,0,B|448:240|456:176,1,150,2|0
396,168,149313,2,0,B|428:120|428:8,1,150,8|0
427,23,149980,1,2
316,68,150313,2,0,B|364:36,2,50,2|2|12
436,76,150980,2,0,B|324:148,1,100
296,152,151480,6,0,B|224:172,1,50,2|2
292,208,151813,2,0,B|288:256,1,50,0|8
248,212,152147,2,0,B|176:236,1,50,2|2
244,268,152480,2,0,B|236:336,1,50,0|0
256,76,153313,5,12
256,76,153647,1,0
256,76,153980,2,0,B|48:196,1,200,2|8
256,76,154980,1,0
140,44,155313,2,0,B|252:228,1,200,2|12
140,44,156313,1,0
84,152,156647,6,0,B|148:264,1,100,2|2
164,264,157147,1,0
204,272,157313,1,8
324,268,157647,2,0,B|428:236,1,100,2|2
336,152,158313,2,0,B|248:64,1,100,0|12
164,148,158980,5,0
164,148,159313,1,2
48,120,159646,2,0,B|24:48,2,50,2|0|8
112,224,160313,1,0
224,272,160647,1,2
344,248,160980,1,0
416,152,161313,1,12
256,336,161980,5,6
360,272,162313,2,0,B|464:272,2,100,0|8|0
256,216,163313,1,6
152,152,163646,2,0,B|48:152,2,100,0|8|0
256,96,164647,1,6
360,40,164980,2,0,B|464:40,2,100,0|8|0
256,96,165980,1,6
16,80,166646,6,0,B|24:136|56:200,1,100,12|0
116,80,167313,2,0,B|158:111|220:112,1,100,2|2
248,112,167814,1,0
288,112,167980,2,0,B|341:115|384:152,1,100,12|8
412,172,168480,1,0
428,208,168647,2,0,B|380:248|300:208,1,100,2|2
296,208,169147,1,0
260,192,169313,6,0,B|212:168|140:184,1,100,12|2
124,188,169814,1,0
88,204,169980,2,0,B|96:260|200:284,1,100,2|2
192,284,170480,1,0
232,288,170647,2,0,B|288:296|336:256,1,100,8|8
424,196,171314,1,2
424,196,171647,1,2
424,196,171980,6,0,B|416:136|360:108,1,100,12|0
336,100,172480,1,2
296,88,172646,2,0,B|248:72|192:104,2,100,2|0|8
256,204,173647,1,8
164,124,173980,2,0,B|108:112|68:164,2,100,0|0|12
132,240,174980,2,0,B|92:280|108:344,1,100,2|0
212,280,175646,2,0,B|272:264|276:184,2,100,2|8|2
212,280,176647,1,2
8,136,177313,6,0,B|29:82|104:64,1,100,12|0
200,64,177980,2,0,B|352:104,1,150,2|0
344,144,178647,2,0,B|184:168,1,150,8|0
196,208,179313,2,0,B|348:232,1,150,2|0
344,272,179980,2,0,B|184:288,1,150,12|0
136,276,180647,2,0,B|58:233|64:140,2,150,2|2|2
188,168,181980,1,2
188,168,182647,5,12
76,124,182980,2,0,B|20:100,2,50,2|2|0
188,168,183647,1,8
300,212,183980,2,0,B|356:228|428:204,2,100,8|0|2
256,324,184980,2,0,B|200:316|168:260,2,100,0|12|0
256,324,185980,1,2
256,84,186647,5,8
316,188,186980,1,0
196,188,187313,1,2
408,300,187980,5,12
432,184,188313,1,0
320,228,188647,1,2
224,300,188980,2,0,B|176:332,2,50,0|0|8
120,240,189647,2,0,B|64:248,2,50,0|0|2
96,120,190313,2,0,B|48:96,2,50,0|0|12
188,40,190980,2,0,B|236:60|272:132,1,100
320,212,191646,2,0,B|376:236,2,50,0|0|8
316,92,192313,1,0
316,92,192646,1,2
320,212,192980,1,2
320,212,193313,1,12
404,124,193647,6,0,B|444:76,2,50,0|0|2
404,244,194313,2,0,B|404:356,1,100,0|8
344,216,194980,2,0,B|288:312,1,100,0|2
300,164,195647,2,0,B|188:212,1,100,0|12
300,96,196313,2,0,B|180:80,2,100,0|2|0
420,116,197313,1,8
420,116,197647,1,0
300,96,197980,2,0,B|196:80,1,100
80,72,198647,1,12
80,72,198980,1,0
200,68,199313,6,0,B|256:88|272:140,1,100,2|0
284,172,199813,1,0
284,212,199980,1,8
164,224,200313,1,8
284,212,200647,6,0,B|288:276|228:316,1,100,2|0
212,324,201147,1,0
176,344,201314,1,12
164,224,201647,1,8
176,344,201980,6,0,B|124:352|72:296,1,100,2|0
60,280,202480,1,0
44,244,202647,1,8
164,224,202980,1,8
44,244,203313,6,0,B|24:196|44:140,2,100,2|0|12
152,192,204313,2,0,B|80:192,2,50,2|2|0
272,192,204980,1,2
272,192,205313,2,0,B|272:104|153:100|152:200,1,200,8|0
152,312,206313,6,0,B|152:360,2,50,2|2|12
152,192,206980,1,0
152,192,207313,1,14
152,72,207646,2,0,B|152:16,2,50,0|0|2
248,144,208313,2,0,B|272:192|240:272,1,100,0|12
256,192,208980,12,12,209980
256,192,210313,12,12,211313
440,208,211980,6,0,B|320:184,1,100,12|0
324,68,212647,2,0,B|148:164,1,200,2|8
80,264,213647,1,8
192,312,213980,1,2
312,296,214313,1,2
424,256,214647,1,12
472,144,214980,6,0,B|480:88,2,50,2|2|0
352,120,215647,2,0,B|336:56,2,50,2|2|8
296,224,216313,1,0
176,208,216647,1,0
152,88,216980,1,8
272,104,217313,1,12
360,184,217647,6,0,B|392:264,2,50,2|2|0
248,144,218313,2,0,B|200:176|184:248,1,100,0|8
208,344,218980,1,8
192,224,219313,1,2
192,224,219647,2,0,B|200:176|248:144,1,100,0|12
344,72,220313,2,0,B|400:32,2,50,2|0|2
320,192,220980,2,0,B|296:248|224:288,1,100,0|8
140,296,221647,2,0,B|68:304,2,50,2|0|2
252,248,222313,5,0
316,144,222647,1,12
372,248,222980,1,0
252,248,223313,1,2
252,248,223646,5,8
316,144,223980,1,2
212,80,224313,1,0
212,80,224647,5,2
212,176,224980,1,8
212,176,225313,1,12
212,176,225647,1,0
212,296,225980,6,0,B|266:312|316:296,1,100,2|0
348,284,226480,1,2
380,260,226647,1,8
280,192,226980,1,8
372,116,227313,2,0,B|319:99|268:116,1,100,2|0
236,128,227813,1,2
208,156,227980,1,12
256,268,228313,1,0
256,268,228647,1,2
136,284,228980,5,2
136,284,229147,1,0
136,284,229313,2,0,B|115:183|160:60,1,200,8|0
256,20,230313,1,0
352,92,230647,2,0,B|385:194|336:332,1,200,12|0
236,336,231647,2,0,B|156:344,2,50,0|0|8
236,336,232313,1,2
236,336,232647,1,2
256,96,233313,6,0,B|200:104|168:160,1,100,12|0
192,268,233980,2,0,B|304:260|352:148,2,200,2|8|2
164,152,235647,1,0
256,76,235980,1,12
256,196,236313,2,0,B|256:260,2,50,2|2|0
256,76,236980,2,0,B|256:20,2,50,2|2|8
256,76,237647,1,8
256,76,237980,1,2
344,156,238313,2,0,B|432:236,1,100,0|12
328,304,238980,5,2
328,304,239147,1,0
328,304,239313,2,0,B|192:304,1,100,2|0
288,200,239980,2,0,B|160:160,1,100,8|8
72,152,240647,1,2
72,272,240980,1,0
72,152,241313,1,12
72,272,241647,1,0
152,184,241980,2,0,B|240:80,3,100,2|0|8|0
216,107,243313,1,2
444,176,243980,5,12
368,268,244313,1,0
248,280,244647,1,2
128,256,244980,1,2
128,256,245147,1,0
128,256,245313,2,0,B|80:216|72:144,1,100,8|8
72,52,245980,5,2
192,72,246313,1,2
192,72,246480,1,0
192,72,246647,2,0,B|248:160|368:192,1,200,12|8
402,78,247646,5,2
402,78,247813,1,0
402,78,247980,2,0,B|453:111|474:166,1,100,8|8
352,187,248647,1,2
467,153,248980,2,0,B|459:217|419:249,1,100,0|12
312,280,249647,5,2
256,300,249813,1,0
200,280,249980,1,2
280,192,250313,1,0
280,192,250647,1,8
320,80,250980,1,0
280,192,251313,1,2
196,108,251647,1,0
280,192,251980,1,12
256,56,252647,5,2
256,328,253313,1,2
120,192,253980,1,2
392,192,254646,1,2
256,192,255313,1,2
256,192,255647,1,2
256,192,255813,1,0
256,192,255980,1,12
256,192,256146,12,4,260646
