osu file format v9

[General]
AudioFilename: Kyoko no Tsukiyo.mp3
AudioLeadIn: 0
PreviewTime: 57313
Countdown: 0
SampleSet: Soft
StackLeniency: 0.7
Mode: 0
LetterboxInBreaks: 0

[Editor]
DistanceSpacing: 1.2
BeatDivisor: 1
GridSize: 4

[Metadata]
Title:Kyokou no Tsukiyo
Artist:Hatsune Miku
Creator:Lan wings
Version:Easy
Source:Vocaloid
Tags:Moonlight Night Fiction

[Difficulty]
HPDrainRate:3
CircleSize:3
OverallDifficulty:2
ApproachRate:2
SliderMultiplier:0.800000005960464
SliderTickRate:2

[Events]
//Background and Video events
0,0,"BG.jpg"
//Break Periods
2,100847,119753
//Storyboard Layer 0 (Background)
//Storyboard Layer 1 (Fail)
//Storyboard Layer 2 (Pass)
//Storyboard Layer 3 (Foreground)
//Storyboard Sound Samples
//Background Colour Transformations
3,100,163,162,255

[TimingPoints]
1980,666.666666666667,4,2,2,42,1,0
57980,-100,4,2,2,47,0,1
100646,-100,4,2,2,42,0,0
167313,-100,4,2,2,47,0,1
187980,-100,4,2,2,42,0,0
212646,-100,4,2,2,47,0,1
260646,-100,4,2,2,42,0,0

[Colours]
Combo1 : 155,255,155
Combo2 : 128,128,255
Combo3 : 255,255,128
Combo4 : 230,247,255
SliderBorder : 255,255,255

[HitObjects]
256,56,11980,1,12
164,84,12647,2,0,B|140:188|196:276,1,160.000001192093,0|0
244,308,14647,1,12
340,304,15313,2,0,B|412:280|452:184,1,160.000001192093
412,104,17313,6,0,B|492:56,2,80.0000005960464,12|0|2
344,36,19313,2,0,B|252:120|96:84,1,240.000001788139,0|2
118,88,21980,1,0
156,176,22647,6,0,B|124:288,1,80.0000005960464,12|0
228,272,23980,2,0,B|312:284,1,80.0000005960464,2|0
348,196,25313,2,0,B|412:140,1,80.0000005960464,12|0
352,64,26647,2,0,B|264:56,1,80.0000005960464,2|0
188,104,27980,5,12
136,184,28647,2,0,B|197:226|304:256,1,160.000001192093
360,196,30647,2,0,B|416:268,1,80.0000005960464,12|0
256,144,32647,1,0
172,96,33313,6,0,B|76:128,1,80.0000005960464,12|0
164,188,34647,2,0,B|124:260,1,80.0000005960464,8|0
220,268,35980,2,0,B|220:348,2,80.0000005960464,12|0|8
260,180,37980,1,0
308,96,38647,5,12
368,172,39313,2,0,B|432:308,1,80.0000005960464,0|8
312,280,40647,2,0,B|216:312,2,80.0000005960464,0|12|0
272,192,42647,1,8
256,96,43313,6,0,B|176:72,2,80.0000005960464,0|12|0
340,144,45313,1,8
276,216,45980,1,0
180,224,46647,1,12
92,188,47313,1,0
64,96,47980,2,0,B|104:64|152:64,1,80.0000005960464,8|0
232,56,49313,1,12
256,192,49980,12,12,52647
256,192,53980,12,12,56647
168,232,57980,6,0,B|120:216|96:160,1,80.0000005960464,0|8
192,136,59313,1,2
108,88,59980,2,0,B|137:47|188:48,1,80.0000005960464,12|0
268,72,61313,2,0,B|300:152|260:248,1,160.000001192093,8|12
188,284,63313,6,0,B|211:320|268:332,1,80.0000005960464,0|8
344,300,64647,1,2
416,236,65313,1,12
408,140,65980,2,0,B|391:98|352:76,1,80.0000005960464,0|8
268,48,67313,2,0,B|220:32|172:56,1,80.0000005960464,0|12
108,100,68647,5,0
132,192,69313,1,8
216,240,69980,1,2
304,280,70647,1,12
396,304,71313,2,0,B|455:243|468:160,1,160.000001192093,0|2
376,136,73313,6,0,B|424:56,1,80.0000005960464,12|0
320,64,74647,2,0,B|231:90|144:184,1,160.000001192093,8|12
108,204,76647,2,0,B|190:227|260:276,1,160.000001192093
280,180,78647,6,0,B|312:148|376:132,2,80.0000005960464,12|0|8
360,232,80647,1,2
436,172,81313,1,12
428,76,81980,1,0
340,36,82647,2,0,B|260:44|180:108,1,160.000001192093,8|12
152,184,84647,6,0,B|215:185|240:176,1,80.0000005960464,0|8
316,132,85980,2,0,B|368:127|412:140,1,80.0000005960464,0|12
424,228,87313,2,0,B|368:276|248:316,1,160.000001192093,0|2
188,304,89313,1,12
188,304,89980,5,0
112,244,90647,1,8
112,244,91313,2,0,B|152:148,1,80.0000005960464,2|12
60,120,92647,1,0
60,120,93313,2,0,B|130:69|130:69|212:64,1,160.000001192093,8|12
300,76,95313,5,0
360,152,95980,2,0,B|372:239|352:344,1,160.000001192093,8|12
256,192,97980,12,12,100647
256,328,121313,5,12
256,328,121980,2,0,B|160:296|128:208,1,160.000001192093
80,152,123980,1,12
96,56,124646,2,0,B|168:80|208:176,1,160.000001192093
252,252,126646,6,0,B|284:284|340:276,2,80.0000005960464,12|0|8
288,164,128646,2,0,B|164:120|40:212,1,240.000001788139,0|8
120,272,131313,1,0
216,280,131980,6,0,B|240:160,1,80.0000005960464,12|0
148,152,133313,2,0,B|232:108,1,80.0000005960464,8|0
228,20,134646,2,0,B|312:72,1,80.0000005960464,12|0
336,148,135980,2,0,B|256:168,1,80.0000005960464,8|0
258,167,137313,5,12
208,248,137980,2,0,B|277:258|408:192,1,160.000001192093
460,212,139980,2,0,B|452:164|412:132,1,80.0000005960464,12|0
256,232,141980,1,0
172,280,142646,6,0,B|76:248,1,80.0000005960464,12|0
172,196,143980,2,0,B|132:124,1,80.0000005960464,8|0
228,140,145313,2,0,B|236:52,2,80.0000005960464,12|0|8
244,236,147313,1,0
332,276,147980,5,12
384,196,148646,2,0,B|416:88,1,80.0000005960464,0|8
312,128,149980,2,0,B|232:168,2,80.0000005960464,0|12|0
244,60,151980,1,8
152,32,152646,6,0,B|112:104,2,80.0000005960464,0|12|0
236,80,154646,1,8
196,168,155313,1,0
156,256,155980,1,12
116,344,156646,1,0
212,340,157313,2,0,B|268:340|308:308,1,80.0000005960464,8|0
288,321,158646,1,12
256,192,159313,12,4,161980
256,192,163313,12,12,165980
284,284,167314,6,0,B|332:268|356:208,1,80.0000005960464,0|8
256,192,168647,1,2
336,140,169314,2,0,B|307:99|256:100,1,80.0000005960464,12|0
176,120,170647,2,0,B|144:200|184:296,1,160.000001192093,8|12
268,248,172647,6,0,B|245:284|268:328,1,80.0000005960464,0|8
356,288,173981,1,2
452,288,174647,1,12
412,200,175314,2,0,B|395:158|356:136,1,80.0000005960464,0|8
292,72,176647,2,0,B|340:56|388:64,1,80.0000005960464,0|12
444,124,177981,5,0
368,184,178647,1,8
272,180,179314,1,2
192,128,179981,1,12
152,216,180647,2,0,B|93:155|80:72,1,160.000001192093,0|2
176,88,182647,6,0,B|192:136|224:168,1,80.0000005960464,12|0
272,80,183981,2,0,B|336:136|304:240,1,160.000001192093,8|12
228,172,185981,2,0,B|146:195|76:244,1,160.000001192093
160,296,187980,6,0,B|208:296|248:248,2,80.0000005960464,12|0|8
84,240,189981,1,2
92,144,190647,1,12
188,160,191314,1,0
252,232,191981,2,0,B|323:185|332:120|372:96,1,160.000001192093,8|12
276,56,193980,6,0,B|232:40|176:76,1,80.0000005960464,0|8
224,156,195314,2,0,B|188:180|128:164,1,80.0000005960464,0|12
60,208,196646,2,0,B|116:276|136:208|220:304,1,160.000001192093,0|2
292,308,198647,5,12
388,312,199314,1,0
452,240,199981,1,8
356,236,200647,2,0,B|316:140,1,80.0000005960464,2|12
280,76,201981,1,0
188,48,202647,2,0,B|108:56|36:120,1,160.000001192093,8|12
96,192,204647,5,0
44,272,205313,2,0,B|112:328|192:336,1,160.000001192093,8|12
256,192,207314,12,12,211313
264,112,212647,6,0,B|216:104|152:128,1,80.0000005960464,0|8
96,152,213980,1,2
108,248,214647,2,0,B|137:207|188:208,1,80.0000005960464,12|0
200,300,215980,2,0,B|280:332|376:292,1,160.000001192093,8|12
280,240,217980,6,0,B|280:160,1,80.0000005960464,0|8
332,80,219314,1,2
236,80,219980,1,12
152,128,220647,2,0,B|112:144|96:192,1,80.0000005960464,0|8
196,196,221980,2,0,B|172:228|172:284,1,80.0000005960464,0|12
268,256,223314,5,0
356,216,223980,1,8
268,180,224647,1,2
356,140,225314,1,12
380,48,225980,2,0,B|440:104|448:192,1,160.000001192093,0|2
352,192,227980,6,0,B|336:240|304:272,1,80.0000005960464,12|0
224,224,229314,2,0,B|168:288|64:256,1,160.000001192093,8|12
4,196,231314,2,0,B|20:108|84:44,1,160.000001192093,0|2
168,40,233314,6,0,B|216:40|256:88,2,80.0000005960464,12|0|8
144,132,235314,1,2
232,168,235980,1,12
144,204,236647,1,0
144,204,237314,2,0,B|168:292|208:248|256:340,1,160.000001192093,8|12
292,240,239313,6,0,B|340:232|388:272,1,80.0000005960464,0|8
440,192,240647,2,0,B|448:148|432:96,1,80.0000005960464,0|12
348,76,241980,2,0,B|292:44|244:148|180:124,1,160.000001192093,0|2
244,216,243980,5,12
148,208,244647,1,0
112,120,245314,1,8
208,128,245980,2,0,B|312:144,1,80.0000005960464,2|12
376,176,247314,1,0
444,112,247980,2,0,B|384:48|292:72,1,160.000001192093,8|12
204,80,249980,5,0
132,144,250647,2,0,B|72:208|92:328,1,160.000001192093,8|12
172,340,252647,2,0,B|256:352|348:272,1,160.000001192093,0|2
416,280,254647,1,12
356,204,255313,1,0
256,192,255980,12,4,260647
