osu file format v9

[General]
AudioFilename: __.mp3
AudioLeadIn: 0
PreviewTime: 48623
Countdown: 0
SampleSet: Normal
StackLeniency: 0.7
Mode: 0
LetterboxInBreaks: 1

[Editor]
Bookmarks: 19036,48632,52094,56017,70844,115498,129863
DistanceSpacing: 0.8
BeatDivisor: 4
GridSize: 8

[Metadata]
Title:Kusaregedou to Chocolate
Artist:Hatsune Miku
Creator:val0108
Version:Insane
Source:Vocaloid
Tags:kinopioP

[Difficulty]
HPDrainRate:7
CircleSize:5
OverallDifficulty:8
ApproachRate:9
SliderMultiplier:1.8
SliderTickRate:1

[Events]
//Background and Video events
0,0,"wsdfsdfsdf.jpg"
//Break Periods
2,11666,17558
2,63589,69250
2,115281,127404
//Storyboard Layer 0 (Background)
//Storyboard Layer 1 (Fail)
//Storyboard Layer 2 (Pass)
//Storyboard Layer 3 (Foreground)
//Storyboard Sound Samples
//Background Colour Transformations
3,100,163,162,255

[TimingPoints]
620,230.769230769231,4,1,1,82,1,0
5870,-100,4,1,0,60,0,0
5985,-100,4,1,1,58,0,0
7716,-100,4,1,0,60,0,0
7831,-100,4,1,1,58,0,0
9562,-100,4,1,0,60,0,0
9677,-100,4,1,1,58,0,0
10716,-100,4,2,2,60,0,0
19023,-100,4,1,1,58,0,0
20639,-100,4,1,0,60,0,0
20754,-100,4,1,1,58,0,0
22485,-100,4,1,0,60,0,0
22600,-100,4,1,1,58,0,0
25485,-100,4,2,1,61,0,0
26177,-100,4,1,1,58,0,0
29177,-100,4,2,1,61,0,0
29870,-100,4,1,1,58,0,0
32870,-100,4,2,2,60,0,0
32985,-100,4,1,1,58,0,0
36562,-100,4,2,1,61,0,0
37023,-100,4,2,2,60,0,0
37139,-100,4,1,1,58,0,0
39331,-100,4,2,1,61,0,0
41065,-100,4,1,1,58,0,0
43946,-100,4,2,1,61,0,0
44754,-100,4,1,1,58,0,0
48331,-100,4,2,2,60,0,0
48620,-100,4,1,1,61,0,1
63389,-100,4,1,0,60,0,0
69793,-100,4,2,1,61,0,0
70716,-100,4,1,1,58,0,0
72334,-100,4,1,1,58,0,0
72446,-100,4,1,1,58,0,0
74177,-100,4,1,1,58,0,0
74293,-100,4,1,1,58,0,0
76254,-100,4,2,1,61,0,0
77870,-100,4,1,1,58,0,0
80870,-100,4,2,1,61,0,0
81677,-100,4,1,1,58,0,0
85254,-100,4,1,0,60,0,0
85543,-100,4,1,1,61,0,1
99389,-200,4,2,0,59,0,0
127949,-100,4,2,1,82,0,0
146466,-100,4,1,1,61,0,1
153562,-100,4,1,0,60,0,1
153677,-100,4,1,1,61,0,1
160946,-100,4,1,0,60,0,1
161062,-100,4,1,1,61,0,1
170466,-100,4,1,0,61,0,0
170639,-100,4,1,1,61,0,0
190716,-100,4,1,1,0,0,0

[Colours]
Combo1 : 196,64,0
Combo2 : 0,145,11
Combo3 : 202,0,0
Combo4 : 86,0,181

[HitObjects]
96,232,4312,2,0,B|88:320|88:320|152:336|152:336|208:328,1,180,0|8
248,336,4658,1,0
280,272,4773,2,0,B|336:272|352:208,2,90,0|0|12
224,224,5120,1,0
168,176,5235,6,0,B|80:176|80:176|72:120|72:120|120:88,1,180,0|8
156,53,5581,1,0
208,104,5696,2,0,B|241:147|286:102,2,90,0|0|4
344,56,6158,5,0
411,79,6273,1,0
368,136,6389,2,0,B|344:184|416:208,1,90,8|0
475,221,6620,2,0,B|499:269|427:293,1,90
387,339,6850,2,0,B|344:312|352:256,1,90,12|0
280,264,7081,6,0,B|160:264,2,90,2|2|10
241,325,7427,2,2,B|241:117,1,180
241,145,7773,1,10
241,145,7889,1,0
168,136,8004,6,0,B|184:80|312:80|320:160,1,180,0|8
377,103,8350,1,0
328,48,8466,2,0,B|280:24|216:24,1,90,0|0
168,32,8696,2,0,B|112:56|96:112,1,90,12|0
103,164,8927,6,0,B|119:220|232:248|288:208,1,180,0|8
331,224,9273,1,0
328,296,9389,2,0,B|280:320|216:320,1,90
168,312,9620,2,0,B|104:320|72:304,1,90,8|0
48,240,9850,2,0,B|48:144,1,90,0|0
96,96,10081,1,8
168,112,10196,2,0,B|168:216,3,90,0|0|0|12
256,112,10773,5,0
256,184,11120,5,0
256,256,11466,5,4
256,192,18158,5,0
256,192,18273,1,0
216,128,18389,2,0,B|152:120|104:152,1,90
80,192,18620,1,0
128,248,18735,2,0,B|192:280|232:272,2,90
80,192,19081,6,0,B|264:192,1,180,0|8
312,144,19427,1,0
368,96,19543,2,0,B|416:176|320:208|360:304,1,180,0|12
420,249,19889,1,0
416,320,20004,2,0,B|384:360|312:376|256:312,2,180,0|8|0
464,144,20696,5,2
320,64,20927,6,0,B|240:40|240:40|160:56|152:104,1,180,0|8
224,120,21273,1,0
296,136,21389,2,0,B|272:192|216:200,1,90,0|0
162,181,21619,2,0,B|90:189|82:253,1,90,12|0
152,264,21850,2,0,B|208:264|208:264|256:304|256:304|320:264,2,180,0|8|0
48,128,22543,5,2
184,72,22773,6,0,B|240:56|240:56|272:56,1,90,0|0
264,128,23004,2,0,B|312:144|312:144|368:112,1,90,8|0
344,56,23235,2,0,B|400:56|400:56|456:80,1,90
488,120,23466,2,0,B|488:168|488:168|472:218,1,90,12|0
416,248,23696,2,0,B|368:224|368:224|336:216|336:216|288:224|288:224|240:240,2,180,0|8|0
400,320,24273,5,0
336,288,24389,1,2
264,304,24504,1,0
200,272,24620,2,0,B|184:208|184:208|208:168,1,90,0|0
200,272,24850,2,0,B|136:288|136:288|96:264,1,90,12|0
115,203,25081,2,0,B|99:139|99:139|123:99,1,90
115,203,25312,2,0,B|51:219|51:219|11:195,1,90,12|0
40,136,25543,5,0
79,55,25773,5,0
157,10,26004,5,6
242,37,26235,6,0,B|266:59|266:59|282:93|282:93|314:101,1,90,4|0
256,160,26466,6,0,B|296:176|296:176|328:168|328:168|360:184,1,90
480,144,26696,2,0,B|440:128|440:128|408:136|408:136|376:120,1,90,12|0
264,240,26927,2,0,B|304:256|304:256|336:248|336:248|368:264,1,90
488,224,27158,2,0,B|448:208|448:208|416:216|416:216|384:200,1,90,12|0
384,288,27389,6,0,B|328:328|328:328|264:312|264:312|192:344,1,180,0|12
152,336,27735,1,0
88,304,27850,2,0,B|72:272|72:272|80:240|80:240|64:224,1,90
43,155,28081,2,0,B|63:158|63:158|85:133|85:133|120:127,1,90,6|0
152,192,28312,6,0,B|240:184|240:184|200:80,1,180,0|12
184,32,28658,1,0
256,40,28773,2,0,B|318:57|318:57|319:75|319:75|330:89,1,90,0|0
374,132,29004,2,0,B|437:144|437:144|440:161|440:161|452:174,1,90,12|0
368,248,29235,5,0
440,240,29466,5,12
392,288,29696,5,0
400,216,29927,5,6
432,280,30158,6,0,B|448:328|448:328|416:360,1,90
348,343,30389,2,0,B|300:359|300:359|268:327,1,90,12|0
312,272,30619,2,0,B|296:240|296:240|320:224|320:224|312:184,2,90,0|0|12
238,272,30966,1,0
168,288,31081,2,0,B|72:240|72:240|112:200|96:144,2,180,0|12|0
208,224,31658,5,0
216,152,31773,1,12
154,113,31889,1,0
87,86,32004,2,2,B|279:22|279:22|391:54|391:54|447:142|447:142|423:230|423:230|199:326,1,720,2|6
360,80,33850,6,0,B|296:56|296:56|240:56,1,90
208,80,34081,2,0,B|144:56|144:56|88:56,1,90,12|0
120,128,34312,2,0,B|128:160|128:160|160:168|160:168|184:192,2,90,0|0|12
48,128,34658,1,0
56,200,34773,6,0,B|104:288,1,90
272,248,35004,2,0,B|152:248,1,90,12|0
136,304,35235,2,0,B|184:392,1,90
352,352,35466,2,0,B|232:352,1,90,14|0
216,296,35696,6,0,B|288:296|368:296|424:296,1,180,0|8
461,264,36043,1,0
410,213,36158,2,0,B|442:173|442:173|480:173,1,90
410,213,36389,2,0,B|378:173|378:173|330:173,1,90,12|0
267,173,36619,5,0
194,173,36850,5,0
121,173,37081,5,4
416,96,37543,6,0,B|408:128|408:128|392:160|392:160|408:192,1,90
365,178,37773,2,0,B|346:187|346:187|314:171|314:171|282:163,1,90,12|0
297,130,38004,2,0,B|265:98|265:98|249:66|225:82|225:82|241:98,1,90
192,88,38235,2,0,B|152:64|152:64|112:80|112:80,1,90,12|0
97,113,38466,2,0,B|153:153|153:153|145:193|145:193|217:225,2,180,0|12|0
56,176,39043,6,0,B|24:144|24:144|24:96,2,90,0|12|0
48,248,39389,5,0
104,248,39619,5,0
160,248,39850,5,2
176,248,39966,1,2
232,248,40196,5,0
288,248,40427,5,0
344,248,40658,5,2
360,248,40773,1,2
416,248,41004,5,4
416,248,41235,6,0,B|456:208|392:168|440:64,1,180,0|12
368,48,41581,1,0
296,48,41696,2,0,B|248:40|224:72|192:80,1,90,0|0
256,128,41927,2,0,B|220:161|182:148|151:159,1,90,12|0
128,96,42158,2,0,B|40:152|120:232|64:280,1,180,0|12
99,329,42504,1,0
160,288,42620,6,0,B|184:264|184:264|224:272|224:272|240:256,1,90,0|0
352,288,42850,2,0,B|328:264|328:264|288:272|288:272|272:256,1,90,14|0
256,328,43081,2,0,B|256:112,3,180,0|4|0|4
184,176,44004,5,0
200,104,44235,5,10
312,176,44466,5,0
296,104,44696,5,10
352,48,44927,6,0,B|432:96|432:96|336:144,1,180,0|12
408,184,45273,1,0
360,240,45389,2,0,B|384:264|384:264|352:304|352:304|368:336,2,90,0|0|12
304,192,45735,1,0
232,200,45850,2,0,B|216:184|216:184|184:192|184:192|152:168,1,90
88,144,46081,2,0,B|72:160|72:160|80:192|80:192|56:224,1,90,12|0
120,256,46312,2,0,B|170:295|170:295|244:267|244:267|289:289,1,180,0|14
256,192,46773,12,4,48389
88,64,48620,6,0,B|128:112|128:112|96:168|96:168|128:216,1,180,0|12
186,173,48966,1,0
248,208,49081,2,0,B|288:160|288:160|256:104|256:104|288:56,1,180,0|12
346,99,49427,1,0
407,137,49543,2,0,B|375:177|375:177|327:217,2,90,0|0|12
471,104,49889,2,0,B|471:312,1,180
419,335,50235,1,14
364,289,50350,1,0
312,344,50466,6,0,B|256:352|208:336,1,90
134,322,50696,2,0,B|190:322|238:298,1,90,12|0
310,285,50927,2,0,B|254:293|206:277,1,90
134,253,51158,2,0,B|190:261|238:245,1,90,12|0
310,223,51389,2,0,B|222:215|126:191|118:143,3,180,0|12|0|14
72,88,52312,6,0,B|96:48|96:48|136:48|136:48|168:24,1,90
157,76,52543,2,0,B|178:112|178:112|221:116|221:116|253:140,1,90,12|0
234,84,52773,2,0,B|258:44|258:44|298:44|298:44|330:20,2,90,0|0|12
296,120,53120,5,0
356,80,53235,2,0,B|436:80|436:80|468:128|468:128|468:184,1,180,0|12
397,152,53581,1,0
352,208,53696,1,0
280,216,53812,2,0,B|200:144,2,90,0|14|0
264,288,54158,6,0,B|215:287|215:287|173:229,1,90
264,288,54389,2,0,B|312:287|312:287|355:345,1,90,12|0
264,288,54620,2,0,B|256:336|256:336|192:368,1,90
264,288,54850,2,0,B|272:240|272:240|336:208,1,90,12|0
384,224,55081,2,0,B|384:144|384:144|336:120|336:120|256:136,3,180,0|12|0|6
200,72,56004,6,0,B|176:72|176:72|160:112|160:112|120:112,1,90
32,128,56235,2,0,B|56:128|56:128|72:168|72:168|112:168,1,90,4|0
200,184,56466,2,0,B|176:184|176:184|160:224|160:224|120:224,1,90
32,256,56696,2,0,B|56:256|56:256|72:296|72:296|112:296,1,90,4|0
152,344,56927,6,0,B|168:304|168:304|216:360,1,90
198,339,57158,2,0,B|214:299|214:299|262:355,1,90,4|0
244,334,57389,2,0,B|260:294|260:294|308:350,1,90
290,329,57620,2,0,B|306:289|306:289|354:345,1,90,14|0
336,324,57850,6,0,B|360:324|360:324|376:284|376:284|416:284,1,90
504,259,58081,2,0,B|480:259|480:259|464:219|464:219|424:219,1,90,4|0
368,219,58312,2,0,B|384:160|384:160|456:152|456:152|464:88,1,180,0|12
392,84,58658,2,0,B|320:92|320:92|304:164|304:164|264:188,1,180
275,181,59004,1,12
275,181,59120,1,14
208,72,59466,6,2,B|88:72,1,90,10|2
56,112,59696,6,0,B|32:160|32:160|56:200,1,90
118,165,59927,2,0,B|206:165,1,90,12|0
267,123,60158,2,0,B|291:171|291:171|267:211,1,90,0|0
224,256,60389,2,0,B|120:256,1,90,12|0
61,256,60620,2,0,B|29:296|29:296|69:360,2,90,0|0|12
9,204,60966,1,0
59,153,61081,2,0,B|35:113|35:113|59:65,2,90,0|0|4
110,204,61427,1,0
182,204,61543,1,6
256,192,61658,12,4,63389
256,80,69850,6,0,B|264:144|264:144|232:208|232:208|256:264,1,180
248,320,70196,1,0
248,320,70312,2,0,B|304:312|304:312|328:272,1,90
394,291,70543,2,0,B|450:283|450:283|474:243,1,90,2|0
432,192,70773,6,0,B|248:192,1,180,0|8
200,144,71120,1,0
144,96,71235,2,0,B|96:176|192:208|152:304,1,180,0|12
91,249,71581,1,0
96,320,71696,2,0,B|128:360|200:376|256:312,2,180,0|8|0
48,144,72389,5,2
192,64,72620,6,0,B|272:40|272:40|352:56|352:96,1,180,0|8
286,120,72966,1,0
216,136,73081,2,0,B|240:192|296:200,1,90
352,192,73312,2,0,B|424:200|432:264,1,90,12|0
360,272,73543,2,0,B|304:272|304:272|256:312|256:312|192:272,2,180,0|8|0
464,128,74235,5,2
328,72,74466,6,0,B|272:56|272:56|240:56,1,90
208,72,74696,2,0,B|224:136|224:136|192:152,1,90,8|0
176,172,74927,2,0,B|160:228|160:228|192:260,1,90
214,234,75158,2,0,B|278:226|278:226|302:258,1,90,12|0
304,280,75389,2,0,B|261:312|261:312|236:350|236:350|182:327|182:327|132:321,2,180,0|8|0
338,291,75966,2,0,B|386:339|386:339|434:331,2,90,0|8|0
360,224,76312,5,0
388,178,76543,5,0
388,124,76773,5,2
364,108,76889,1,2
319,77,77120,5,0
266,64,77350,5,0
211,64,77581,5,2
184,64,77696,1,2
129,64,77927,5,2
40,136,78158,6,0,B|75:160|75:160|108:159|108:159|135:182,1,90
261,170,78389,2,0,B|225:145|225:145|192:146|192:146|165:123,1,90,12|0
29,215,78620,2,0,B|64:239|64:239|97:238|97:238|124:261,1,90
251,250,78850,2,0,B|215:225|215:225|182:226|182:226|155:203,1,90,12|0
160,288,79081,6,0,B|216:328|216:328|280:312|280:312|352:344,1,180,0|12
392,344,79427,1,0
456,304,79543,2,0,B|472:272|472:272|464:240|464:240|480:224,1,90
464,154,79773,2,0,B|444:157|444:157|422:132|422:132|387:126,1,90,12|0
360,192,80004,6,0,B|272:184|272:184|312:80,1,180,0|12
328,32,80350,1,0
256,40,80466,2,0,B|194:57|194:57|193:75|193:75|182:89,1,90
179,151,80696,2,0,B|116:163|116:163|113:180|113:180|101:193,1,90,12|0
144,248,80927,5,0
72,240,81158,5,10
120,288,81389,5,0
112,216,81620,5,10
80,280,81850,6,0,B|64:328|64:328|96:360,1,90
164,345,82081,2,0,B|212:361|212:361|244:329,1,90,12|0
200,272,82312,2,0,B|216:240|216:240|192:224|192:224|200:184,2,90,0|0|12
272,280,82658,1,0
344,272,82773,2,0,B|368:264|368:264|368:216|368:216|408:200,2,90,0|0|12
296,216,83120,1,0
248,160,83235,2,0,B|224:144|208:120|232:80|264:72|288:88|312:88|328:104|312:128|320:144|312:144,1,180,0|14
256,192,83696,12,4,85312
424,320,85543,6,0,B|384:272|384:272|416:216|416:216|384:168,1,180,0|12
326,211,85889,1,0
264,176,86004,2,0,B|224:224|224:224|256:280|256:280|224:328,1,180,0|12
168,280,86350,1,0
107,239,86466,2,0,B|139:199|139:199|187:159,2,90,0|0|4
48,280,86812,2,0,B|48:72,1,180
88,40,87158,1,12
144,88,87273,1,0
200,40,87389,6,0,B|256:32|304:48,1,90
232,88,87620,2,0,B|288:80|336:96,1,90,12|0
264,136,87850,2,0,B|320:128|368:144,1,90
296,184,88081,2,0,B|352:176|400:192,1,90,12|0
328,232,88312,2,0,B|416:240|472:272|512:328,3,180,0|12|0|14
345,301,89235,6,0,B|321:341|321:341|281:341|281:341|249:365,1,90
262,272,89466,2,0,B|238:232|238:232|198:232|198:232|166:208,1,90,12|0
181,300,89696,2,0,B|157:340|157:340|117:340|117:340|85:364,2,90,0|0|4
129,248,90043,1,0
78,298,90158,2,0,B|10:254|10:254|45:200|45:200|53:129,1,180,8|4
115,136,90504,1,0
182,162,90620,1,0
250,182,90735,2,0,B|344:232,2,90,0|12|0
250,109,91081,6,0,B|299:110|299:110|341:168,1,90
250,109,91312,2,0,B|202:110|202:110|159:52,1,90,12|0
250,109,91543,2,0,B|258:61|258:61|322:29,1,90
250,109,91773,2,0,B|242:157|242:157|178:189,1,90,12|0
132,175,92004,2,4,B|132:255|132:255|180:279|180:279|260:263,3,180,0|4|0|14
352,321,92927,6,0,B|376:321|376:321|392:281|392:281|432:281,1,90
487,281,93158,2,0,B|463:281|463:281|447:241|447:241|407:241,1,90,12|0
351,241,93389,2,0,B|375:241|375:241|391:201|391:201|431:201,1,90
486,201,93620,2,0,B|462:201|462:201|439:157|439:157|406:161,1,90,12|0
351,158,93850,6,0,B|304:104|304:104|288:88,1,90
256,88,94081,2,0,B|256:184,1,90,12|0
224,88,94312,2,0,B|224:184,1,90
192,88,94543,2,0,B|192:184,1,90,14|0
162,90,94773,6,0,B|138:90|138:90|122:130|122:130|82:130,1,90
26,130,95004,2,0,B|50:130|50:130|66:170|66:170|106:170,1,90,12|0
161,170,95235,2,0,B|137:170|137:170|121:210|121:210|81:210,1,90
25,210,95466,2,0,B|49:210|49:210|65:250|65:250|105:250,1,90
159,250,95696,2,0,B|175:282|151:314|175:346,1,90
169,338,95927,1,12
169,338,96043,1,2
328,326,96389,6,2,B|440:326,1,90,10|0
440,256,96620,6,0,B|464:208|464:208|440:168,1,90
379,206,96850,2,0,B|291:206,1,90,12|0
224,239,97081,2,0,B|200:191|200:191|224:151,1,90
269,108,97312,2,0,B|373:108,1,90,12|0
432,112,97543,2,0,B|464:72|464:72|424:8,2,90,0|0|12
483,163,97889,1,0
432,213,98004,2,0,B|456:253|456:253|432:301,2,90,0|0|12
380,161,98350,1,0
307,161,98466,1,14
256,192,98581,12,4,99389
240,144,99620,5,0
192,220,99850,5,0
270,263,100081,5,0
320,184,100312,6,0,B|384:224|360:304|456:304,1,180
443,249,101004,1,0
443,194,101235,2,0,B|411:162|371:146|363:138,1,90
320,120,101696,2,0,B|275:138|227:114,1,90
272,64,102158,6,0,B|136:8|32:112|64:256,1,360,2|6
256,192,103543,5,8
264,328,104004,6,0,B|400:384|504:280|472:136,2,360,2|2|6
216,301,106081,1,0
232,249,106312,1,0
181,228,106543,1,0
193,175,106773,1,0
216,128,107004,2,8,B|256:104|304:128,2,90
256,192,107696,6,0,B|256:352|256:352|384:360|496:344|480:112,1,540,2|6
256,192,109543,6,0,B|256:32|256:32|128:24|16:40|32:272,1,540,2|6
256,192,111389,12,0,113927
256,352,114158,6,0,B|256:248,1,90
192,240,114504,2,0,B|224:192,1,45
320,240,114735,2,0,B|288:192,1,45
256,152,114966,2,0,B|256:96,1,45,0|6
256,32,128004,5,0
256,104,128235,1,0
256,176,128466,1,0
256,248,128696,1,0
168,242,128927,5,2
184,274,129043,1,2
208,306,129158,1,2
240,330,129273,1,2
272,330,129389,1,2
296,306,129504,1,2
320,274,129620,1,2
336,242,129735,1,2
344,208,129850,6,0,B|368:192|368:192|400:208|400:208|432:184,1,90
392,128,130081,2,0,B|363:123|363:123|349:91|349:91|309:87,1,90,2|0
309,159,130312,2,0,B|253:167|253:167|221:151,2,90
263,103,130658,2,0,B|208:72|208:72|128:120|128:120|120:168,1,180
175,194,131004,1,2
123,245,131120,2,0,B|160:288|160:288|200:304,1,90,0|8
260,328,131350,6,0,B|300:328|300:328|348:304,2,90,0|2|0
264,256,131696,6,0,B|304:256|304:256|352:232,1,90
456,216,131927,2,0,B|416:216|416:216|368:192,1,90,2|0
264,176,132158,2,0,B|304:176|304:176|352:152,1,90,8|0
456,136,132389,2,0,B|416:136|416:136|368:112,1,90,2|0
360,40,132620,2,0,B|368:320,2,270,2|2|10
160,64,133543,5,0
96,96,133658,1,0
55,155,133773,2,0,B|63:195|63:195|95:195|95:195|103:219,1,90,2|0
124,279,134004,1,8
193,257,134120,2,0,B|223:230|223:230|249:250|249:250|270:236,2,90,0|2|0
193,329,134466,2,0,B|377:329,1,180,0|2
445,329,134812,2,0,B|477:289|466:225,1,90,0|8
400,224,135043,2,0,B|344:200|328:152,2,90,0|2|0
368,248,135389,6,0,B|312:224|296:176,1,90
328,256,135620,2,0,B|272:232|256:184,1,90,2|0
288,264,135850,2,0,B|232:240|216:192,1,90,8|0
256,272,136081,2,0,B|200:248|184:200,1,90,2|0
216,280,136312,2,0,B|166:269|100:179|111:130,2,180,0|10|10
256,48,137235,6,0,B|200:72|176:120,1,90
256,48,137466,2,0,B|312:72|352:128,1,90
256,120,137696,1,8
256,120,137812,1,0
256,120,137927,1,0
256,120,138043,2,0,B|256:216,5,90,0|0|0|0|0|8
256,336,139081,6,0,B|200:312|176:264,1,90
256,336,139312,2,0,B|312:312|352:256,1,90,0|0
256,264,139543,1,8
256,264,139658,1,0
256,264,139773,1,0
256,264,139889,2,0,B|256:168,6,90,0|0|0|0|0|8|0
80,248,140927,5,0
80,248,141043,1,0
80,248,141158,1,0
80,248,141273,1,0
80,248,141389,2,0,B|56:216|64:160,1,90,10|0
130,190,141620,2,0,B|154:158|146:102,1,90
76,86,141850,2,0,B|108:30|148:22,1,90,2|0
200,62,142081,2,0,B|264:102|304:78,1,90
346,47,142312,2,0,B|426:63|466:87,4,90,10|0|0|0|0
256,192,142889,12,0,144620
256,272,145543,5,0
256,200,145658,2,0,B|256:189|256:189|256:173|288:152|320:144|320:112|312:77|288:61|272:53|224:53|200:77|200:125,1,270
128,336,146466,6,0,B|152:288|152:288|192:272,1,90
112,280,146696,2,0,B|88:232|88:232|48:216,1,90,12|0
84,152,146927,1,0
144,192,147043,1,0
84,152,147158,1,8
144,192,147273,1,0
152,120,147389,6,0,B|224:32|304:24,1,180,0|12
262,86,147735,2,0,B|328:80|374:94|454:150,1,180,0|0
466,197,148081,1,14
444,265,148196,1,0
381,301,148312,6,0,B|319:216,1,90
245,181,148543,2,0,B|310:271,1,90,12|0
322,342,148773,2,0,B|260:257,1,90
193,219,149004,2,0,B|258:309,1,90,12|0
264,380,149235,2,0,B|160:328|136:248,3,180,0|12|0|14
80,80,150158,6,0,B|176:80,1,90
323,80,150389,2,0,B|233:80,1,90,12|0
162,150,150620,2,0,B|252:150,1,90
404,150,150850,2,0,B|314:150,1,90,12|0
163,241,151081,6,0,B|253:241,1,90
406,241,151312,2,0,B|316:241,1,90,12|0
245,311,151543,2,0,B|335:311,1,90
487,311,151773,2,0,B|397:311,1,90,14|0
256,192,152004,12,4,153620
256,328,153850,6,0,B|282:264|209:232|247:149,1,180,0|12
306,192,154196,1,0
346,252,154312,2,0,B|402:236|434:196,1,90
392,144,154543,2,0,B|376:104|320:80,1,90,8|0
256,96,154773,2,0,B|176:88|144:112,2,90,0|0|12
256,96,155120,2,0,B|160:152|152:176,1,90
120,184,155350,1,0
120,184,155466,1,0
120,184,155581,1,0
79,243,155696,6,0,B|95:307|143:315,1,90
161,246,155927,2,0,B|225:262|249:294,1,90,12|0
223,355,156158,2,0,B|295:347|327:331,1,90
328,267,156389,2,0,B|360:211|328:163,1,90,12|0
270,207,156620,2,0,B|198:183|214:79|286:71,1,180,0|8
294,142,156966,1,0
294,142,157081,2,0,B|78:142,1,180,0|14
208,48,157543,6,0,B|328:48,1,90
332,56,157773,2,0,B|372:72|372:72|364:96|364:96|396:120,1,90,12|0
347,122,158004,2,0,B|307:170|307:170|315:202,1,90
343,217,158235,2,0,B|393:191|393:191|418:216,1,90,12|0
416,250,158466,2,0,B|432:346|432:346|312:330,1,180,0|12
313,335,158812,2,0,B|249:351|249:351|225:255,1,157.5
226,262,159158,5,14
225,263,159273,1,0
173,211,159389,2,0,B|116:210|116:210|116:154,1,90
188,163,159620,2,0,B|243:163|243:163|243:106,1,90,12|0
172,122,159850,2,0,B|116:122|116:122|116:66,1,90
188,82,160081,2,0,B|243:82|243:82|244:25,1,90,12|0
256,192,160312,12,4,161004
376,56,161235,6,8,B|400:96|400:96|384:112|384:112|400:144,1,90
327,160,161466,2,8,B|255:144|255:144|247:120,1,90,8|8
304,80,161696,1,8
240,48,161812,1,8
176,80,161927,2,8,B|192:128|192:128|176:168,1,90,8|8
120,208,162158,2,8,B|161:248|208:246,1,90
250,297,162389,1,8
319,314,162504,1,8
390,300,162620,1,8
440,168,162850,1,8
440,168,163081,6,8,B|448:112|448:112|448:88|400:64,1,90
365,55,163312,1,8
360,128,163427,1,8
312,184,163543,2,8,B|248:168|200:136,2,90,8|8|8
360,240,163889,2,8,B|344:344|328:328,2,90
289,255,164235,1,8
217,255,164350,1,8
165,203,164466,1,8
173,61,164696,1,8
312,32,164927,6,0,B|346:68|367:115,1,90,8|8
291,120,165158,2,0,B|305:164|352:185,1,90,8|8
418,160,165389,2,0,B|449:185|465:235,1,90,8|8
440,304,165620,1,8
373,336,165735,1,8
302,349,165850,2,8,B|262:377|217:354,2,90,8|8|8
328,280,166196,1,8
279,228,166312,1,8
177,126,166543,1,8
75,227,166773,1,8
256,192,166889,12,4,170466
76,192,170696,5,8
76,192,170927,2,2,B|256:192,1,180,2|10
256,372,171389,5,0
256,372,171620,1,8
256,372,171850,2,2,B|256:192,1,180,2|10
436,192,172312,5,0
436,192,172543,1,8
436,192,172773,2,2,B|256:192,1,180,2|10
256,192,173235,12,0,174158
436,192,174389,5,8
436,192,174620,2,2,B|256:192,1,180,2|10
256,12,175082,5,0
256,12,175313,1,8
256,12,175543,2,2,B|256:192,1,180,2|10
76,192,176005,5,0
76,192,176236,1,8
76,192,176466,2,2,B|256:192,1,180,2|10
320,296,176927,6,0,B|320:360|192:360|184:288,3,180,0|8|0|2
144,88,177850,6,0,B|264:88|264:224,1,180,0|8
168,304,178312,2,2,B|127:320|79:304,2,90,2|2|10
312,328,178773,6,0,B|420:329|420:209,1,180,0|8
368,80,179235,2,2,B|320:64|280:81,2,90
256,232,179696,5,0
208,96,179927,1,8
256,232,180158,1,0
304,96,180389,1,8
424,176,180620,2,2,B|432:272|320:320,1,180,2|10
184,320,181081,2,2,B|82:276|90:180,1,180,2|10
136,40,181543,6,0,B|320:40,1,180,0|8
464,40,182004,2,2,B|464:136,2,90,2|2|10
352,128,182466,2,0,B|168:128,1,180,0|8
32,136,182927,2,2,B|32:224,2,90,2|2|10
40,280,183389,5,8
66,280,183504,1,8
93,280,183620,1,8
119,280,183735,1,8
145,280,183850,2,8,B|241:280,2,90
384,200,184312,5,8
357,200,184427,1,8
329,200,184543,1,8
302,200,184658,1,8
275,200,184773,2,8,B|179:200,2,90
40,112,185235,5,8
66,112,185350,1,8
93,112,185466,1,8
119,112,185581,1,8
145,112,185696,2,8,B|241:112,2,90
376,40,186158,5,8
349,40,186273,1,8
321,40,186389,1,8
294,40,186504,1,8
267,40,186619,2,8,B|171:40,2,90
256,192,187081,12,0,190773
