osu file format v9

[General]
AudioFilename: __.mp3
AudioLeadIn: 0
PreviewTime: 48623
Countdown: 0
SampleSet: Normal
StackLeniency: 0.7
Mode: 0
LetterboxInBreaks: 1

[Editor]
Bookmarks: 19036,48632,52094,56017,70844,115498,129863
DistanceSpacing: 0.8
BeatDivisor: 2
GridSize: 8

[Metadata]
Title:Kusaregedou to Chocolate
Artist:Hatsune Miku
Creator:val0108
Version:Easy
Source:Vocaloid
Tags:kinopiP

[Difficulty]
HPDrainRate:2
CircleSize:3
OverallDifficulty:2
ApproachRate:2
SliderMultiplier:0.700000005960464
SliderTickRate:0.5

[Events]
//Background and Video events
0,0,"wsdfsdfsdf.jpg"
//Break Periods
2,11668,16598
2,63592,67367
2,115284,126444
//Storyboard Layer 0 (Background)
//Storyboard Layer 1 (Fail)
//Storyboard Layer 2 (Pass)
//Storyboard Layer 3 (Foreground)
//Storyboard Sound Samples
//Background Colour Transformations
3,100,163,162,255

[TimingPoints]
620,230.769230769231,4,1,1,59,1,0
18043,-100,4,2,1,59,0,0
18735,-100,4,1,1,59,0,0
48629,-100,4,1,1,65,0,1
63389,-100,4,1,1,72,0,0
85543,-100,4,1,1,65,0,1
99389,-100,4,1,1,69,0,0
100254,-100,4,2,0,69,0,0
146466,-100,4,1,1,65,0,1
168629,-100,4,1,1,68,0,0

[Colours]
Combo1 : 196,64,0
Combo2 : 0,145,11
Combo3 : 202,0,0
Combo4 : 86,0,181

[HitObjects]
104,128,4312,2,0,B|104:280,1,140.000001192093,0|8
183,347,5235,2,0,B|335:347,1,140.000001192093,0|8
402,267,6158,2,0,B|402:123,1,140.000001192093,0|8
322,47,7081,2,0,B|192:47,2,105.00000089407,0|10|0
322,103,8004,5,0
322,214,8465,1,8
224,158,8927,2,0,B|80:158,1,140.000001192093,0|8
84,270,9850,1,0
196,270,10312,1,8
307,270,10773,2,2,B|411:270,2,105.00000089407,2|10|2
256,64,18158,6,0,B|256:208,1,140.000001192093
194,297,19081,6,0,B|114:297|74:217,1,140.000001192093,0|8
80,116,20004,2,0,B|113:47|193:47,1,140.000001192093,0|8
304,46,20927,2,0,B|382:45|416:114,1,140.000001192093,0|8
416,226,21850,2,0,B|382:294|302:294,1,140.000001192093,0|10
341,188,22773,5,0
291,87,23235,2,0,B|256:48|232:48,1,70.0000005960464,8|0
181,30,23696,1,0
79,75,24158,1,8
35,178,24620,2,0,B|35:258|107:306,1,140.000001192093,0|8
175,218,25543,2,0,B|247:178|311:202,1,140.000001192093,0|10
257,300,26466,5,0
368,300,26927,1,8
447,220,27389,2,0,B|455:140|407:92,1,140.000001192093,0|8
304,44,28312,1,0
332,152,28773,1,8
312,264,29235,2,0,B|272:304|224:320,2,105.00000089407,0|10|0
264,232,30158,5,0
153,210,30620,1,8
55,154,31081,1,0
94,47,31543,1,8
205,47,32004,2,2,B|264:56|312:88,2,105.00000089407
182,98,32927,1,0
216,304,33850,6,0,B|288:312|352:272,1,140.000001192093,0|8
270,194,34773,2,0,B|326:146|406:130,1,140.000001192093,0|8
451,228,35696,2,0,B|483:172|483:84,1,140.000001192093,0|8
377,55,36620,1,0
265,55,37081,1,10
156,83,37543,6,0,B|204:147|204:219,1,140.000001192093,0|8
91,212,38466,2,0,B|91:284|171:348,1,140.000001192093,0|8
256,192,39389,12,0,41235
80,304,41696,5,8
192,304,42158,1,0
271,224,42620,1,8
240,120,43081,2,0,B|176:80,2,70.0000005960464,0|0|8
208,224,44004,2,0,B|144:256,2,70.0000005960464,0|0|10
314,194,44927,5,0
393,114,45389,1,8
472,193,45850,1,0
392,272,46312,2,0,B|392:352,1,70.0000005960464,10|10
256,192,46773,12,0,48620
84,120,49081,5,8
183,68,49543,1,0
288,105,50004,1,8
367,184,50466,2,0,B|415:200|415:296|351:304,2,140.000001192093,0|8|0
273,246,51850,2,0,B|224:312,1,70.0000005960464,0|2
178,321,52312,6,0,B|98:297|50:257,1,140.000001192093,0|8
68,151,53235,2,0,B|112:113|192:89,1,140.000001192093,0|8
304,88,54158,2,0,B|368:96|408:136,2,105.00000089407
304,144,55081,2,0,B|259:181|179:205,1,140.000001192093,0|10
178,317,56004,5,0
285,285,56466,1,8
360,200,56927,1,0
439,120,57389,1,8
329,99,57850,2,0,B|161:99,1,140.000001192093,0|8
109,178,58773,2,0,B|109:338,1,140.000001192093,0|10
221,318,59696,5,0
300,238,60158,1,8
379,158,60620,1,0
458,237,61081,2,0,B|458:309,2,70.0000005960464,0|0|10
256,192,61773,12,0,63389
256,192,68927,12,0,70773
96,88,71235,5,8
96,199,71696,2,0,B|104:255|160:327,1,140.000001192093,0|8
269,323,72620,1,0
348,243,73081,1,8
268,163,73543,2,0,B|216:136|200:80,2,105.00000089407,0|8|0
296,112,74466,5,0
375,32,74927,1,0
454,111,75389,1,0
454,222,75850,1,10
256,192,76312,12,0,78158
256,328,78620,5,8
199,231,79081,2,0,B|191:135|135:95,1,140.000001192093,0|8
67,183,80004,1,0
91,292,80466,1,8
200,312,80927,2,0,B|272:312,1,70.0000005960464
313,311,81389,2,0,B|392:312,1,70.0000005960464,10|0
392,231,81850,6,0,B|408:127|352:87,1,140.000001192093,0|8
286,19,82773,1,0
179,52,83235,2,0,B|128:112,1,70.0000005960464,0|10
256,192,83696,12,0,85543
432,272,86004,5,8
327,313,86466,1,0
222,273,86927,1,8
142,193,87389,2,0,B|94:177|94:81|158:73,2,140.000001192093,0|8|0
251,170,88773,2,2,B|303:118,1,70.0000005960464,10|2
323,68,89235,6,0,B|403:92|451:132,1,140.000001192093,0|8
447,241,90158,2,0,B|403:279|323:303,1,140.000001192093,0|8
210,303,91081,2,0,B|152:304|104:264,2,105.00000089407
210,246,92004,2,0,B|250:190|322:158,1,140.000001192093,0|10
427,136,92927,5,0
347,56,93389,1,8
250,111,93850,1,0
170,190,94312,1,8
170,301,94773,2,0,B|338:301,1,140.000001192093,0|8
389,221,95696,2,0,B|389:61,1,140.000001192093,0|10
276,81,96619,5,0
196,160,97081,1,8
116,239,97543,1,0
36,159,98004,2,0,B|36:81,1,70.0000005960464,10|0
256,192,98466,12,0,100312
360,152,100773,5,0
280,72,101235,1,0
168,72,101696,1,0
88,151,102158,2,0,B|80:335|248:335,1,280.000002384186,0|2
357,334,103543,1,8
357,222,104004,2,0,B|365:38|197:38,2,280.000002384186,2|0|2
244,222,106312,1,0
164,142,106773,1,0
51,142,107235,1,8
130,62,107696,6,0,B|410:62,1,280.000002384186
330,141,109081,1,8
409,220,109543,2,0,B|121:220,1,280.000002384186
49,140,110927,1,8
256,192,111389,12,0,114158
256,192,114620,5,4
256,192,115081,1,4
256,192,128004,12,0,129850
256,40,130312,5,8
207,140,130773,1,0
286,219,131235,2,0,B|390:187|414:123,1,140.000001192093,8|0
481,225,132158,1,8
384,281,132620,2,0,B|304:280|248:336,1,140.000001192093,0|8
209,346,133312,6,0,B|151:294,1,70.0000005960464
89,220,134004,1,8
89,107,134466,1,0
168,27,134927,1,8
280,27,135389,2,0,B|360:43|424:99,1,140.000001192093,0|8
304,130,136312,2,0,B|208:146|152:226,1,140.000001192093,0|8
134,293,137235,5,0
243,315,137696,1,8
345,270,138158,2,0,B|401:222|424:184,2,105.00000089407,0|8|0
292,251,139081,1,0
199,187,139543,1,8
87,187,140004,2,0,B|31:139|23:93,2,105.00000089407,0|8|0
143,160,140927,5,0
222,80,141389,1,8
333,80,141850,1,0
445,80,142312,2,8,B|446:157,1,70.0000005960464,8|0
256,192,142773,12,0,145543
72,272,146466,6,0,B|136:304|216:280,1,140.000001192093,0|8
166,178,147389,2,0,B|246:162|342:186,1,140.000001192093,0|8
384,257,148312,1,0
463,177,148773,1,8
383,97,149235,1,0
275,65,149696,2,2,B|180:64,1,70.0000005960464,10|2
158,97,150158,6,0,B|102:137|62:225,1,140.000001192093,0|8
183,205,151081,2,0,B|255:157|335:157,1,140.000001192093,0|8
413,208,152004,1,0
320,271,152466,1,8
214,309,152927,2,0,B|134:325|96:296,2,105.00000089407,0|10|0
270,309,153850,5,0
349,229,154312,1,8
428,308,154773,1,0
428,195,155235,2,0,B|428:51,1,140.000001192093,8|0
348,134,156158,1,8
268,54,156620,2,0,B|292:142|212:190,1,140.000001192093,0|10
149,99,157543,5,0
110,204,158004,1,8
189,283,158466,2,0,B|269:307|341:299,2,140.000001192093,0|8|0
189,171,159850,1,8
268,91,160312,2,0,B|332:123|360:176,2,105.00000089407,0|10|0
211,91,161235,5,8
99,91,161696,1,8
99,203,162158,1,8
178,282,162620,2,8,B|220:313|260:313,1,70.0000005960464
304,296,163081,1,8
383,216,163543,1,8
484,169,164004,2,8,B|436:113|332:105,1,140.000001192093
305,108,164696,1,8
257,137,164927,5,8
336,216,165389,1,8
256,295,165850,1,8
176,215,166312,1,8
256,192,166773,12,0,170466
