osu file format v5

[General]
AudioFilename: Hatsune Miku - Kurutto Odotte.mp3
AudioLeadIn: 0
PreviewTime: -1
Countdown: 1
SampleSet: Normal
StackLeniency: 0.7
Mode: 0
EditorBookmarks: 105090

[Metadata]
Title:Kurutto Odotte
Artist:Hatsune Miku
Creator:Hitoshirenu Shourai
Version:Normal
Source:
Tags:

[Difficulty]
HPDrainRate:5
CircleSize:5
OverallDifficulty:5
SliderMultiplier:1.2
SliderTickRate:4

[Events]
//Background and Video events
0,0,"vlcsnap-4894130.png"
1,-300,"Kurutto.avi"
//Break Periods
2,47161,50081
2,68758,69279
2,94183,99787
//Storyboard Layer 0 (Background)
//Storyboard Layer 1 (Failing)
//Storyboard Layer 2 (Passing)
//Storyboard Layer 3 (Foreground)
//Storyboard Sound Samples
//Background Colour Transformations
3,100,192,192,192

[TimingPoints]
8980,483.868878688526,4,2,0,80
16721,480.002078688523,4,2,0,80
20561,479.236178688523,4,2,0,100
32061,480.002078688524,4,2,0,100
51271,480.201878688524,4,2,0,100
70481,479.802278688523,4,2,0,100
85841,428.571428571429,4,2,0,100
100805,364.736263636364,4,1,0,80
113935,365.853658536585,4,1,0,80

[Colours]
Combo1 : 213,213,255
Combo2 : 0,149,149
Combo3 : 255,255,193
Combo4 : 125,125,255
Combo5 : 255,66,66

[HitObjects]
88,128,12850,2,0,B|88:264,1,120
176,328,13818,2,0,B|304:328,1,120
416,328,14786,2,0,B|416:248,2,60
368,288,15512,1,0
320,248,15754,1,0
128,96,16721,6,0,B|192:64,1,60
240,56,17201,2,0,B|320:56,1,60
360,56,17681,2,0,B|416:96,1,60
408,152,18161,2,0,B|368:216,1,60
312,208,18641,2,0,B|240:208,2,60
312,264,19361,1,0
248,264,19601,1,0
64,104,20561,5,0
64,104,20800,1,0
64,104,21040,1,0
184,104,21519,1,0
184,104,21759,1,0
184,104,21998,1,0
304,104,22477,2,0,B|304:168|368:168|368:88,1,120
384,224,23436,1,0
384,224,23676,1,0
384,224,23915,1,0
384,344,24394,6,0,B|256:344,1,120
144,344,25353,2,0,B|8:344,1,120
32,224,26311,2,0,B|32:96,1,120
128,32,27270,2,0,B|256:32,1,120
368,32,28228,1,0
408,80,28468,1,0
368,128,28708,1,0
408,176,28947,1,0
368,224,29187,1,0
408,272,29426,1,0
368,320,29666,1,0
304,320,29906,1,0
240,320,30145,2,0,B|56:320,1,180
160,40,32061,6,0,B|288:40,1,120
360,40,33021,1,0
408,80,33261,1,0
472,80,33501,1,0
392,256,33981,6,0,B|392:304|288:344,1,120
216,352,34941,1,0
152,352,35181,1,0
88,352,35421,1,0
48,224,35901,6,0,B|60:191|16:104,1,120
72,40,36861,1,0
120,80,37101,1,0
168,120,37341,1,0
224,120,37581,1,0
280,120,37821,1,0
336,120,38061,2,0,B|336:72,2,30
384,192,38661,5,0
384,224,38781,1,0
384,280,39021,1,0
384,336,39261,1,0
248,352,39741,6,0,B|112:352,1,120
32,328,40701,1,0
72,280,40941,1,0
112,232,41181,1,0
192,128,41661,6,0,B|336:144,1,120
432,192,42621,1,0
368,192,42861,1,0
304,192,43101,1,0
272,72,43581,6,0,B|239:97|194:49|136:88,1,120
72,96,44541,1,0
48,152,44781,1,0
48,208,45021,1,0
88,256,45261,1,0
136,288,45501,1,0
184,320,45741,2,0,B|152:344,2,30
272,320,46341,5,0
304,320,46461,1,0
360,320,46701,1,0
416,320,46941,1,0
496,80,51271,6,0,B|368:80,1,120
256,80,52231,2,0,B|120:80,1,120
48,168,53191,2,0,B|48:240,2,60
104,168,53912,1,0
160,168,54152,1,0
256,192,55112,12,0,57993
424,48,59194,6,0,B|344:48,1,60
304,48,59674,1,0
240,48,59914,2,0,B|168:48,2,60
304,152,60875,2,0,B|304:280,1,120
184,288,61835,1,0
184,288,62075,1,0
184,288,62315,1,0
72,256,62795,6,0,B|72:128,1,120
168,64,63756,2,0,B|296:64,1,120
408,64,64716,2,0,B|408:200,1,120
256,192,65917,1,0
256,192,66157,1,0
256,192,66397,1,0
256,192,66637,12,0,68558
80,64,70481,2,0,B|224:64,1,120
320,64,71440,1,0
320,64,71680,1,0
320,64,71920,1,0
320,184,72400,6,0,B|176:184,1,120
80,184,73359,1,0
80,184,73599,1,0
80,184,73839,1,0
80,304,74319,6,0,B|224:304,1,120
320,304,75279,1,0
320,304,75518,1,0
320,304,75758,1,0
440,304,76238,2,0,B|440:176,1,120
400,104,77078,5,0
368,104,77198,1,0
304,104,77438,1,0
240,104,77678,1,0
240,224,78157,6,0,B|240:360,1,120
312,248,79117,1,0
312,184,79357,1,0
312,120,79597,1,0
192,120,80077,6,0,B|192:264,1,120
80,288,81036,1,0
80,224,81276,1,0
80,160,81516,1,0
152,64,81996,6,0,B|296:64,1,120
344,160,82955,1,0
288,192,83195,1,0
232,160,83435,1,0
288,264,83915,6,0,B|288:344,6,60
256,128,85841,6,0,B|256:264,1,120
336,160,86698,1,0
336,216,86912,1,0
336,272,87126,1,0
456,272,87555,6,0,B|456:144,1,120
336,152,88412,1,0
336,208,88626,1,0
336,264,88841,1,0
216,264,89269,6,0,B|216:128,1,120
96,160,90126,5,0
88,96,90341,1,0
80,32,90555,1,0
200,32,90983,5,0
200,32,91198,1,0
256,32,91412,5,0
256,32,91626,1,0
312,32,91841,5,0
312,32,92055,1,0
368,32,92269,5,0
368,32,92483,1,0
344,88,92698,5,0
344,88,92912,1,0
280,88,93126,5,0
280,88,93341,1,0
312,136,93555,5,0
312,136,93769,1,0
312,136,93983,1,0
432,192,100987,5,0
400,240,101169,2,0,B|400:304,1,60
352,336,101534,2,0,B|288:289|232:352,1,120
184,336,102081,1,0
128,312,102263,6,0,B|56:248|64:208,1,120
72,152,102811,1,0
88,96,102993,1,0
264,48,103540,6,0,B|400:48,1,120
432,80,104087,2,0,B|376:120|464:112,1,60
432,176,104452,2,0,B|432:312,1,120
320,336,105181,6,0,B|192:336,1,120
80,328,105911,2,0,B|80:248|184:248,1,120
200,136,106640,2,0,B|144:200|88:128,1,120
48,32,107370,2,0,B|184:32,1,120
288,32,108099,6,0,B|424:32,1,120
448,72,108646,1,0
400,104,108829,1,0
464,272,109376,6,0,B|408:208|360:272,1,120
312,304,109923,1,0
248,304,110105,1,0
184,304,110288,2,0,B|144:240|80:312,1,120
72,184,111017,6,0,B|72:56,1,120
192,72,111747,2,0,B|320:72,1,120
432,80,112476,2,0,B|432:152,1,60
440,200,112841,2,0,B|440:280,1,60
456,320,113206,2,0,B|456:352,8,30
336,320,114300,5,0
216,320,114666,2,0,B|80:320,1,120
72,264,115215,1,0
320,96,116130,5,0
408,176,116495,1,0
408,296,116861,5,0
288,296,117227,1,0
168,296,117593,2,0,B|48:232,1,120
64,176,118142,2,0,B|64:48,1,120
120,32,118691,1,0
224,88,119056,5,0
304,176,119422,1,0
408,240,119788,5,0
328,336,120154,1,0
208,336,120520,2,0,B|80:336,1,120
48,288,121069,1,0
312,152,121983,5,0
408,80,122349,1,0
408,200,122715,5,0
312,272,123081,1,0
192,272,123447,2,0,B|120:272,3,60
200,168,124361,2,0,B|112:168,1,60
176,32,124910,5,0
336,32,125276,1,0
