osu file format v5

[General]
AudioFilename: Hatsune Miku - Kurutto Odotte.mp3
AudioLeadIn: 0
PreviewTime: -1
Countdown: 1
SampleSet: Soft
StackLeniency: 0.7
Mode: 0
EditorBookmarks: 105090

[Metadata]
Title:Kurutto Odotte
Artist:Hatsune Miku
Creator:Hitoshirenu Shourai
Version:Hard
Source:
Tags:

[Difficulty]
HPDrainRate:5
CircleSize:6
OverallDifficulty:6
SliderMultiplier:1.8
SliderTickRate:4

[Events]
//Background and Video events
0,0,"vlcsnap-4894130.png"
1,-300,"Kurutto.avi"
//Break Periods
2,47161,50081
2,68758,69279
2,94183,99787
//Storyboard Layer 0 (Background)
//Storyboard Layer 1 (Failing)
//Storyboard Layer 2 (Passing)
//Storyboard Layer 3 (Foreground)
//Storyboard Sound Samples
//Background Colour Transformations
3,100,163,162,255

[TimingPoints]
8980,483.868878688526,4,2,0,80
16721,480.002078688523,4,2,0,80
20561,479.236178688523,4,2,0,100
32061,480.002078688524,4,2,0,100
51271,480.201878688524,4,2,0,100
70481,479.802278688523,4,2,0,100
85841,428.571428571429,4,2,0,100
100805,364.736263636364,4,1,0,80
113935,365.853658536585,4,1,0,80

[Colours]
Combo1 : 213,213,255
Combo2 : 0,149,149
Combo3 : 255,255,193
Combo4 : 125,125,255
Combo5 : 255,66,66

[HitObjects]
56,192,12850,2,0,B|240:192,1,180
328,192,13697,5,0
360,192,13818,2,0,B|464:304,1,135
464,256,14302,2,0,B|464:144,1,90
464,104,14786,5,0
336,104,15028,1,0
208,104,15270,1,0
80,104,15512,1,0
256,192,15754,1,0
48,344,16721,5,0
48,344,16841,1,0
112,344,17081,1,0
112,344,17201,1,0
176,344,17441,1,0
240,344,17681,2,0,B|392:344,1,135
408,344,18161,2,0,B|472:272,1,90
464,216,18641,1,0
464,184,18761,1,0
464,152,18881,1,0
464,88,19121,2,0,B|352:88,2,90
208,80,20561,5,0
144,80,20800,1,0
80,80,21040,1,0
80,144,21279,1,0
144,144,21519,1,0
208,144,21759,1,0
208,208,21998,1,0
144,208,22238,1,0
80,208,22477,2,0,B|80:328|168:328,1,135
168,320,22957,2,0,B|280:320,1,90
320,320,23436,1,0
320,320,23676,1,0
320,320,23915,1,0
456,192,24634,6,0,B|456:32|352:32,1,180
320,40,25353,2,0,B|40:40,1,270
48,104,26311,1,0
48,136,26431,1,0
48,168,26551,1,0
48,232,26791,1,0
48,296,27030,1,0
176,296,27509,5,0
208,296,27629,1,0
240,296,27749,1,0
304,296,27989,1,0
368,296,28228,1,0
432,296,28468,1,0
432,232,28708,1,0
432,144,28947,1,0
432,56,29187,1,0
320,56,29426,1,0
208,56,29666,1,0
96,56,29906,1,0
40,144,30145,1,0
256,192,32066,5,0
256,192,32181,2,0,B|352:192,1,90
344,248,32541,2,0,B|200:248,1,135
152,248,33021,1,0
40,248,33261,1,0
40,136,33501,1,0
232,40,33981,5,0
288,40,34101,2,0,B|400:40,1,90
432,40,34461,2,0,B|432:184,1,135
432,224,34941,1,0
432,328,35181,1,0
320,328,35421,1,0
104,328,35901,5,0
48,328,36021,2,0,B|48:208,1,90
48,184,36381,2,0,B|152:296,1,135
88,280,36861,1,0
88,168,37101,1,0
88,56,37341,1,0
192,56,37581,1,0
296,56,37821,1,0
400,56,38061,1,0
400,112,38181,1,0
400,168,38301,1,0
400,320,38661,5,0
344,320,38781,1,0
192,320,39021,1,0
40,320,39261,1,0
40,104,39741,5,0
96,104,39861,2,0,B|192:104,1,90
240,104,40221,2,0,B|408:104,1,135
424,104,40701,1,0
328,48,40941,1,0
240,104,41181,1,0
24,104,41661,5,0
24,160,41781,2,0,B|24:264,1,90
80,248,42141,2,0,B|16:296|48:368|128:360,1,135
136,352,42621,1,0
240,352,42861,1,0
344,352,43101,1,0
496,192,43581,5,0
496,136,43701,2,0,B|496:40,1,90
448,24,44061,2,0,B|448:184,1,135
392,160,44541,1,0
320,80,44781,1,0
248,160,45021,1,0
168,88,45261,1,0
56,88,45501,1,0
56,192,45741,1,0
112,192,45861,1,0
80,240,45981,1,0
80,352,46341,5,0
136,352,46461,1,0
288,352,46701,1,0
440,352,46941,1,0
432,56,51271,6,0,B|240:56,1,180
88,64,52111,1,0
56,112,52231,2,0,B|56:240,1,90
56,312,52711,2,0,B|160:312,1,90
256,312,53191,2,0,B|392:312,1,90
432,248,53672,2,0,B|432:120,2,90
56,40,55112,5,0
160,40,55352,2,0,B|296:40,1,90
360,40,55832,1,0
360,144,56073,2,0,B|360:256,1,90
360,344,56553,1,0
248,344,56793,2,0,B|248:240,1,90
248,144,57273,1,0
136,144,57513,2,0,B|128:272,1,90
120,344,57993,1,0
424,64,59194,5,0
312,64,59434,1,0
200,64,59674,1,0
88,64,59914,1,0
144,152,60154,1,0
256,152,60394,1,0
368,144,60634,1,0
368,248,60875,2,0,B|320:336|232:328,1,135
208,328,61355,2,0,B|104:328,1,90
64,232,61835,1,0
64,232,62075,1,0
64,232,62315,1,0
192,56,62795,6,0,B|400:56,1,180
472,96,63516,1,0
384,152,63756,2,0,B|160:152,1,180
104,200,64476,1,0
184,272,64716,2,0,B|376:272,1,180
472,272,65436,1,0
256,320,65917,5,0
200,320,66037,1,0
144,320,66157,1,0
32,320,66397,1,0
96,232,66637,1,0
32,144,66877,1,0
96,56,67117,1,0
160,144,67357,1,0
224,56,67597,1,0
288,144,67837,1,0
352,56,68078,1,0
416,144,68318,1,0
480,56,68558,1,0
408,112,70479,5,0
408,168,70600,2,0,B|408:280,1,90
360,288,70960,2,0,B|360:128,1,135
304,152,71440,1,0
304,256,71680,1,0
192,256,71920,1,0
96,64,72400,5,0
152,64,72520,2,0,B|256:64,1,90
296,64,72880,2,0,B|296:136|168:112,1,135
136,120,73359,1,0
80,216,73599,1,0
56,320,73839,1,0
272,328,74319,5,0
216,328,74439,2,0,B|288:256,1,90
312,304,74799,2,0,B|200:208,1,135
184,264,75279,1,0
272,200,75518,1,0
360,264,75758,1,0
440,192,75998,1,0
440,80,76238,1,0
328,80,76478,1,0
272,80,76598,1,0
216,80,76718,1,0
56,80,77078,5,0
56,136,77198,1,0
56,240,77438,1,0
56,344,77678,1,0
256,192,78157,12,0,79597
256,192,80077,12,0,81517
96,40,81996,1,0
96,96,82116,2,0,B|96:200,1,90
48,152,82476,2,0,B|48:304,1,135
104,288,82955,1,0
184,352,83195,1,0
264,288,83435,1,0
264,176,83675,1,0
344,104,83915,1,0
424,176,84155,1,0
424,232,84275,1,0
424,288,84395,1,0
320,160,84755,5,0
264,160,84875,1,0
200,72,85114,1,0
328,72,85354,1,0
408,344,85841,5,0
312,344,86055,1,0
216,344,86269,1,0
128,296,86483,1,0
112,200,86698,1,0
88,104,86912,1,0
136,88,87019,1,0
184,96,87126,1,0
272,144,87341,1,0
368,176,87555,5,0
368,176,87662,1,0
368,176,87769,1,0
368,176,87876,1,0
368,176,87983,1,0
296,240,88198,1,0
208,192,88412,1,0
136,256,88626,1,0
128,160,88841,1,0
184,240,89055,1,0
256,304,89269,5,0
256,208,89483,1,0
352,240,89698,1,0
352,144,89912,1,0
352,48,90126,1,0
352,48,90233,1,0
352,48,90341,1,0
352,48,90448,1,0
352,48,90555,1,0
256,48,90769,5,0
160,48,90983,1,0
160,144,91198,1,0
160,192,91305,1,0
160,240,91412,1,0
288,304,91733,1,0
336,304,91841,1,0
432,304,92055,1,0
432,256,92162,1,0
432,208,92269,1,0
328,104,92591,1,0
360,64,92698,1,0
264,64,92912,1,0
216,64,93019,1,0
168,64,93126,1,0
168,208,93448,5,0
216,208,93555,1,0
312,208,93769,1,0
264,296,93983,1,0
456,192,100987,5,0
376,216,101169,2,0,B|320:296,1,90
248,312,101534,2,0,B|149:310|72:264,1,180
56,184,102081,1,0
88,112,102263,6,0,B|168:64|264:128,1,180
336,128,102811,1,0
344,208,102993,2,0,B|296:288|352:328,1,90
256,336,103358,1,0
176,336,103540,2,0,B|104:272,1,90
184,248,103905,1,0
136,184,104087,2,0,B|64:128,1,90
128,80,104452,1,0
208,88,104634,2,0,B|160:176,1,90
248,176,104999,1,0
320,208,105181,6,0,B|440:176|416:72,1,180
336,72,105728,1,0
256,72,105911,2,0,B|104:72|56:128,1,180
80,184,106458,2,0,B|168:112|248:200,1,180
248,272,107005,2,0,B|184:200,1,90
176,280,107370,2,0,B|344:152,1,180
400,312,108099,5,0
440,152,108464,2,0,B|400:272,1,90
336,200,108829,1,0
120,80,109376,5,0
56,232,109741,1,0
88,160,109923,1,0
152,208,110105,1,0
192,136,110288,2,0,B|248:200|248:320,2,180
344,72,111382,6,0,B|232:128,2,90
416,216,112111,1,0
336,216,112294,2,0,B|200:352,1,180
288,336,112841,2,0,B|216:272,1,90
168,336,113206,2,0,B|104:248|176:144,1,180
288,64,113935,5,0
128,64,114300,1,0
128,224,114666,1,0
208,224,114849,1,0
288,224,115032,1,0
288,304,115215,1,0
288,144,115581,5,0
128,144,115947,1,0
48,144,116130,1,0
208,144,116495,1,0
352,216,116861,5,0
248,88,117227,1,0
176,232,117593,1,0
232,288,117776,1,0
312,296,117959,1,0
392,280,118142,1,0
392,120,118508,1,0
328,72,118691,1,0
168,80,119056,5,0
168,80,119422,1,0
64,208,119788,5,0
144,352,120154,1,0
184,192,120520,1,0
208,272,120703,1,0
144,216,120886,1,0
176,288,121069,1,0
336,320,121434,5,0
472,224,121800,1,0
432,152,121983,1,0
312,80,122349,1,0
152,80,122715,5,0
32,192,123081,1,0
112,328,123447,1,0
152,256,123630,1,0
192,328,123813,1,0
232,256,123995,1,0
376,328,124361,1,0
432,264,124544,1,0
176,32,124910,5,0
336,32,125276,1,0
