osu file format v5

[General]
AudioFilename: Hatsune Miku - Kurutto Odotte.mp3
AudioLeadIn: 0
PreviewTime: -1
Countdown: 1
SampleSet: Soft
StackLeniency: 0.7
Mode: 0
EditorBookmarks: 105090

[Metadata]
Title:Kurutto Odotte
Artist:Hatsune Miku
Creator:Hitoshirenu Shourai
Version:Easy
Source:
Tags:

[Difficulty]
HPDrainRate:4
CircleSize:4
OverallDifficulty:4
SliderMultiplier:1
SliderTickRate:4

[Events]
//Background and Video events
0,0,"vlcsnap-4894130.png"
1,-300,"Kurutto.avi"
//Break Periods
2,30345,30741
2,47161,50081
2,68758,69279
2,94183,99787
//Storyboard Layer 0 (Background)
//Storyboard Layer 1 (Failing)
//Storyboard Layer 2 (Passing)
//Storyboard Layer 3 (Foreground)
//Storyboard Sound Samples
//Background Colour Transformations
3,100,163,162,255

[TimingPoints]
8980,483.868878688526,4,2,0,80
16721,480.002078688523,4,2,0,80
20561,479.236178688523,4,2,0,100
32061,480.002078688524,4,2,0,100
51271,480.201878688524,4,2,0,100
70481,479.802278688523,4,2,0,100
85841,428.571428571429,4,2,0,100
100805,364.736263636364,4,1,0,80
113935,365.853658536585,4,1,0,80

[Colours]
Combo1 : 213,213,255
Combo2 : 0,149,149
Combo3 : 255,255,193
Combo4 : 125,125,255
Combo5 : 255,66,66

[HitObjects]
424,104,12850,2,0,B|424:224,1,100
360,168,13818,2,0,B|360:288,1,100
288,288,14786,5,0
248,288,15028,1,0
208,288,15270,1,0
168,288,15512,1,0
128,288,15754,1,0
128,128,16721,6,0,B|128:56,2,50
208,128,17681,2,0,B|208:240,1,100
288,248,18641,2,0,B|288:192,2,50
368,248,19601,1,0
440,104,20561,5,0
440,104,20800,1,0
440,104,21040,1,0
360,104,21519,5,0
360,104,21759,1,0
360,104,21998,1,0
280,104,22477,6,0,B|160:104,1,100
96,104,23436,5,0
96,104,23676,1,0
96,104,23915,1,0
96,184,24394,6,0,B|96:304,1,100
160,240,25353,2,0,B|160:344,1,100
240,344,26311,6,0,B|240:224,1,100
312,280,27270,2,0,B|312:160,1,100
256,192,28228,12,0,30145
120,88,32061,5,0
120,88,32301,1,0
120,88,32541,1,0
200,88,33021,2,0,B|312:88,1,100
376,88,33981,6,0,B|376:160,2,50
456,88,34941,1,0
456,88,35181,1,0
456,88,35421,1,0
456,168,35901,6,0,B|456:288,1,100
376,280,36861,1,0
376,280,37101,1,0
376,280,37341,1,0
296,280,37821,6,0,B|224:280,2,50
296,200,38781,5,0
296,160,39021,1,0
296,120,39261,1,0
240,56,39741,6,0,B|192:56,4,25
160,56,40701,2,0,B|112:56,2,25
120,56,41181,1,0
96,128,41661,6,0,B|96:240,1,100
96,304,42621,1,0
136,304,42861,1,0
176,304,43101,1,0
256,304,43581,6,0,B|368:304,3,100
376,224,45501,2,0,B|376:176,4,25
376,88,46461,5,0
304,88,46701,1,0
232,88,46941,1,0
256,192,51271,12,0,54152
256,48,55112,1,0
256,48,55352,1,0
256,48,55592,1,0
256,128,56073,5,0
256,128,56313,1,0
256,128,56553,1,0
256,208,57033,6,0,B|256:264,4,50
80,312,59194,6,0,B|136:312,2,50
80,312,59914,2,0,B|80:200,1,100
88,128,60875,6,0,B|88:24,1,100
168,32,61835,1,0
168,32,62075,1,0
168,32,62315,1,0
248,32,62795,6,0,B|368:32,1,100
368,112,63756,2,0,B|256:112,1,100
248,192,64716,2,0,B|368:192,1,100
368,312,65917,2,0,B|312:312,2,50
256,192,66637,12,0,68558
136,80,70481,1,0
216,80,70960,1,0
296,80,71440,1,0
336,80,71680,1,0
376,80,71920,1,0
376,160,72400,5,0
376,240,72880,1,0
376,320,73359,1,0
336,320,73599,1,0
296,320,73839,1,0
256,192,74319,12,0,75758
104,192,76238,5,0
104,192,76478,1,0
104,192,76718,1,0
184,192,77198,5,0
224,192,77438,1,0
264,192,77678,1,0
256,192,78157,12,0,79597
256,192,80077,12,0,81516
256,192,81996,12,0,83435
256,192,83915,1,0
256,192,84155,1,0
256,192,84395,1,0
224,264,84875,2,0,B|288:264,2,50
168,192,85841,6,0,B|40:24,1,200
128,40,87126,1,0
208,40,87555,2,0,B|352:184,1,200
368,256,88841,1,0
368,336,89269,6,0,B|144:336,1,200
88,328,90555,1,0
88,248,90983,5,0
88,168,91412,1,0
96,88,91841,5,0
176,88,92269,1,0
256,88,92698,5,0
336,88,93126,1,0
336,168,93555,5,0
296,168,93769,1,0
256,168,93983,1,0
256,192,100987,6,0,B|256:248,2,50
256,192,101534,2,0,B|256:80,1,100
176,96,102263,5,0
96,96,102628,1,0
64,168,102993,1,0
56,288,103540,2,0,B|136:264|200:312,1,150
280,304,104452,1,0
360,304,104817,1,0
408,240,105181,6,0,B|432:120,1,100
432,64,105911,2,0,B|320:104,1,100
272,48,106640,2,0,B|224:104,2,50
192,48,107370,2,0,B|112:120,1,100
256,192,108099,12,0,110652
80,192,111017,2,0,B|264:296,1,200
256,128,112476,6,0,B|192:152,6,50
336,128,113935,5,0
392,184,114300,1,0
392,264,114666,1,0
336,320,115032,1,0
96,320,116130,5,0
96,240,116495,1,0
152,176,116861,5,0
200,112,117227,1,0
280,112,117593,1,0
328,176,117959,1,0
432,112,118508,1,0
432,112,118691,1,0
368,64,119056,5,0
288,64,119422,1,0
224,112,119788,5,0
224,192,120154,1,0
168,248,120520,1,0
88,248,120886,1,0
312,160,121983,5,0
368,208,122349,1,0
376,128,122715,5,0
296,128,123081,1,0
216,136,123447,1,0
136,136,123813,1,0
176,40,124910,5,0
336,40,125276,1,0
