osu file format v12

[General]
AudioFilename: Hatsune Miku - koufuku anshin iinkai.mp3
AudioLeadIn: 0
PreviewTime: 97540
Countdown: 0
SampleSet: Soft
StackLeniency: 0.7
Mode: 0
LetterboxInBreaks: 1
WidescreenStoryboard: 0

[Editor]
Bookmarks: 67767,97767,112767,127767,135267,150267,180260,195267,225267,240267,255267
DistanceSpacing: 0.5
BeatDivisor: 4
GridSize: 8

[Metadata]
Title:Kochira Koufuku Anshin Iinkai desu
TitleUnicode:こちら、幸福安心委員会です
Artist:Hatsune Miku
ArtistUnicode:Hatsune Miku
Creator:Walaaa
Version:Hard
Source:NicoNico
Tags:Vocaloid NicoNico Shiawase
BeatmapID:164691
BeatmapSetID:53940

[Difficulty]
HPDrainRate:7
CircleSize:4
OverallDifficulty:9
ApproachRate:8
SliderMultiplier:1.8
SliderTickRate:2

[Events]
//Background and Video events
Video,1,"Hatsune Miku - koufuku anshin iinkai.avi"
0,0,"BG.jpg",0,0
//Break Periods
2,112974,127025
2,150006,178587
2,180006,194525
//Storyboard Layer 0 (Background)
//Storyboard Layer 1 (Fail)
//Storyboard Layer 2 (Pass)
//Storyboard Layer 3 (Foreground)
//Storyboard Sound Samples
//Background Colour Transformations
3,100,163,162,255

[TimingPoints]
37775,468.75,4,2,0,40,1,0
67775,-100,4,1,0,60,0,0
82775,-80,4,1,0,70,0,0
97775,-66.6666666666667,4,1,0,75,0,1
112775,-100,4,1,0,70,0,0
180275,-100,4,2,0,40,0,0
225275,-100,4,1,0,60,0,0
240275,-66.6666666666667,4,1,0,75,0,1
255275,-100,4,1,0,60,0,0

[Colours]
Combo1 : 255,255,81
Combo2 : 219,216,202
Combo3 : 128,255,255
Combo4 : 255,128,128

[HitObjects]
128,272,37775,2,0,B|232:272|232:272|184:320|184:320|288:320,1,270
282,320,38712,1,0,0:0:0:0:
424,208,39181,1,0,0:0:0:0:
424,208,39415,2,0,B|424:160|424:160|392:136|392:136|360:160|360:160|360:216,1,180
360,212,40118,1,0,0:0:0:0:
280,168,40353,2,0,B|280:120|280:120|256:88,1,90
176,40,40821,2,0,B|144:72|144:72|144:120,1,90
144,116,41290,1,0,0:0:0:0:
128,208,41525,6,0,B|128:296|128:296|224:296,1,180
216,208,42228,2,0,B|216:112|216:112|304:112,1,180
392,112,42931,2,0,B|392:200|392:200|296:200,1,180
248,272,43634,2,0,B|152:272|152:272|152:176,1,180
200,112,44337,5,8,0:0:0:0:
200,112,44571,1,0,0:0:0:0:
288,104,44806,1,8,0:0:0:0:
288,104,45040,1,0,0:0:0:0:
368,152,45275,6,0,B|424:240|424:240|360:280,1,180
304,208,45978,2,0,B|256:128|256:128|184:176,1,180
232,256,46681,2,0,B|152:312|152:312|104:232,1,180
72,160,47384,2,0,B|72:72|72:72|168:72,1,180
256,72,48087,1,8,0:0:0:0:
344,72,48321,1,0,0:0:0:0:
256,72,48556,1,8,0:0:0:0:
344,72,48790,1,0,0:0:0:0:
416,128,49025,6,0,B|416:264|416:264|336:200|336:200|336:320,1,360
336,320,50431,1,0,0:0:0:0:
152,320,50900,2,0,B|152:200|152:200|72:264|72:264|72:128,1,360
72,128,52306,1,0,0:0:0:0:
240,64,52775,6,0,B|376:64|376:64|376:112,1,180
288,120,53478,2,0,B|288:168|288:168|424:168,1,180
424,256,54181,1,0,0:0:0:0:
424,256,54415,1,0,0:0:0:0:
424,344,54650,2,0,B|288:344|288:344|288:288,1,180
376,280,55353,2,0,B|376:232|376:232|240:232,1,180
244,232,56056,1,0,0:0:0:0:
208,56,56525,6,0,B|64:56|64:56|64:96,1,180
304,128,57462,2,0,B|440:128|440:128|440:176,1,180,0|0,0:0|0:0,0:0:0:0:
352,200,58165,2,0,B|352:244|352:244|304:244,1,90
256,168,58634,2,0,B|206:168|206:168|206:208,1,90
264,280,59103,2,0,B|264:328|264:328|216:328,1,90
160,264,59571,2,0,B|112:264|112:264|112:312,1,90,0|0,0:0|0:0,0:0:0:0:
112,306,60040,2,0,B|80:336|80:336|40:304,5,90
80,224,61446,6,0,B|80:136,1,90,0|0,0:0|0:0,0:0:0:0:
168,136,61915,2,0,B|168:48,1,90
352,48,62618,1,0,0:0:0:0:
432,208,63087,1,0,0:0:0:0:
272,288,63556,1,0,0:0:0:0:
208,120,64025,6,0,B|144:120|144:120|144:168|144:168|72:168,1,180
296,184,64962,2,0,B|352:184|352:184|352:232|352:232|432:232,1,180
216,256,65900,2,0,B|144:256|144:256|144:304|144:304|64:304,1,180
104,128,66837,5,8,0:0:0:0:
120,112,66954,1,0,0:0:0:0:
136,96,67071,1,0,0:0:0:0:
256,64,67306,1,8,0:0:0:0:
272,80,67423,1,0,0:0:0:0:
288,96,67540,1,0,0:0:0:0:
344,200,67775,6,0,B|344:248|344:248|304:248|304:248|304:352,1,180,0|8,0:0|0:0,0:0:0:0:
216,344,68478,1,0,0:0:0:0:
128,344,68712,1,0,0:0:0:0:
40,344,68946,1,0,0:0:0:0:
88,272,69181,1,8,0:0:0:0:
176,272,69415,1,0,0:0:0:0:
128,192,69650,6,0,B|80:192|80:192|96:152,1,90,0|0,0:0|0:0,0:0:0:0:
96,64,70118,2,0,B|96:16|96:16|136:32,1,90,8|0,0:0|0:0,0:0:0:0:
224,32,70587,2,0,B|272:32|272:32|256:72,1,90,0|0,0:0|0:0,0:0:0:0:
256,160,71056,2,0,B|256:208|256:208|216:192,1,90,8|0,0:0|0:0,0:0:0:0:
168,120,71525,1,0,0:0:0:0:
256,96,71759,6,0,B|304:80|304:80|344:96,1,90,0|8,0:0|0:0,0:0:0:0:
408,160,72228,2,0,B|360:176|360:176|320:160,1,90,0|0,0:0|0:0,0:0:0:0:
256,192,72931,12,0,75275,0:0:0:0:
160,64,75509,5,0,0:0:0:0:
200,144,75743,1,8,0:0:0:0:
272,88,75978,1,0,0:0:0:0:
200,144,76212,1,0,0:0:0:0:
272,200,76446,1,0,0:0:0:0:
200,144,76681,1,8,0:0:0:0:
136,208,76915,1,0,0:0:0:0:
200,144,77150,1,0,0:0:0:0:
136,80,77384,6,0,B|184:64|184:64|224:80,1,90,0|8,0:0|0:0,0:0:0:0:
220,78,77853,2,0,B|264:64|264:64|304:80,1,90
305,80,78321,2,0,B|352:64|352:64|392:80,1,90,0|8,0:0|0:0,0:0:0:0:
389,78,78790,2,0,B|440:64|440:64|480:80,1,90
424,152,79259,2,0,B|408:184|408:184|448:224|448:224|408:272|408:272|432:296,1,180
256,192,80196,12,0,82306,0:0:0:0:
344,144,82775,6,0,B|304:104|304:104|248:88,1,112.5
136,80,83243,2,0,B|87:108|87:108|57:158,1,112.5,8|0,0:0|0:0,0:0:0:0:
168,192,83712,2,0,B|184:216|184:216|200:192,2,56.25
168,192,84181,1,8,0:0:0:0:
368,296,84650,2,0,B|408:256|408:256|424:200,1,112.5
424,88,85118,2,0,B|384:48|384:48|328:32,1,112.5,8|0,0:0|0:0,0:0:0:0:
320,144,85587,2,0,B|296:160|296:160|320:176,2,56.25
320,144,86056,1,8,0:0:0:0:
120,40,86525,6,0,B|80:80,1,56.25
120,112,86759,2,0,B|160:152,1,56.25
120,192,86993,2,0,B|80:232,1,56.25,8|0,0:0|0:0,0:0:0:0:
120,272,87228,2,0,B|160:312,1,56.25
216,312,87462,2,0,B|240:328|240:328|264:312,6,56.25,0|0|0|0|8|0|0,0:0|0:0|0:0|0:0|0:0|0:0|0:0,0:0:0:0:
328,296,88400,2,0,B|368:256,1,56.25
328,216,88634,2,0,B|288:176,1,56.25
328,136,88868,2,0,B|368:96,1,56.25,8|0,0:0|0:0,0:0:0:0:
200,64,89337,5,0,0:0:0:0:
104,120,89571,1,0,0:0:0:0:
128,232,89806,1,8,0:0:0:0:
232,272,90040,1,0,0:0:0:0:
232,272,90275,2,0,B|128:232,1,112.5
104,120,90743,2,0,B|200:64,1,112.5,8|0,0:0|0:0,0:0:0:0:
312,80,91212,2,0,B|336:96|336:96|312:112,3,56.25
312,168,91681,5,8,0:0:0:0:
312,168,91915,1,0,0:0:0:0:
224,240,92150,1,0,0:0:0:0:
224,240,92384,1,0,0:0:0:0:
120,288,92618,1,8,0:0:0:0:
120,288,92853,1,0,0:0:0:0:
24,224,93087,2,0,B|24:168,6,56.25,0|0|0|0|8|0|0,0:0|0:0|0:0|0:0|0:0|0:0|0:0,0:0:0:0:
88,136,94025,6,0,B|128:104|128:104|88:56,1,112.5
192,104,94493,1,8,0:0:0:0:
416,72,94962,2,0,B|376:104|376:104|416:152,1,112.5
312,104,95431,1,8,0:0:0:0:
256,192,95900,12,0,97306,0:0:0:0:
320,72,97775,6,0,B|376:112|312:216,1,135.000005149842,2|0,0:0|0:0,0:0:0:0:
304,216,98126,1,0,0:0:0:0:
280,232,98243,2,0,B|232:264|136:176,1,135.000005149842,2|0,0:0|0:0,0:0:0:0:
104,72,98712,2,8,B|144:72|160:104,2,67.5000025749208
216,144,99181,1,0,0:0:0:0:
448,320,99650,6,0,B|488:288|456:176,1,135.000005149842,2|0,0:0|0:0,0:0:0:0:
432,176,100001,1,0,0:0:0:0:
400,192,100118,2,0,B|352:224|392:320,1,135.000005149842,2|0,0:0|0:0,0:0:0:0:
256,336,100587,2,8,B|304:312|288:272,2,67.5000025749208
288,208,101056,1,0,0:0:0:0:
72,48,101525,6,0,B|104:104|64:176,1,135.000005149842,2|0,0:0|0:0,0:0:0:0:
96,176,101876,1,0,0:0:0:0:
128,176,101993,2,0,B|88:104|128:32,1,135.000005149842,2|0,0:0|0:0,0:0:0:0:
240,112,102462,2,8,B|280:120|288:160,2,67.5000025749208
360,168,102931,1,0,0:0:0:0:
176,312,103400,5,8,0:0:0:0:
176,312,103517,1,0,0:0:0:0:
176,312,103634,1,0,0:0:0:0:
112,192,103868,5,8,0:0:0:0:
112,192,103985,1,0,0:0:0:0:
112,192,104103,1,0,0:0:0:0:
248,216,104337,5,8,0:0:0:0:
248,216,104454,1,0,0:0:0:0:
248,216,104571,1,0,0:0:0:0:
224,80,104806,5,8,0:0:0:0:
224,80,104923,1,0,0:0:0:0:
224,80,105040,1,0,0:0:0:0:
360,104,105275,6,0,B|432:144|432:216,1,135.000005149842,2|0,0:0|0:0,0:0:0:0:
320,288,105743,2,0,B|272:336|184:312,1,135.000005149842,2|0,0:0|0:0,0:0:0:0:
280,216,106212,1,8,0:0:0:0:
280,216,106329,1,8,0:0:0:0:
280,216,106446,1,8,0:0:0:0:
280,216,106681,1,0,0:0:0:0:
56,64,107150,6,0,B|16:128|32:200,1,135.000005149842,2|0,0:0|0:0,0:0:0:0:
120,136,107618,2,0,B|152:200|88:280,1,135.000005149842,2|0,0:0|0:0,0:0:0:0:
224,328,108087,1,8,0:0:0:0:
224,328,108204,1,8,0:0:0:0:
224,328,108321,1,8,0:0:0:0:
224,328,108556,1,0,0:0:0:0:
232,56,109025,6,0,B|288:112|360:96,1,135.000005149842,2|0,0:0|0:0,0:0:0:0:
456,184,109493,2,0,B|416:248|440:328,1,135.000005149842,2|0,0:0|0:0,0:0:0:0:
320,248,109962,1,8,0:0:0:0:
320,248,110079,1,8,0:0:0:0:
320,248,110196,1,8,0:0:0:0:
320,248,110431,1,0,0:0:0:0:
80,120,110900,6,0,B|120:104|144:120,2,67.5000025749208,8|0|0,0:0|0:0|0:0,0:0:0:0:
144,240,111368,6,0,B|104:224|80:240,2,67.5000025749208,8|0|0,0:0|0:0|0:0,0:0:0:0:
280,240,111837,6,0,B|320:224|344:240,2,67.5000025749208,8|0|0,0:0|0:0|0:0,0:0:0:0:
344,120,112306,6,0,B|304:104|280:120,4,67.5000025749208,8|0|8|0|12,0:0|0:0|0:0|0:0|0:0,0:0:0:0:
296,96,127775,6,0,B|344:96|344:96|344:136,1,90,0|8,0:0|0:0,0:0:0:0:
408,200,128243,2,0,B|408:248|408:248|352:248,1,90,0|8,0:0|0:0,0:0:0:0:
288,208,128712,2,0,B|240:208|240:208|240:256,1,90,0|8,0:0|0:0,0:0:0:0:
296,320,129181,2,0,B|272:328|272:328|248:320,3,45,0|0|8|0,0:0|0:0|0:0|0:0,0:0:0:0:
152,288,129650,6,0,B|152:240|152:240|112:240,1,90,0|8,0:0|0:0,0:0:0:0:
24,216,130118,2,0,B|24:168|24:168|64:168,1,90,0|8,0:0|0:0,0:0:0:0:
152,160,130587,2,0,B|152:104|152:104|88:104,1,90,0|8,0:0|0:0,0:0:0:0:
192,56,131056,2,0,B|210:73|210:73|214:98,3,45,0|0|8|0,0:0|0:0|0:0|0:0,0:0:0:0:
312,88,131525,6,0,B|312:136|312:136|352:136,1,90,0|8,0:0|0:0,0:0:0:0:
432,176,131993,2,0,B|432:224|432:224|392:224,1,90,0|8,0:0|0:0,0:0:0:0:
336,296,132462,2,0,B|288:296|288:296|288:248,1,90,0|8,0:0|0:0,0:0:0:0:
224,192,132931,2,0,B|232:168|232:168|224:144,3,45,0|0|8|0,0:0|0:0|0:0|0:0,0:0:0:0:
160,80,133400,6,0,B|120:128,1,45
104,152,133634,2,0,B|104:200,1,45,8|0,0:0|0:0,0:0:0:0:
136,232,133868,2,0,B|168:264,3,45,0|0|8|0,0:0|0:0|0:0|0:0,0:0:0:0:
232,312,134337,6,0,B|264:280,1,45
296,248,134571,2,0,B|296:200,1,45,8|0,0:0|0:0,0:0:0:0:
264,168,134806,2,0,B|232:136,3,45,0|0|8|0,0:0|0:0|0:0|0:0,0:0:0:0:
176,72,135275,5,0,0:0:0:0:
56,240,135626,1,0,0:0:0:0:
288,240,135978,1,0,0:0:0:0:
176,192,136212,1,8,0:0:0:0:
112,136,136446,5,0,0:0:0:0:
240,136,136681,1,0,0:0:0:0:
176,272,136915,1,0,0:0:0:0:
176,192,137150,5,0,0:0:0:0:
408,192,137501,1,0,0:0:0:0:
296,24,137853,1,0,0:0:0:0:
296,136,138087,1,8,0:0:0:0:
264,216,138321,6,0,B|232:248|232:248|264:280,1,90
352,280,138790,2,0,B|384:248|384:248|352:216,1,90
256,192,139493,12,0,142775,0:0:0:0:
232,56,143243,5,0,0:0:0:0:
264,184,143478,1,0,0:0:0:0:
376,112,143712,1,8,0:0:0:0:
264,184,143946,1,0,0:0:0:0:
368,264,144181,1,0,0:0:0:0:
264,184,144415,1,0,0:0:0:0:
200,304,144650,6,0,B|152:304,1,45
112,288,144884,2,0,B|72:264,1,45
72,216,145118,2,0,B|72:168,1,45
80,128,145353,2,0,B|112:96,1,45
152,80,145587,2,0,B|200:80,1,45,0|0,0:0|0:0,0:0:0:0:
216,80,145821,5,8,0:0:0:0:
232,168,146056,1,8,0:0:0:0:
240,256,146290,1,8,0:0:0:0:
320,288,146525,6,0,B|368:288|368:288|320:216|320:216|376:216,1,180
224,104,147462,2,0,B|176:104|176:104|224:176|224:176|160:176,1,180
256,192,148282,12,0,149806,0:0:0:0:
176,192,179337,5,0,0:0:0:0:
200,192,179455,1,0,0:0:0:0:
224,192,179572,1,0,0:0:0:0:
248,192,179689,1,0,0:0:0:0:
272,192,179806,1,0,0:0:0:0:
304,80,195275,6,0,B|304:168|304:168|352:168|352:168|352:304,1,270
352,302,196212,1,0,0:0:0:0:
168,304,196681,1,0,0:0:0:0:
168,304,196915,2,0,B|168:224|168:224|120:224|120:224|120:168,1,180
120,172,197618,1,0,0:0:0:0:
104,80,197853,2,0,B|144:56|144:56|184:80,1,90
256,128,198321,2,0,B|304:152|304:152|336:128,1,90
336,312,199025,6,0,B|296:232|296:232|400:192,1,180
344,120,199728,2,0,B|264:160|264:160|224:56,1,180
152,112,200431,2,0,B|192:192|192:192|88:232,1,180
144,304,201134,2,0,B|224:264|224:264|264:368,1,180
320,280,201837,1,0,0:0:0:0:
320,280,202071,1,0,0:0:0:0:
352,192,202306,1,0,0:0:0:0:
352,192,202540,1,0,0:0:0:0:
264,216,202775,6,0,B|264:160|264:160|208:160|208:160|208:216|208:216|160:216|160:216|160:160,1,270
105,266,203712,2,0,B|161:266|161:266|161:210|161:210|105:210|105:210|105:162|105:162|161:162,1,270
56,108,204650,2,0,B|56:164|56:164|112:164|112:164|112:108|112:108|160:108|160:108|160:164,1,270
214,58,205587,2,0,B|158:58|158:58|158:114|158:114|214:114|214:114|214:162|214:162|158:162,1,270
96,232,206525,6,0,B|136:256|136:256|176:232,3,90
208,320,207462,1,0,0:0:0:0:
280,264,207696,1,0,0:0:0:0:
360,304,207931,1,0,0:0:0:0:
432,248,208165,1,0,0:0:0:0:
384,168,208400,6,0,B|344:144|344:144|304:168,3,90
256,96,209337,1,0,0:0:0:0:
200,168,209571,1,0,0:0:0:0:
128,112,209806,1,0,0:0:0:0:
72,184,210040,1,0,0:0:0:0:
120,264,210275,6,0,B|152:296|152:296|152:208|152:208|200:208,1,180
200,208,210978,2,0,B|232:240|232:240|232:152|232:152|280:152,1,180
280,152,211681,2,0,B|312:184|312:184|312:96|312:96|360:96,1,180
360,96,212384,2,0,B|392:128|392:128|392:40|392:40|440:40,1,180
464,128,213087,1,0,0:0:0:0:
464,216,213321,1,0,0:0:0:0:
464,128,213556,1,0,0:0:0:0:
464,216,213790,1,0,0:0:0:0:
400,280,214025,6,0,B|312:280,1,90
344,200,214493,2,0,B|248:200,1,90
296,120,214962,2,0,B|208:120,1,90
248,40,215431,2,0,B|160:40,1,90
176,128,215900,2,0,B|112:128|112:128|136:128|136:128|32:128,3,180
200,224,217775,2,0,B|200:272|200:320,4,90
120,192,218946,6,0,B|120:96,1,90
184,40,219415,2,0,B|272:40,1,90
424,136,220118,1,0,0:0:0:0:
248,184,220587,1,0,0:0:0:0:
328,344,221056,1,0,0:0:0:0:
152,312,221525,6,0,B|152:264|152:264|192:264,1,90
194,264,221993,2,0,B|240:264|240:264|240:312,1,90
320,264,222462,2,0,B|320:312|320:312|360:312,1,90
362,312,222931,2,0,B|408:312|408:312|408:256,1,90
424,176,223400,2,0,B|400:136|400:136|352:128,2,90
280,72,224337,5,0,0:0:0:0:
264,88,224454,1,0,0:0:0:0:
248,104,224571,1,0,0:0:0:0:
168,264,224806,1,0,0:0:0:0:
184,280,224923,1,0,0:0:0:0:
200,296,225040,1,0,0:0:0:0:
288,312,225275,6,0,B|328:296|328:296|336:248,1,90
352,160,225743,1,0,0:0:0:0:
200,56,226212,2,0,B|160:72|160:72|136:112,2,90
208,240,227150,2,0,B|160:240|160:240|128:200,1,90
88,128,227618,1,0,0:0:0:0:
264,80,228087,1,0,0:0:0:0:
352,112,228321,1,0,0:0:0:0:
304,192,228556,1,0,0:0:0:0:
304,192,228673,1,0,0:0:0:0:
304,192,228790,1,0,0:0:0:0:
200,336,229259,6,0,B|176:296,1,45
152,264,229493,2,0,B|127:222,1,45
104,184,229728,1,0,0:0:0:0:
128,96,229962,5,0,0:0:0:0:
216,64,230196,1,0,0:0:0:0:
280,128,230431,1,0,0:0:0:0:
344,64,230665,1,0,0:0:0:0:
408,128,230900,1,0,0:0:0:0:
352,200,231134,6,0,B|384:240|384:240|352:272,1,90
288,320,231603,2,0,B|248:352|248:352|216:320,1,90
160,256,232071,2,0,B|128:216|128:216|160:184,1,90
224,128,232540,6,0,B|200:88,1,45
224,128,232775,2,0,B|264:96,1,45
224,128,233009,2,0,B|184:104|184:104|184:192|184:192|224:168,1,180
296,112,233712,6,0,B|360:48,1,90
359,48,234181,2,0,B|360:144,1,90
359,138,234650,2,0,B|360:232,1,90
359,228,235118,2,0,B|296:160,1,90
128,192,235587,5,0,0:0:0:0:
384,192,235821,1,0,0:0:0:0:
128,192,236056,1,0,0:0:0:0:
384,192,236290,1,0,0:0:0:0:
128,192,236525,1,0,0:0:0:0:
256,192,236993,12,0,239337,0:0:0:0:
192,64,240275,2,0,B|250:81|199:154|269:170,1,135.000005149842
264,200,240626,1,0,0:0:0:0:
264,232,240743,2,0,B|208:256|200:168|136:200,1,135.000005149842
56,96,241212,2,0,B|64:64|112:48,2,67.5000025749208
56,96,241681,1,0,0:0:0:0:
328,80,242150,6,0,B|384:88|384:168|328:176,1,135.000005149842
296,184,242501,1,0,0:0:0:0:
264,192,242618,2,0,B|208:200|208:280|272:288,1,135.000005149842
392,312,243087,2,0,B|440:312|456:280,2,67.5000025749208
392,312,243556,1,0,0:0:0:0:
216,56,244025,6,0,B|216:128|192:152|168:152|144:128,1,135.000005149842
112,128,244376,1,0,0:0:0:0:
80,144,244493,2,0,B|80:216|96:240|120:240|136:208,1,135.000005149842
240,296,244962,2,0,B|264:344|288:288,2,67.5000025749208
240,296,245431,1,0,0:0:0:0:
96,144,245900,6,0,B|96:72,1,67.5000025749208
128,240,246134,2,0,B|128:312,1,67.5000025749208
184,144,246368,2,0,B|184:72,1,67.5000025749208
224,240,246603,2,0,B|224:312,1,67.5000025749208
312,264,246837,6,0,B|312:192,1,67.5000025749208
352,72,247071,2,0,B|352:160,1,67.5000025749208
400,264,247306,2,0,B|400:184,1,67.5000025749208
440,72,247540,2,0,B|440:144,1,67.5000025749208
440,176,247775,5,0,0:0:0:0:
440,176,248009,1,0,0:0:0:0:
312,136,248243,1,0,0:0:0:0:
312,136,248478,1,0,0:0:0:0:
256,248,248712,1,0,0:0:0:0:
256,248,248829,1,0,0:0:0:0:
256,248,248946,1,0,0:0:0:0:
256,248,249181,1,0,0:0:0:0:
40,88,249650,5,0,0:0:0:0:
40,88,249884,1,0,0:0:0:0:
168,48,250118,1,0,0:0:0:0:
168,48,250353,1,0,0:0:0:0:
304,72,250587,1,0,0:0:0:0:
304,72,250704,1,0,0:0:0:0:
304,72,250821,1,0,0:0:0:0:
304,72,251056,1,0,0:0:0:0:
160,304,251525,5,0,0:0:0:0:
160,168,251759,1,0,0:0:0:0:
160,304,251993,1,0,0:0:0:0:
160,168,252228,1,0,0:0:0:0:
280,232,252462,1,0,0:0:0:0:
312,232,252579,1,0,0:0:0:0:
344,232,252696,1,0,0:0:0:0:
280,232,252931,1,0,0:0:0:0:
72,64,253400,5,0,0:0:0:0:
56,96,253517,1,0,0:0:0:0:
88,96,253634,1,0,0:0:0:0:
120,272,253868,5,0,0:0:0:0:
136,304,253985,1,0,0:0:0:0:
152,272,254103,1,0,0:0:0:0:
296,312,254337,5,0,0:0:0:0:
328,312,254454,1,0,0:0:0:0:
312,280,254571,1,0,0:0:0:0:
256,152,254806,5,0,0:0:0:0:
232,136,254923,1,0,0:0:0:0:
240,104,255040,1,0,0:0:0:0:
272,104,255157,1,0,0:0:0:0:
280,136,255275,1,0,0:0:0:0:
