osu file format v9

[General]
AudioFilename: Kimi to Sekai.mp3
AudioLeadIn: 1500
PreviewTime: 63436
Countdown: 0
SampleSet: Soft
StackLeniency: 0.7
Mode: 0
LetterboxInBreaks: 1

[Editor]
Bookmarks: 152499
DistanceSpacing: 1.2
BeatDivisor: 4
GridSize: 4

[Metadata]
Title:Kimi to Sekai
Artist:Hatsune Miku
Creator:banvi
Version:Normal
Source:Paolino
Tags:Vocaloid Vocaloid2

[Difficulty]
HPDrainRate:3
CircleSize:4
OverallDifficulty:3
ApproachRate:3
SliderMultiplier:0.65
SliderTickRate:1

[Events]
//Background and Video events
0,0,"bgm.jpg"
//Break Periods
2,19199,26184
2,118949,124059
//Storyboard Layer 0 (Background)
//Storyboard Layer 1 (Fail)
//Storyboard Layer 2 (Pass)
//Storyboard Layer 3 (Foreground)
//Storyboard Sound Samples
//Background Colour Transformations
3,100,163,162,255

[TimingPoints]
-1251,375,3,2,1,40,1,0
9811,-100,3,2,1,30,0,0
10092,-100,3,2,1,50,0,0
18811,-100,3,2,2,50,0,0
27249,-100,3,2,1,50,0,0
45905,-100,3,2,2,25,0,0
46092,-100,3,2,1,40,0,0
63999,-100,3,2,2,40,0,1
64092,-100,3,2,2,60,0,0
81999,-100,3,2,2,40,0,1
82092,-100,3,2,2,60,0,0
99905,-100,3,2,2,40,0,0
100092,-100,3,2,2,50,0,0
108436,-100,3,2,2,10,0,0
109749,375,3,2,1,40,1,0
114061,-100,3,2,1,50,0,0
118655,-100,3,2,1,30,0,0
125686,-100,3,2,1,40,0,0
126061,-100,3,2,1,50,0,0
126436,-100,3,2,1,60,0,0
127749,-100,3,2,2,60,0,1
127842,-100,3,2,2,60,0,1
142374,-100,3,2,2,70,0,0
142749,-100,3,2,2,40,0,0
143499,-100,3,2,2,60,0,1
143592,-100,3,2,2,65,0,1
160749,-100,3,2,2,65,0,0
161499,-100,3,2,2,60,0,1
161592,-100,3,2,2,65,0,1
179499,-100,3,2,2,40,0,0
179592,-100,3,2,2,50,0,0
188405,-100,3,2,2,25,0,0
188592,-100,3,2,2,50,0,0
195061,-100,3,2,2,30,0,0
195999,-100,3,2,2,20,0,0
196749,-100,3,2,2,10,0,0
197499,-100,3,2,2,40,0,0

[Colours]
Combo1 : 192,192,192
Combo2 : 151,255,151
Combo3 : 128,255,255

[HitObjects]
48,308,999,2,0,B|108:272|180:276,1,130,2|0
240,320,2124,2,0,B|300:348|372:348,1,130,2|0
432,304,3249,2,0,B|460:244|460:172,1,130,2|0
424,108,4374,2,0,B|400:84|384:52,2,65,2|0|0
459,178,5499,6,0,B|412:224|348:248,1,130,2|0
360,324,6624,2,0,B|294:323|232:295,1,130,2|0
180,352,7749,2,0,B|133:305|110:241,1,130,2|0
136,168,8874,2,0,B|152:136|156:104,2,65,2|0|0
110,243,9999,6,0,B|157:290|218:312,1,130,4|0
268,252,11124,1,2
208,108,11874,1,0
268,56,12249,2,0,B|329:78|376:125,1,130,2|0
420,192,13374,2,0,B|456:188|484:176,2,65,2|0|0
392,264,14499,6,0,B|331:242|284:195,1,130,2|0
228,140,15624,2,0,B|180:187|119:209,1,130,2|0
76,144,16749,2,0,B|123:96|184:74,1,130,2|0
256,112,17874,2,0,B|281:133|319:141,2,65,2|0|0
316,60,18999,5,4
48,216,27624,5,0
48,216,27999,2,0,B|100:168|120:108,1,130,4|0
100,32,29124,1,2
196,152,29874,1,0
256,104,30249,2,0,B|316:124|368:168,1,130,2|0
364,244,31374,2,0,B|344:268|336:304,2,65,2|0|0
436,212,32499,6,0,B|432:144|396:84,1,130,2|0
332,48,33624,2,0,B|264:52|204:88,1,130,2|0
176,156,34749,2,0,B|180:224|216:284,1,130,2|0
284,312,35874,1,2
340,256,36249,1,0
416,280,36624,1,0
472,224,36999,6,0,B|468:156|436:100,1,130,4|0
372,56,38124,1,2
276,176,38874,1,0
216,124,39249,2,0,B|160:152|92:160,1,130,2|0
44,96,40374,2,0,B|36:60|16:36,2,65,2|0|0
91,160,41499,6,0,B|72:224|32:280,1,130,2|0
108,296,42624,2,0,B|153:337|217:364,1,130,2|0
294,364,43749,2,0,B|358:337|404:296,1,130,2|0
420,220,44874,2,0,B|452:232|492:236,2,65,2|0|0
404,144,45999,6,0,B|435:129|466:104,2,65,4|0|0
332,172,47124,2,0,B|280:128|220:108,1,130,2|0
164,164,48249,2,0,B|116:208|52:228,1,130,2|0
24,300,49374,2,0,B|36:332|64:362,2,65,2|0|0
52,227,50499,5,2
112,176,50874,2,0,B|100:144|72:114,2,65,0|0|2
128,252,51999,1,0
200,228,52374,1,0
188,304,52749,2,0,B|244:340|316:352,1,130,2|0
376,312,53874,2,0,B|412:256|424:184,1,130,2|0
372,132,54999,6,0,B|364:92|340:64,2,65,2|0|0
308,176,56124,2,0,B|281:145|246:133,2,65,2|0|0
256,232,57249,2,0,B|217:218|184:220,2,65,2|0|0
292,300,58374,2,0,B|240:336|172:352,1,130,2|0
100,320,59499,6,0,B|64:268|48:200,1,130,2|0
84,132,60624,2,0,B|92:96|108:72,2,65,2|0|0
160,152,61749,2,0,B|196:204|212:272,1,130,2|0
176,340,62874,1,2
180,344,63624,5,0
180,344,63999,2,0,B|232:308|300:292,1,130,4|0
376,276,65124,1,8
448,304,65499,2,0,B|468:272|476:244,1,65
432,180,66249,2,0,B|368:164|316:124,1,130
256,72,67374,1,8
184,40,67749,2,0,B|152:44|124:60,1,65
80,128,68499,6,0,B|116:184|124:252,1,130
88,320,69624,2,0,B|60:304|28:300,2,65,8|0|0
160,352,70749,2,0,B|216:316|284:308,1,130
356,332,71874,2,0,B|384:348|416:352,2,65,8|0|0
340,256,72999,6,0,B|368:200|376:132,1,130
328,68,74124,2,0,B|272:40|204:32,1,130,8|0
128,48,75249,1,0
76,104,75624,2,0,B|60:132|56:168,1,65,0|0
80,240,76374,2,0,B|144:248|204:276,1,130,8|0
272,316,77499,6,0,B|336:308|396:280,1,130
412,204,78624,1,8
480,168,78999,2,0,B|476:132|464:104,1,65
396,68,79749,2,0,B|332:60|272:32,1,130
216,88,80874,2,0,B|152:96|92:124,1,130,8|0
116,200,81999,6,0,B|180:192|240:164,1,130,4|0
296,108,83124,1,8
332,40,83499,2,0,B|368:44|400:60,1,65
428,128,84249,2,0,B|436:192|464:252,1,130
428,320,85374,1,8
356,348,85749,2,0,B|328:336|293:330,1,65
256,264,86499,6,0,B|195:292|131:300,1,130
60,268,87624,1,8
40,192,87999,2,0,B|60:160|64:128,1,65
60,56,88749,2,0,B|116:80|184:92,1,130
260,108,89874,1,8
336,92,90249,2,0,B|372:88|408:72,1,65
468,112,90999,6,0,B|468:176|440:244,1,130
400,304,92124,2,0,B|436:320|456:344,2,65,8|0|0
332,268,93249,1,0
256,252,93624,1,0
180,268,93999,1,0
112,304,94374,2,0,B|76:252|56:184,1,130,8|0
80,112,95499,6,0,B|132:76|200:56,1,130
272,40,96624,1,8
346,56,96999,2,0,B|379:63|415:83,1,65
460,136,97749,2,0,B|432:188|424:264,1,130
432,336,98874,2,0,B|459:351|492:358,2,65,8|0|0
360,304,99999,6,0,B|308:332|232:340,1,130,4|0
168,300,101124,1,8
184,224,101499,1,0
117,185,101874,1,0
133,109,102249,2,0,B|185:81|261:73,1,130
332,92,103374,2,0,B|360:72|380:40,2,65,8|0|0
344,168,104499,6,0,B|271:160|219:132,1,130
204,56,105624,1,8
132,28,105999,1,0
144,104,106374,1,0
72,76,106749,2,0,B|44:128|36:200,1,130
72,272,107874,2,0,B|124:300|196:307,1,130,8|0
440,272,109749,6,0,B|388:300|316:307,1,130,4|0
244,272,110874,2,0,B|216:220|209:148,1,130,2|0
232,72,111999,2,0,B|172:44|108:37,1,130,2|0
76,108,113124,2,0,B|50:134|17:146,2,65,2|0|0
112,176,114249,6,0,B|159:222|223:246,1,130,2|0
204,320,115374,2,0,B|270:319|332:291,1,130,2|0
392,340,116499,2,0,B|439:293|462:229,1,130,2|0
404,176,117624,2,0,B|385:146|378:116,2,65,2|0|0
480,156,118749,1,4
192,272,125499,5,0
192,272,125874,1,0
256,224,126249,1,0
256,224,126624,1,0
332,248,126999,2,0,B|360:256|392:276,1,65
452,324,127749,6,0,B|460:256|488:196,1,130,6|0
444,132,128874,2,0,B|440:100|424:72,2,65,2|0|0
404,200,129999,2,0,B|347:226|279:234,1,130,2|0
256,308,131124,2,0,B|194:296|134:262,1,130,2|0
100,192,132249,5,2
136,124,132624,1,0
212,144,132999,1,0
248,76,133374,2,0,B|304:44|372:32,1,130,2|0
432,80,134499,2,0,B|443:145|475:201,1,130,2|0
432,268,135624,2,0,B|424:304|408:332,2,65,2|0|0
392,200,136749,6,0,B|336:168|268:156,1,130,2|0
220,96,137874,2,0,B|228:60|244:32,2,65,2|0|0
148,124,138999,2,0,B|159:189|191:245,1,130,2|0
256,292,140124,2,0,B|284:276|320:272,2,65,2|0|0
200,348,141249,6,0,B|167:291|156:226,1,130,2|0
180,152,142374,1,8
184,156,143124,5,0
184,156,143499,2,0,B|248:140|304:108,1,130,6|0
332,36,144624,1,2
408,52,144999,2,0,B|432:76|444:108,1,65
440,184,145749,2,0,B|376:204|320:248,1,130,2|0
328,320,146874,1,2
256,348,147249,1,0
196,300,147624,1,0
124,328,147999,6,0,B|84:277|64:213,1,130,2|0
28,144,149124,2,0,B|44:108|72:84,1,65,2|0
132,48,149874,1,0
136,124,150249,2,0,B|186:163|250:183,1,130,2|0
328,168,151374,2,0,B|352:140|364:108,2,65,2|0|0
372,232,152499,6,0,B|321:271|257:291,1,130,2|0
212,356,153624,2,0,B|147:348|88:317,1,130,2|0
36,260,154749,1,2
80,196,155124,2,0,B|96:168|100:136,1,65,0|0
60,68,155874,2,0,B|116:40|184:32,1,130,2|0
256,64,156999,6,0,B|312:92|380:100,1,130,2|0
432,160,158124,2,0,B|448:192|452:232,1,65,2|0
408,288,158874,1,0
332,264,159249,2,0,B|268:272|207:300,1,130,2|0
144,348,160374,2,0,B|112:332|76:328,1,65,2|0
32,268,161124,1,0
60,196,161499,6,0,B|116:164|184:156,1,130,6|0
256,184,162624,1,2
236,260,162999,2,0,B|244:288|268:324,1,65
336,352,163749,2,0,B|400:344|460:312,1,130,2|0
480,236,164874,1,2
440,168,165249,1,0
364,188,165624,1,0
324,120,165999,6,0,B|264:88|200:80,1,130,2|0
136,36,167124,1,2
60,56,167499,2,0,B|44:84|36:120,1,65
56,192,168249,2,0,B|116:224|180:232,1,130,2|0
256,220,169374,1,2
292,152,169749,1,0
256,84,170124,1,0
178,84,170499,6,0,B|148:64|128:36,2,65,2|0|0
140,152,171624,2,0,B|104:147|73:131,2,65,2|0|0
176,220,172749,2,0,B|148:243|116:255,2,65,2|0|0
248,192,173874,2,0,B|308:220|372:232,1,130,2|0
392,156,174999,6,0,B|332:128|268:116,1,130,2|0
192,136,176124,1,2
248,192,176499,2,0,B|240:232|224:256,1,65
176,316,177249,2,0,B|116:344|52:356,1,130,2|0
56,276,178374,2,0,B|48:244|32:212,1,65,2|0
64,144,179124,1,0
32,72,179499,6,0,B|100:64|160:36,1,130,4|0
208,96,180624,2,0,B|276:104|336:132,1,130,8|0
400,92,181749,2,0,B|408:56|424:28,2,65
428,164,182874,2,0,B|464:214|485:279,1,130,8|0
448,348,183999,5,0
372,324,184374,2,0,B|336:344|304:352,1,65
256,296,185124,1,8
199,349,185499,2,0,B|176:344|140:324,1,65
64,348,186249,2,0,B|36:288|32:220,1,130
56,148,187374,2,0,B|120:144|184:116,1,130,8|0
228,52,188499,6,0,B|292:60|356:88,1,130,2|0
416,40,189624,2,0,B|442:100|450:164,1,130,8|0
424,240,190749,2,0,B|460:260|483:265,2,65
380,304,191874,2,0,B|319:330|255:338,1,130,8|0
180,312,192999,6,0,B|126:272|87:221,1,130,0|0
48,153,194124,2,0,B|72:121|84:89,2,65,8|0|0
256,192,195249,12,4,197499
