osu file format v9

[General]
AudioFilename: Kimi ni Uso.mp3
AudioLeadIn: 0
PreviewTime: 63140
Countdown: 0
SampleSet: Soft
StackLeniency: 0.7
Mode: 0
LetterboxInBreaks: 1

[Editor]
DistanceSpacing: 1.2
BeatDivisor: 4
GridSize: 8

[Metadata]
Title:Kimi ni Uso
Artist:Hatsune Miku
Creator:KanaRin
Version:Kana
Source:Vocaloid
Tags:ryuuseiP Clare

[Difficulty]
HPDrainRate:8
CircleSize:4
OverallDifficulty:7
ApproachRate:7
SliderMultiplier:2.7
SliderTickRate:4

[Events]
//Background and Video events
0,0,"MikuBG.jpg"
//Break Periods
2,87470,93870
//Storyboard Layer 0 (Background)
//Storyboard Layer 1 (Fail)
//Storyboard Layer 2 (Pass)
//Storyboard Layer 3 (Foreground)
//Storyboard Sound Samples
//Background Colour Transformations
3,100,163,162,255

[TimingPoints]
1184,652.173913043478,4,2,0,40,1,0
62488,-100,4,1,0,40,0,0
63792,-100,4,2,0,50,0,1
74227,-200,4,2,0,40,0,1
75205,-200,4,2,0,40,0,1
75857,-100,4,2,0,40,0,1
84770,-100,4,2,0,0,0,1
84879,-100,4,2,0,41,0,1
87270,-100,4,2,0,40,0,0
98249,-100,4,2,2,40,0,0
98466,-100,4,2,0,40,0,0
100857,-100,4,2,2,40,0,0
101075,-100,4,2,0,40,0,0
121183,-200,4,2,0,40,0,0
123140,-100,4,2,0,40,0,0
158276,-100,4,2,0,60,0,0
158439,-100,4,2,0,40,0,0
158928,-100,4,2,0,60,0,0
159091,-100,4,2,0,40,0,0
159580,-100,4,2,0,60,0,0
159743,-100,4,2,0,40,0,0
160232,-100,4,2,0,60,0,0
160395,-100,4,2,0,40,0,0
160885,-100,4,2,0,60,0,0
161048,-100,4,2,0,40,0,0
161537,-100,4,2,0,60,0,0
161700,-100,4,2,0,40,0,0
162189,-100,4,2,0,60,0,0
162352,-100,4,2,0,40,0,0
162841,-100,4,2,0,60,0,0
163004,-100,4,2,0,40,0,0
163493,-100,4,2,0,60,0,0
163656,-100,4,2,0,40,0,0
164145,-100,4,2,0,60,0,0
164308,-100,4,2,0,40,0,0
164770,-100,4,2,2,40,0,0
164988,-100,4,2,0,40,0,0
165450,-100,4,2,0,60,0,0
165613,-100,4,2,0,41,0,0
166075,-100,4,2,2,41,0,0
166292,-100,4,2,0,41,0,0
166754,-100,4,2,0,60,0,0
166917,-100,4,2,0,40,0,0
167080,-100,4,2,0,60,0,0
167243,-100,4,2,0,40,0,0
167406,-100,4,2,0,60,0,0
167569,-100,4,2,0,40,0,0
169118,-200,4,2,0,40,0,0
170423,-100,4,2,0,40,0,0
172379,-200,4,2,0,40,0,0
174825,-100,4,2,0,40,0,0
175803,-100,4,2,0,45,0,0
176455,-100,4,2,0,50,0,0
178575,-100,4,2,0,50,0,1
189988,-200,4,2,0,50,0,1
190640,-100,4,2,0,50,0,1
199526,-100,4,2,0,0,0,1
199689,-100,4,2,0,50,0,1
202053,-100,4,2,0,40,0,0

[Colours]
Combo1 : 255,128,128
Combo2 : 5,240,5
Combo3 : 128,255,255

[HitObjects]
176,64,21727,5,0
176,64,22053,2,2,B|328:64,1,135,2|0
336,144,22542,2,2,B|416:144,2,67.5,0|2|0
312,224,23031,2,2,B|176:224,2,135,0|2|0
312,224,24010,1,10
200,104,24336,6,2,B|64:104|64:104,2,135,0|2|0
192,184,25151,2,0,B|280:184|280:184,2,67.5,0|2|0
176,264,25640,2,0,B|312:264|312:264,1,135,0|2
296,344,26129,2,0,B|216:344|216:344,2,67.5
296,344,26618,1,8
256,192,26944,6,2,B|256:352,2,135,0|2|0
208,128,27760,2,0,B|232:80|288:80|312:136,1,135,0|0
344,208,28249,2,2,B|416:208,2,67.5,0|0|2
344,288,28738,2,0,B|344:368,2,67.5
344,288,29227,1,8
248,160,29553,6,0,B|248:8,1,135,0|2
119,96,30205,1,0
120,176,30368,1,2
248,80,30694,1,0
248,160,30857,2,2,B|248:328,1,135,2|2
320,328,31347,2,0,B|319:240,1,67.5,8|0
392,288,31673,2,0,B|390:199,1,67.5,0|10
248,232,32162,6,0,B|247:320,2,67.5,8|8|2
248,72,32814,1,0
248,152,32977,2,0,B|288:176|344:143,2,67.5,0|2|0
248,232,33466,2,0,B|184:184|96:224,2,135,0|2|0
248,232,34444,1,8
96,288,34770,6,0,B|128:208|224:208,1,135,0|2
328,304,35423,1,0
288,232,35586,2,0,B|272:144|344:80,1,135,2|0
376,48,36075,2,2,B|320:128|208:136,1,135,2|2
192,152,36564,2,0,B|144:160|112:144,2,67.5
192,152,37053,1,8
320,256,37379,5,0
256,312,37542,1,0
192,256,37705,1,2
256,104,38031,1,0
256,104,38194,2,0,B|256:240,1,135,2|0
256,320,38683,2,0,B|72:320,1,135,2|2
136,240,39173,2,0,B|40:240,2,67.5
136,240,39662,1,8
368,128,39988,5,0
208,128,40314,1,2
288,272,40640,1,2
208,272,40803,1,2
288,128,41129,1,2
208,128,41292,2,0,B|104:128,2,67.5,0|0|2
288,128,41781,1,8
368,128,41944,2,0,B|456:128,2,67.5,0|0|8
256,216,42597,5,8
200,152,42760,1,8
240,80,42923,2,0,B|167:23|71:79,1,135,2|0
96,144,43412,2,0,B|55:168|23:144,2,67.5,0|2|0
32,88,43901,2,0,B|32:247,1,135,0|2
88,280,44390,2,0,B|88:376,2,67.5
168,264,44879,1,8
384,80,45205,6,0,B|420:109|409:172,1,67.5,0|0
336,176,45531,2,0,B|299:146|310:83,1,67.5,2|0
240,72,45857,1,0
184,128,46020,2,2,B|40:128,1,135,2|0
72,208,46510,2,0,B|96:280,1,67.5,2|0
152,328,46836,2,0,B|96:376,2,67.5,2|0|0
216,280,47325,2,0,B|296:320,1,67.5,0|8
288,128,47814,6,0,B|376:128,1,67.5,0|0
336,48,48140,2,0,B|488:48,1,135,2|0
440,128,48629,2,0,B|520:128,2,67.5,0|2|0
424,208,49118,2,0,B|360:240|280:200,1,135,0|2
216,200,49607,2,0,B|216:288,2,67.5
216,120,50097,1,8
352,63,50423,5,0
352,224,50749,1,2
352,63,51075,1,2
352,63,51238,1,2
351,224,51564,1,2
351,224,51727,2,2,B|255:248|184:215,1,135,2|0
144,264,52216,2,0,B|144:360,2,67.5,8|0|0
144,184,52705,2,8,B|143:88,1,67.5,8|8
112,40,53031,6,8,B|152:24|192:48,1,67.5
232,104,53357,2,0,B|296:128|376:104,1,135,2|0
448,120,53847,2,0,B|441:170|384:216|302:188,1,135,2|0
280,160,54336,2,2,B|259:207|264:272|369:293,1,135,2|0
400,280,54825,1,0
400,280,54988,2,0,B|504:280,2,67.5,0|0|8
240,280,55640,6,0,B|239:375,2,67.5,0|0|2
176,232,56129,1,0
112,184,56292,2,0,B|112:112,1,67.5
112,116,56781,1,0
184,80,56944,2,2,B|256:56|344:88,1,135,2|0
392,112,57433,2,0,B|391:16,2,67.5,0|2|0
392,112,57923,1,8
208,192,58249,6,0,B|296:192,1,67.5,0|0
336,136,58575,2,0,B|376:168|376:240|312:272,1,135,2|0
312,336,59064,2,0,B|424:336,2,67.5,0|2|0
232,336,59553,1,0
152,336,59716,2,0,B|56:336,1,67.5,0|2
96,256,60042,2,0,B|0:256,2,67.5
96,256,60531,1,8
256,240,60857,5,0
256,240,61020,1,0
256,240,61183,1,2
256,80,61510,1,2
256,80,61673,1,2
392,160,61999,1,0
392,160,62162,2,2,B|215:160,1,135,2|0
256,160,62651,5,0
256,160,62814,1,0
176,160,62977,1,0
176,160,63140,1,0
88,160,63303,6,0,B|88:88,2,67.5,0|0|0
128,232,63792,2,0,B|200:232,1,67.5,4|0
208,312,64118,2,0,B|304:312,1,67.5
304,232,64444,2,0,B|376:264|456:224,1,135,8|0
480,168,64933,1,0
432,104,65097,2,0,B|360:72|280:112,1,135,2|0
224,80,65586,2,0,B|224:152|224:152,1,67.5,0|10
144,144,65912,5,0
64,144,66075,1,0
104,216,66238,1,0
184,216,66401,2,0,B|256:216,2,67.5,2|0|0
168,296,66890,2,0,B|88:296,2,67.5,0|8|0
248,296,67379,2,0,B|320:296,1,67.5,0|0
376,352,67705,2,0,B|416:320|416:248|352:216,1,135,8|8
304,200,68194,2,0,B|320:160|368:152,1,67.5,0|8
408,80,68520,6,0,B|496:80,2,67.5,0|0|0
328,80,69010,2,0,B|168:80,1,135,2|0
152,152,69499,1,0
200,216,69662,2,0,B|360:216,1,135,2|0
376,288,70151,1,0
336,360,70314,2,0,B|168:360,1,135,2|0
120,352,70803,2,0,B|80:304|88:232|128:200,1,135
144,152,71292,1,8
88,96,71455,1,2
144,152,71618,6,0,B|192:104|288:112|352:176|360:256|312:304,1,270,8|2
176,256,72597,1,8
320,336,72923,2,0,B|400:336,1,67.5,0|8
352,264,73249,2,0,B|272:264,1,67.5,8|0
312,192,73575,2,0,B|416:192,1,67.5,2|8
416,120,73901,6,0,B|336:120,1,67.5
272,120,74227,2,0,B|136:120,1,135,4|2
112,256,75205,2,0,B|256:256,1,135
408,256,76183,1,8
256,192,76510,6,0,B|256:120,1,67.5
256,40,76836,5,2
104,192,77162,1,2
256,344,77488,1,2
416,192,77814,1,2
112,56,78466,6,0,B|24:56,2,67.5,0|0|8
272,56,79118,1,0
192,240,79444,5,4
312,136,79770,1,0
312,136,79933,2,0,B|232:136|232:136,2,67.5,0|2|0
352,208,80423,2,0,B|280:208|280:208,1,67.5,0|0
328,280,80749,2,0,B|424:280|424:280,3,67.5,2|8|0|0
395,280,81401,1,8
256,48,81727,5,2
256,48,82053,1,2
80,320,82705,1,0
400,320,83357,2,0,B|472:320,4,67.5,8|2|0|0|2
256,248,84336,1,8
256,248,84499,2,0,B|256:88|256:88,1,135,2|0
256,192,84988,12,0,87270
312,64,94770,5,0
312,64,95097,2,0,B|168:64,1,135,2|0
96,72,95586,2,0,B|48:96|48:168|96:192,1,135
168,192,96075,2,0,B|304:192,2,135,2|2|0
168,192,97053,1,8
200,104,97379,6,0,B|64:104|64:104,2,135,0|2|0
280,104,98194,2,0,B|328:128|328:200|280:224,1,135
240,280,98683,2,0,B|104:280|104:280,1,135,0|2
24,280,99173,2,0,B|24:208|24:208,2,67.5,0|2|0
24,280,99662,1,10
256,192,99988,6,0,B|256:264,1,67.5,2|0
200,312,100314,2,0,B|224:360|296:360|320:304,1,135,2|0
336,240,100803,2,0,B|360:192|416:192|448:248,1,135
392,304,101292,2,0,B|392:384,2,67.5,0|0|2
392,224,101781,2,0,B|392:152,2,67.5
392,224,102270,1,8
224,199,102597,6,0,B|72:200,1,135,0|2
160,328,103249,1,0
240,328,103412,1,2
144,200,103738,1,0
224,199,103901,2,0,B|392:200,1,135,2|0
368,120,104390,2,0,B|313:72,1,67.5,8|0
248,112,104716,2,0,B|168:88,1,67.5,0|10
104,224,105205,6,0,B|64:200|8:233,2,67.5,8|8|2
104,224,105857,1,0
144,296,106020,2,0,B|104:320|48:287,2,67.5
184,224,106510,2,0,B|336:224,2,135,2|0|0
184,224,107488,1,8
392,72,107814,6,0,B|360:152|264:152,1,135,0|2
290,151,108466,1,0
296,72,108629,2,0,B|136:72,1,135,2|0
192,152,109118,2,0,B|48:152,1,135,0|2
88,232,109607,2,0,B|8:232|8:232,2,67.5
168,232,110097,1,8
320,256,110423,5,2
320,176,110586,1,0
320,96,110749,1,2
176,176,111075,1,0
176,176,111238,2,0,B|40:176,1,135,2|0
40,256,111727,2,0,B|192:256,1,135,2|0
256,256,112216,2,0,B|256:336,2,67.5
256,256,112705,1,8
392,160,113031,5,2
392,160,113194,1,0
392,160,113357,1,2
256,64,113683,1,0
256,64,113847,1,2
128,160,114173,1,0
128,160,114336,1,2
256,168,114662,6,0,B|256:248,4,67.5,0|2|8|0|8
256,168,115640,5,2
136,56,115966,2,0,B|200:32|272:56,1,135,4|0
240,128,116455,2,0,B|308:127|367:174,1,135,2|0
304,224,116944,2,0,B|368:246|408:311,1,135,2|0
328,344,117433,1,8
248,344,117597,2,0,B|248:224,2,67.5,2|0|8
168,344,118086,1,0
88,344,118249,2,2,B|40:296|64:216,1,135,2|2
256,48,118901,5,0
432,192,119227,1,2
256,344,119553,1,2
80,192,119879,1,0
256,192,120205,5,8
256,192,120531,1,2
256,192,120857,1,8
256,192,121183,2,0,B|392:192,1,135
392,272,122162,2,0,B|248:272,1,135,0|8
176,272,123140,1,8
224,32,123466,6,0,B|224:176,1,135
304,32,124118,1,0
304,32,124281,1,0
144,32,124607,1,0
144,32,124770,2,0,B|0:32|0:32,2,135,2|2|8
144,112,125586,2,0,B|144:192|144:192,1,67.5,0|8
384,208,126075,6,0,B|376:248|320:264,1,67.5,8|0
264,280,126401,2,0,B|176:288|112:224,2,135,4|0|0
256,48,127379,5,2
96,192,127705,1,0
256,336,128031,1,2
416,192,128357,1,0
256,192,128683,5,0
256,192,129010,2,0,B|256:352,3,135,0|2|8|0
80,56,130640,6,0,B|256:56,2,135,8|2|8
80,56,131618,1,4
208,152,131944,1,2
208,152,132107,2,0,B|280:152|304:240,1,135
224,240,132597,2,0,B|152:240|128:152,1,135,8|0
129,159,133086,1,2
136,80,133249,2,0,B|152:40|208:40,2,67.5,8|0|2
256,192,133901,5,8
256,192,134227,12,4,136836
113,88,137162,6,0,B|112:176,1,67.5
184,208,137488,2,0,B|184:128,1,67.5,10|0
257,184,137814,2,0,B|257:288,1,67.5,2|0
256,48,138303,5,10
256,48,138466,1,0
176,192,138792,1,2
176,192,138955,1,0
256,192,139118,1,2
256,192,139281,1,0
336,192,139444,1,2
392,40,139770,6,0,B|352:32|328:64,1,67.5
384,120,140097,2,0,B|328:160|248:136,1,135,2|2
200,80,140586,2,0,B|152:96|152:168|192:192,1,135,0|2
272,192,141075,1,2
272,192,141238,1,0
272,192,141401,1,10
272,352,141727,2,0,B|272:272,2,67.5,8|2|4
112,352,142379,5,0
112,352,142542,1,0
152,280,142705,1,2
152,280,142868,1,0
72,280,143031,1,8
72,280,143194,1,0
112,120,143520,6,0,B|112:200,1,67.5,2|2
224,72,144010,2,0,B|224:152,2,67.5,0|0|8
224,72,144499,1,0
224,72,144662,1,8
256,264,144988,6,0,B|256:176,1,67.5
304,128,145314,2,0,B|287:80|216:80|200:128,1,135,2|10
184,208,145803,2,0,B|168:256|96:256|72:208,1,135,0|2
128,152,146292,2,0,B|128:80,2,67.5,8|0|2
256,56,146944,6,0,B|256:200,1,135,2|4
256,352,147597,6,0,B|256:280,1,67.5
208,224,147923,2,0,B|225:176|296:176|312:224,1,135,2|2
368,288,148412,2,0,B|351:336|280:336|264:288,1,135,0|8
184,304,148901,2,0,B|96:304,1,67.5,2|0
32,304,149227,1,10
32,304,149390,1,0
32,304,149553,2,0,B|32:232,2,67.5,2|0|8
192,304,150205,5,0
272,304,150368,1,0
192,304,150531,2,0,B|192:160,1,135,2|8
112,200,151020,2,0,B|112:56,1,135,0|2
192,64,151510,1,8
272,64,151673,2,0,B|360:64,2,67.5,0|10|0
232,136,152162,2,0,B|232:296,1,135,2|4
88,344,152814,5,0
168,344,152977,2,0,B|272:344,2,67.5,0|2|0
88,344,153466,2,0,B|40:326|39:255|87:239,1,135,2|10
168,240,153955,2,0,B|272:240,1,67.5,2|8
264,160,154281,2,0,B|160:160,2,67.5,0|2|0
344,160,154770,1,8
264,56,155097,6,0,B|311:72|312:143|263:159,1,135,4|0
200,112,155586,2,0,B|152:128|151:199|200:215,1,135,2|0
280,232,156075,2,0,B|327:248|328:319|279:335,1,135,8|8
200,336,156564,1,2
200,336,156727,2,0,B|128:336,2,67.5,0|0|2
184,256,157216,6,0,B|184:176,2,67.5,0|8|2
104,256,157705,1,4
104,256,157868,1,0
104,176,158031,1,0
104,176,158194,1,0
104,96,158357,2,0,B|176:96|240:40,1,135,2|0
256,128,158847,1,0
232,208,159010,2,0,B|304:208|360:264,1,135,2|0
400,328,159499,2,0,B|432:296|424:248,1,67.5,0|2
432,184,159825,6,0,B|472:184|496:232,2,67.5
360,144,160314,1,2
360,144,160477,1,0
360,224,160640,1,0
360,224,160803,1,0
408,288,160966,2,0,B|391:336|320:336|304:288,1,135,2|0
264,216,161455,1,0
224,144,161618,2,0,B|207:96|136:96|120:144,1,135,2|0
121,145,162107,1,0
121,145,162270,1,2
96,224,162433,6,0,B|55:217|43:160,2,67.5
176,232,162923,2,0,B|320:232,1,135,2|0
312,152,163412,1,0
312,72,163575,2,0,B|168:72,1,135,2|0
96,72,164064,1,0
96,152,164227,2,0,B|96:304,1,135,2|0
40,344,164716,2,0,B|57:392|128:392|144:344,1,135,0|0
143,344,165205,1,0
143,344,165368,1,0
176,272,165531,6,0,B|193:224|264:224|280:272,1,135,2|0
232,336,166020,2,0,B|249:384|320:384|336:336,1,135,0|0
384,272,166510,2,0,B|432:254|431:183|384:167,2,135,0|2|2
320,224,167325,2,0,B|224:224,2,67.5,0|2|0
320,224,167814,5,0
320,224,168140,1,6
256,56,168792,5,0
256,56,169118,2,0,B|256:216,1,135
256,336,170097,2,0,B|256:240,1,67.5
128,192,170749,5,2
256,48,171075,1,2
392,192,171401,1,2
256,336,171727,1,2
256,176,172379,6,0,B|256:32,1,135
176,40,173357,1,2
96,40,173683,1,0
96,40,173847,2,0,B|96:152,2,101.25
96,280,175314,5,2
96,280,175640,1,0
96,280,175966,1,2
392,152,176618,1,2
88,48,177270,2,0,B|8:48,1,67.5,10|0
56,120,177597,2,0,B|136:120,1,67.5,10|0
160,192,177923,2,0,B|80:192,2,67.5,10|8|8
344,312,178575,6,0,B|272:312|240:232,1,135,4|0
216,160,179064,1,0
296,160,179227,2,0,B|448:160|448:160,1,135,2|2
432,80,179716,1,0
352,80,179879,2,0,B|200:80|200:80,1,135,2|2
192,160,180368,2,0,B|272:160,1,67.5,0|10
280,240,180694,2,0,B|192:240,2,67.5,0|2|0
304,320,181183,6,0,B|120:320,1,135,2|0
88,176,181836,2,0,B|232:176,1,135,2|2
264,248,182325,1,0
304,176,182488,2,0,B|304:24,1,135,2|8
304,41,182977,1,0
304,41,183140,1,2
224,40,183303,6,0,B|144:40,2,67.5,0|2|0
216,120,183792,2,0,B|167:105|125:162|154:204,1,135,2|0
232,200,184281,1,0
256,280,184444,2,0,B|304:294|346:237|317:195,1,135,10|0
296,120,184933,1,0
296,120,185097,2,0,B|336:64,2,67.5,2|0|8
216,120,185586,2,0,B|56:120,1,135
56,200,186075,1,8
56,200,186238,1,0
56,200,186401,5,8
296,200,186890,1,2
56,200,187379,1,2
144,64,187705,2,0,B|224:64,1,67.5,2|2
200,144,188031,2,0,B|280:144,1,67.5,8|0
248,224,188357,2,0,B|328:224,1,67.5,10|0
304,304,188683,2,2,B|400:304,1,67.5,10|2
448,224,189010,6,0,B|416:176|480:144|432:80,1,135,4|0
280,96,189662,1,2
280,96,189988,2,0,B|312:144|248:176|296:240,1,135,0|0
136,232,190966,6,0,B|136:96,1,135,2|2
136,96,191455,1,0
136,96,191618,1,2
296,96,191944,1,2
136,96,192270,1,10
296,96,192597,2,8,B|296:256,1,135,2|8
296,312,193086,1,2
216,312,193249,6,0,B|72:312,2,135,2|2|2
256,152,194227,1,2
256,192,194553,12,2,196183
256,344,196510,5,2
256,344,196836,1,2
96,64,197488,1,2
416,64,198140,1,8
256,344,198792,1,2
256,184,199118,1,2
256,184,199281,2,0,B|256:40,1,135
256,192,199770,12,8,202053
256,192,202379,5,2
256,192,202542,1,2
256,192,202705,1,2
416,192,203031,6,0,B|416:352,4,135,0|2|8|2|8
416,112,204499,1,0
472,48,204662,2,0,B|455:0|384:0|368:48,1,135,2|0
344,128,205151,1,0
320,208,205314,2,0,B|303:256|232:256|216:208,2,135,8|0|8
264,144,206129,2,0,B|264:64|264:64,2,67.5,8|0|0
184,120,206618,2,0,B|184:48,1,67.5,8|0
104,32,206944,6,8,B|104:184,1,135
104,248,207433,1,0
104,248,207597,2,0,B|104:328,2,67.5,0|0|2
256,64,208249,5,8
256,144,208412,2,0,B|336:144,4,67.5,0|2|2|8|0
256,64,209227,1,2
256,224,209553,5,8
256,232,209716,1,8
256,240,209879,1,4
