osu file format v9

[General]
AudioFilename: Kimi ni Uso.mp3
AudioLeadIn: 0
PreviewTime: 63140
Countdown: 0
SampleSet: Soft
StackLeniency: 0.7
Mode: 0
LetterboxInBreaks: 1

[Editor]
Bookmarks: 21727
DistanceSpacing: 1.2
BeatDivisor: 4
GridSize: 8

[Metadata]
Title:Kimi ni Uso
Artist:Hatsune Miku
Creator:KanaRin
Version:Clare
Source:Vocaloid
Tags:ryuuseiP Clare

[Difficulty]
HPDrainRate:1
CircleSize:3
OverallDifficulty:1
ApproachRate:4
SliderMultiplier:1.5
SliderTickRate:2

[Events]
//Background and Video events
0,0,"MikuBG.jpg"
//Break Periods
2,87470,93450
//Storyboard Layer 0 (Background)
//Storyboard Layer 1 (Fail)
//Storyboard Layer 2 (Pass)
//Storyboard Layer 3 (Foreground)
//Storyboard Sound Samples
//Background Colour Transformations
3,100,163,162,255

[TimingPoints]
1184,652.173913043478,4,2,0,35,1,0
42433,-100,4,2,0,50,0,0
63140,-100,4,2,0,50,0,1
63303,-100,4,2,0,60,0,1
85151,-100,4,2,0,30,0,1
87270,-100,4,2,0,30,0,0
94444,-100,4,2,0,50,0,0
178575,-100,4,2,0,60,0,1
199607,-100,4,2,0,0,0,1
202053,-100,4,2,0,0,0,0
202705,-100,4,2,0,45,0,0
205477,-100,4,2,0,0,0,0

[Colours]
Combo1 : 255,128,128
Combo2 : 5,240,5
Combo3 : 128,255,255

[HitObjects]
88,264,21727,2,0,B|64:192,2,75,0|2|0
176,296,22705,1,0
176,296,23031,2,0,B|248:328|336:280,1,150,2|0
368,208,24010,1,10
408,128,24336,6,0,B|456:72,2,75,0|2|0
368,208,25314,1,0
304,144,25640,2,0,B|230:123|154:144,1,150,2|0
64,144,26618,1,10
40,232,26944,6,0,B|0:296,2,75,0|2|0
64,144,27923,1,0
136,88,28249,2,0,B|209:55|312:88,1,150,2|0
376,96,29227,1,10
424,176,29553,6,0,B|350:208|248:176,1,150
200,136,30531,1,2
160,216,30857,2,0,B|160:312,2,75,0|0|8
120,136,31836,1,8
40,168,32162,6,0,B|8:80,2,75,10|10|0
104,104,33140,1,0
192,136,33466,2,0,B|264:160|368:136,1,150,2|0
360,232,34444,1,10
288,280,34770,6,0,B|256:272|213:280,2,75,0|2|0
360,232,35749,1,0
384,144,36075,2,0,B|341:67|240:32,1,150,2|0
224,120,37053,1,10
144,80,37379,6,0,B|69:80,2,75,0|2|0
160,168,38357,1,0
224,232,38683,2,0,B|306:238|368:304,1,150,2|0
280,336,39662,1,10
192,336,39988,6,0,B|88:336,2,75,0|2|0
192,248,40966,1,0
136,176,41292,2,0,B|96:160|64:96,2,75,0|0|8
224,160,42270,1,10
168,96,42597,6,0,B|168:0,2,75,8|2|0
256,104,43575,1,0
320,168,43901,2,0,B|496:168,1,150,2|0
480,256,44879,1,10
416,320,45205,6,0,B|312:320,2,75,0|2|0
480,256,46184,1,0
392,232,46510,2,0,B|242:232,1,150,2|0
160,184,47488,1,10
232,136,47814,6,0,B|328:136,2,75,0|2|0
152,88,48792,1,0
232,48,49118,2,0,B|408:48,1,150,2|0
456,96,50097,1,10
408,176,50423,6,0,B|408:256,2,75,0|2|0
352,104,51401,1,0
264,88,51727,2,0,B|152:64|40:96,1,225,2|10
32,184,53031,6,0,B|16:288,2,75,8|2|0
120,208,54010,1,0
192,256,54336,2,0,B|265:279|368:256,1,150,2|0
408,200,55314,5,10
408,200,55640,2,0,B|408:112,2,75,0|2|0
328,160,56618,1,0
264,104,56944,2,0,B|192:96|114:104,1,150,2|0
40,160,57923,5,10
40,160,58249,2,0,B|40:248,2,75,0|2|0
120,200,59227,1,0
184,264,59553,2,0,B|256:288|360:256,1,150,2|0
400,200,60531,1,10
360,120,60857,6,0,B|360:40,2,75,0|2|0
280,152,61836,1,0
248,72,62162,2,0,B|128:71|25:105,1,225,2|10
56,192,63466,5,0
136,232,63792,1,2
224,200,64118,1,0
304,232,64444,1,8
376,184,64770,2,0,B|433:205|464:264,2,112.5,2|0|2
312,120,66075,6,0,B|192:120,1,112.5,2|0
112,112,66890,2,0,B|65:142|32:216,2,112.5,2|2|0
152,192,68194,2,0,B|264:192,1,112.5,2|0
352,176,69010,6,0,B|400:224|400:304,2,112.5,2|2|0
280,128,70314,2,0,B|280:40,1,75,2|0
192,80,70966,2,0,B|192:176,1,75,2|0
240,232,71618,6,0,B|307:232|368:280,2,112.5,2|2|0
152,216,72923,2,0,B|144:296|56:368,1,150,2|0
32,272,73901,5,8
16,184,74227,1,2
136,48,74879,1,2
136,48,75205,1,0
312,82,75857,5,0
368,152,76184,1,2
288,192,76510,1,0
304,280,76836,1,2
224,320,77162,2,0,B|128:320,1,75,0|2
80,264,77814,6,0,B|33:210|32:120,2,150,0|2|0
128,184,79444,2,0,B|174:130|176:40,2,150,2|2|2
304,224,81401,5,8
360,152,81727,1,0
400,232,82053,1,2
232,288,82705,1,10
64,216,83357,6,0,B|48:136|64:48,1,150,2|8
152,64,84336,2,0,B|240:64,1,75,8|2
216,152,84988,1,8
256,192,85314,12,0,87270
248,144,94770,6,0,B|248:56,2,75,0|2|0
248,232,95749,1,0
184,296,96075,2,0,B|256:352|336:280,1,150,2|0
248,232,97053,1,10
160,208,97379,6,0,B|136:128,2,75,0|2|0
248,232,98357,1,0
328,200,98683,2,0,B|400:168|416:80,2,150,2|0|0
240,176,100314,6,0,B|144:176,1,75,2|0
136,264,100966,1,0
208,312,101292,2,0,B|280:336|384:312,1,150,2|0
416,248,102270,1,10
344,192,102597,6,0,B|368:112|344:16,1,150
256,40,103575,1,0
176,72,103901,2,0,B|88:72,3,75,2|8|8|2
144,152,105205,6,0,B|166:219|169:222,2,75,8|10|0
224,112,106183,1,0
272,192,106510,2,0,B|344:216|424:280,1,150,2|0
416,176,107488,1,10
368,96,107814,6,0,B|328:72|312:40,2,75,0|2|0
416,176,108792,1,0
336,224,109118,2,0,B|256:240|176:296,1,150,2|0
112,256,110097,1,10
72,176,110423,6,0,B|147:176,2,75,0|2|0
56,88,111401,1,0
144,72,111727,2,0,B|226:78|312:48,1,150,2|0
360,112,112705,1,10
400,192,113031,6,0,B|336:240|312:328,1,150
232,272,114010,1,0
144,288,114336,2,0,B|88:152|96:56,1,225,2|10
184,96,115640,6,0,B|256:56,2,75,8|2|0
264,144,116618,2,0,B|360:208|416:328,2,225,2|0|0
184,184,118901,1,2
96,160,119227,1,0
40,232,119553,1,2
96,304,119879,1,0
184,280,120205,1,2
264,312,120531,1,2
344,272,120857,6,0,B|440:272,2,75,2|0|0
280,208,121836,1,2
256,120,122162,2,0,B|179:95|106:120,1,150
56,192,123140,1,10
128,248,123466,6,0,B|128:328,2,75,0|2|0
208,216,124444,1,0
288,256,124770,2,0,B|319:166|280:32,1,225,2|10
192,56,126075,6,0,B|96:56,2,75,0|2|0
248,128,127053,1,0
312,192,127379,2,0,B|385:215|448:288,1,150,2|0
352,304,128357,1,10
272,344,128683,6,0,B|184:344,2,75,0|2|0
240,256,129662,1,0
152,240,129988,2,0,B|112:176|112:80,1,150,2|0
200,80,130966,1,10
200,80,131292,6,0,B|280:80,2,75,0|2|0
240,160,132270,1,0
296,232,132597,2,0,B|368:256|456:320,1,150,2|0
456,216,133575,1,10
408,136,133901,6,0,B|408:56,2,75,0|2|0
328,168,134879,1,0
272,240,135205,2,0,B|160:288|49:273,1,225,2|10
40,184,136510,5,0
104,120,136836,2,0,B|72:32,2,75,2|0|0
192,112,137814,2,0,B|249:133|328:104,2,112.5,2|0|0
136,184,139118,6,0,B|136:312,1,112.5,2|0
224,272,139933,2,0,B|253:318|309:342,2,112.5,2|2|0
304,224,141238,2,0,B|304:104,1,112.5,2|0
216,136,142053,2,0,B|186:89|130:65,2,112.5,2|2|0
128,152,143357,2,0,B|128:227,1,75,2|0
208,272,144010,2,0,B|208:197,1,75,2|0
288,160,144662,6,0,B|355:160|416:208,2,112.5,2|2|0
240,232,145966,2,0,B|173:232|112:280,2,112.5,2|2|0
192,152,147270,2,0,B|192:56,2,75,2|0|0
280,120,148249,2,0,B|337:141|416:112,2,112.5,2|2|0
304,208,149553,6,0,B|304:336,1,112.5,2|0
384,288,150368,2,0,B|413:334|469:358,2,112.5,2|2|0
424,208,151673,2,0,B|424:88,1,112.5,2|0
336,80,152488,2,0,B|306:33|250:9,2,112.5,2|2|0
248,104,153792,2,0,B|173:104,1,75,2|0
120,176,154444,2,0,B|120:251,1,75,2|0
192,304,155097,6,0,B|232:344|320:352,4,112.5,2|2|2|10|10
216,216,157379,5,8
296,184,157705,1,2
384,184,158031,1,0
456,136,158357,1,0
368,104,158683,2,0,B|291:86|224:32,1,150,2|0
144,64,159662,5,2
192,144,159988,1,0
184,232,160314,1,2
256,288,160640,1,0
320,352,160966,1,0
400,320,161292,2,0,B|423:244|480:184,1,150,2|0
384,184,162270,5,2
344,104,162597,1,0
256,88,162923,2,0,B|232:48|176:40,2,75,2|0|0
184,144,163901,2,0,B|184:304,1,150,2|0
264,336,164879,5,2
344,296,165205,1,0
376,208,165531,2,0,B|381:137|448:176,2,75,2|2|2
208,264,166836,2,0,B|40:264,1,150,2|2
72,176,167814,5,0
160,152,168140,2,0,B|312:152,1,150,2|0
352,232,169118,2,0,B|192:232,1,150,2|0
112,256,170097,5,2
168,328,170423,2,0,B|264:328,2,75,0|2|0
112,256,171401,2,0,B|112:160,1,75,0|2
288,176,172379,6,0,B|464:176,2,150,2|2|0
240,248,174010,2,0,B|192:304|128:312|72:272|56:216|88:152|136:120,1,300,2|0
192,80,175640,5,2
192,80,175966,1,0
360,152,176618,1,2
208,256,177270,2,0,B|58:256,2,150,2|10|2
296,256,178901,5,0
360,200,179227,1,0
336,112,179553,2,0,B|336:32,2,75,2|0|0
248,144,180531,1,2
160,152,180857,1,0
112,72,181183,6,0,B|36:104|2:174,1,150,2|0
64,240,182162,2,0,B|64:320,2,75,2|0|0
152,256,183140,1,2
232,304,183466,1,0
296,240,183792,6,0,B|376:240,2,75,2|0|0
232,176,184770,2,0,B|152:176|80:136,1,150,2|0
152,72,185749,1,2
240,64,186075,1,0
320,104,186401,6,0,B|376:216,2,112.5,2|0|2
232,136,187705,2,0,B|164:169|104:264,1,150,0|2
184,296,188683,5,0
272,312,189010,2,0,B|360:304|424:264,1,150,2|0
448,184,189988,2,0,B|360:192|296:232,1,150,2|0
216,216,190966,5,2
216,216,191292,2,0,B|216:128,2,75,0|2|0
136,264,192270,2,0,B|136:360,1,75,0|2
152,160,193249,6,0,B|2:160,2,150,2|2|0
224,112,194879,2,0,B|344:112|336:192|440:176,1,225,2|0
296,296,196510,5,0
208,264,196836,1,2
32,216,197488,1,2
176,112,198140,6,0,B|336:112,1,150,2|8
376,184,199118,2,0,B|288:184,1,75,8|2
256,192,199770,12,0,202053
256,192,203031,5,2
80,208,203683,2,0,B|53:246|80:296,1,75,2|0
160,312,204336,1,0
176,224,204662,1,2
256,192,204988,1,2
312,120,205314,1,2
256,192,205640,12,0,206944
256,192,207270,12,0,209879
