osu file format v12

[General]
AudioFilename: Hatsune Miku - Karakuri Pierrot.mp3
AudioLeadIn: 0
PreviewTime: -1
Countdown: 0
SampleSet: Soft
StackLeniency: 0.7
Mode: 0
LetterboxInBreaks: 1
WidescreenStoryboard: 0

[Editor]
DistanceSpacing: 1.9
BeatDivisor: 6
GridSize: 4

[Metadata]
Title:Karakuri Pierrot
TitleUnicode:Karakuri Pierrot
Artist:Hatsune Miku
ArtistUnicode:Hatsune Miku
Creator:ShiauKe
Version:Joker
Source:40mP
Tags:
BeatmapID:282959
BeatmapSetID:108146

[Difficulty]
HPDrainRate:7
CircleSize:4
OverallDifficulty:7
ApproachRate:8
SliderMultiplier:2.1
SliderTickRate:1

[Events]
//Background and Video events
0,0,"bg.png",0,0
//Break Periods
2,162992,170278
//Storyboard Layer 0 (Background)
//Storyboard Layer 1 (Fail)
//Storyboard Layer 2 (Pass)
//Storyboard Layer 3 (Foreground)
//Storyboard Sound Samples
//Background Colour Transformations
3,100,163,162,255

[TimingPoints]
20440,588.235294117647,4,2,0,50,1,0
29851,-80,4,2,0,60,0,1
48675,-80,4,2,0,50,0,0
67498,-100,4,2,0,40,0,0
86322,-80,4,2,0,60,0,1
123969,-100,4,2,0,50,0,0
132106,-80,4,2,0,50,0,0
142792,-100,4,2,0,40,0,0
162792,-100,4,2,0,5,0,0
171028,-80,4,2,0,60,0,1
180439,-133.333333333333,4,2,0,40,0,0
197989,-133.333333333333,4,2,0,50,0,0
199263,-80,4,2,0,60,0,1
255439,-100,4,2,0,50,0,0

[Colours]
Combo1 : 142,142,142
Combo2 : 146,54,80
Combo3 : 51,104,183
Combo4 : 84,216,209

[HitObjects]
192,192,27498,1,0,0:0:0:0:
192,192,28087,1,0,0:0:0:0:
192,192,28675,1,0,0:0:0:0:
192,192,28871,2,0,L|216:164,1,35,0|0,1:0|0:0,0:0:0:0:
328,192,29263,1,0,1:0:0:0:
328,192,29459,2,0,L|305:165,1,35,0|0,1:0|0:0,0:0:0:0:
172,68,29851,6,0,L|56:128,1,131.25,4|0,0:0|0:0,0:0:0:0:
168,80,30440,6,0,L|92:192,1,131.25,0|0,1:0|0:0,0:0:0:0:
164,92,30930,6,0,L|148:200,1,87.5,0|0,1:0|0:0,0:0:0:0:
180,208,31224,2,0,P|244:200|312:232,1,131.25,0|0,1:0|0:0,0:0:0:0:
344,252,31616,1,0,1:0:0:0:
484,180,31910,1,0,0:0:0:0:
492,332,32204,2,0,P|432:328|376:288,1,131.25
264,336,32694,1,0,0:0:0:0:
272,296,32792,2,0,L|188:320,1,87.5,0|0,1:0|0:0,0:0:0:0:
188,320,33283,6,0,L|164:172,1,131.25,0|0,1:0|1:0,0:0:0:0:
156,136,33675,2,0,L|92:204,1,87.5,0|0,0:0|0:0,0:0:0:0:
104,256,33969,2,0,L|80:108,1,131.25,0|0,1:0|0:0,0:0:0:0:
100,20,34557,6,0,P|84:80|32:124,1,131.25
104,28,35145,6,0,P|164:72|172:128,1,131.25,0|0,1:0|0:0,0:0:0:0:
112,36,35636,6,0,P|164:24|196:36,1,87.5,0|0,1:0|0:0,0:0:0:0:
232,60,35930,2,0,P|288:88|356:64,1,131.25,0|0,1:0|0:0,0:0:0:0:
384,44,36322,1,0,1:0:0:0:
396,192,36616,1,0,0:0:0:0:
472,80,36910,1,0,0:0:0:0:
340,120,37204,2,0,P|308:156|304:196,1,87.5
296,236,37498,1,0,1:0:0:0:
384,324,37694,6,0,B|356:291|356:291|323:327|276:312,1,131.25,0|0,0:0|1:0,0:0:0:0:
128,344,38283,1,0,1:0:0:0:
112,304,38381,2,0,L|136:220,1,87.5,0|0,1:0|0:0,0:0:0:0:
152,176,38675,2,0,P|200:176|236:152,1,87.5,0|0,1:0|0:0,0:0:0:0:
256,116,38969,1,0,1:0:0:0:
440,28,39263,6,0,L|428:164,1,131.25,4|0,0:0|0:0,0:0:0:0:
428,40,39851,6,0,L|352:148,1,131.25,0|0,1:0|0:0,0:0:0:0:
416,48,40341,6,0,L|336:88,1,87.5,0|0,1:0|0:0,0:0:0:0:
296,104,40636,2,0,P|240:60|176:60,1,131.25,0|0,1:0|0:0,0:0:0:0:
152,36,41028,2,0,B|160:86|85:99|84:152,1,131.25,0|0,1:0|0:0,0:0:0:0:
208,168,41616,1,0,0:0:0:0:
48,248,41910,2,0,P|94:245|138:245,1,87.5
180,264,42204,1,0,1:0:0:0:
128,344,42400,6,0,P|172:360|216:352,1,87.5
248,332,42694,2,0,P|304:296|368:304,1,131.25
356,260,43087,2,0,L|332:168,1,87.5,0|0,1:0|0:0,0:0:0:0:
304,200,43381,2,0,P|344:132|320:88,1,131.25,0|0,1:0|0:0,0:0:0:0:
240,28,43969,6,0,P|228:80|276:140,1,131.25
236,40,44557,6,0,P|168:76|152:124,1,131.25,0|0,1:0|0:0,0:0:0:0:
232,52,45047,6,0,P|188:48|144:52,1,87.5,0|0,1:0|0:0,0:0:0:0:
104,60,45341,2,0,P|88:132|40:168,1,131.25,0|0,1:0|0:0,0:0:0:0:
88,184,45734,2,0,L|144:304,1,131.25,0|0,1:0|0:0,0:0:0:0:
260,376,46322,6,0,P|320:336|376:308,1,131.25
288,252,46812,1,0,0:0:0:0:
256,228,46910,2,0,P|252:180|228:140,1,87.5,0|0,1:0|0:0,0:0:0:0:
204,124,47204,1,0,0:0:0:0:
256,36,47400,2,0,P|320:60|376:88,1,131.25,0|0,1:0|1:0,0:0:0:0:
404,112,47792,1,0,1:0:0:0:
496,160,47989,5,0,0:0:0:0:
468,184,48087,1,0,1:0:0:0:
360,224,48283,5,0,1:0:0:0:
388,248,48381,1,0,0:0:0:0:
484,304,48577,5,0,0:0:0:0:
456,328,48675,1,4,0:0:0:0:
108,120,49165,1,0,0:0:0:0:
88,152,49263,2,0,P|52:180|4:180,1,87.5,0|0,1:0|0:0,0:0:0:0:
108,120,49753,6,0,P|144:92|192:92,1,87.5,0|0,1:0|0:0,0:0:0:0:
224,64,50047,2,0,L|216:152,1,87.5,0|0,1:0|0:0,0:0:0:0:
184,184,50341,1,0,0:0:0:0:
184,184,50439,2,0,L|168:344,1,131.25,0|0,1:0|0:0,0:0:0:0:
170,314,51028,5,0,0:0:0:0:
296,40,51518,1,0,0:0:0:0:
272,80,51616,2,0,L|304:164,1,87.5,0|0,1:0|0:0,0:0:0:0:
303,161,52106,6,0,L|368:224,1,87.5,0|0,1:0|0:0,0:0:0:0:
404,208,52400,2,0,P|448:196|488:212,1,87.5,0|0,1:0|0:0,0:0:0:0:
423,337,52792,2,0,L|404:208,1,131.25,0|0,1:0|0:0,0:0:0:0:
380,56,53381,1,0,0:0:0:0:
248,184,53871,5,0,0:0:0:0:
248,184,53969,2,0,P|268:224|312:248,1,87.5,0|0,1:0|0:0,0:0:0:0:
427,91,54459,2,0,L|324:172,1,131.25,0|0,1:0|1:0,0:0:0:0:
323,172,54851,1,0,0:0:0:0:
172,64,55145,2,0,P|124:56|72:76,1,87.5,0|0,1:0|0:0,0:0:0:0:
48,52,55439,2,0,L|64:188,1,131.25
168,272,56028,2,0,P|152:320|120:340,1,87.5
76,332,56322,1,0,0:0:0:0:
168,272,56518,6,0,P|192:196|240:172,1,131.25
233,173,56910,1,0,1:0:0:0:
347,103,57106,5,0,1:0:0:0:
347,103,57204,1,0,0:0:0:0:
364,232,57400,5,0,0:0:0:0:
364,232,57498,2,0,L|448:184,1,87.5,0|0,1:0|1:0,0:0:0:0:
468,172,57792,2,0,P|472:120|492:80,1,87.5
472,48,58087,1,4,0:0:0:0:
464,320,58577,5,0,0:0:0:0:
424,312,58675,2,0,L|340:344,1,87.5,0|0,1:0|0:0,0:0:0:0:
152,340,59165,2,0,L|233:308,1,87.5,0|0,1:0|0:0,0:0:0:0:
268,292,59459,2,0,L|280:204,1,87.5,0|0,1:0|0:0,0:0:0:0:
296,56,59851,2,0,P|228:56|176:96,1,131.25,0|0,1:0|0:0,0:0:0:0:
178,92,60439,1,0,0:0:0:0:
64,196,60930,5,0,0:0:0:0:
104,216,61028,2,0,P|140:244|192:244,1,87.5,0|0,1:0|0:0,0:0:0:0:
128,372,61518,2,0,L|204:328,1,87.5,0|0,1:0|0:0,0:0:0:0:
240,304,61812,1,0,1:0:0:0:
324,172,62106,1,0,0:0:0:0:
297,203,62204,2,0,P|280:264|304:332,1,131.25,0|0,1:0|0:0,0:0:0:0:
444,352,62792,1,0,0:0:0:0:
480,196,63283,5,0,0:0:0:0:
456,160,63381,2,0,P|468:116|460:72,1,87.5,0|0,1:0|0:0,0:0:0:0:
360,24,63871,2,0,L|352:116,1,87.5,0|0,1:0|0:0,0:0:0:0:
304,100,64165,2,0,L|296:192,1,87.5,0|0,1:0|0:0,0:0:0:0:
304,100,64557,6,0,P|260:60|188:56,1,131.25,0|0,1:0|0:0,0:0:0:0:
148,208,65145,1,0,0:0:0:0:
104,80,65440,5,0,0:0:0:0:
190,55,65636,2,0,P|212:92|220:136,1,87.5
304,184,66028,1,0,0:0:0:0:
219,135,66224,5,0,1:0:0:0:
220,136,66322,2,0,P|208:184|208:228,1,87.5,0|0,1:0|1:0,0:0:0:0:
207,221,66616,1,0,0:0:0:0:
236,316,66812,5,0,0:0:0:0:
236,316,66910,1,0,1:0:0:0:
340,344,67106,5,0,1:0:0:0:
340,344,67204,1,0,0:0:0:0:
436,296,67400,5,0,1:0:0:0:
436,296,67498,2,0,P|456:244|480:200,1,105,4|0,0:0|0:0,0:0:0:0:
388,164,68087,2,0,P|336:152|304:108,1,105
400,76,68675,2,0,P|444:80|468:104,1,70,0|0,0:0|1:0,0:0:0:0:
480,140,68969,1,0,0:0:0:0:
320,52,69263,2,0,P|268:36|216:28,1,105,0|0,1:0|0:0,0:0:0:0:
188,136,69753,5,0,1:0:0:0:
148,128,69851,2,0,P|100:108|52:80,1,105
68,184,70440,2,0,P|72:240|100:280,1,105
196,212,71028,2,0,L|268:220,1,70,0|0,0:0|1:0,0:0:0:0:
288,264,71322,2,0,P|308:300|336:316,1,70
380,316,71616,1,0,1:0:0:0:
476,256,71812,5,0,0:0:0:0:
444,224,71910,2,0,L|428:136,1,70,0|0,0:0|1:0,0:0:0:0:
424,116,72204,2,0,P|360:112|324:76,1,105
200,64,72792,2,0,P|200:120|224:164,1,105
344,168,73381,2,0,L|320:236,1,70,0|0,0:0|1:0,0:0:0:0:
336,268,73675,2,0,P|384:284|412:332,1,105,0|0,0:0|1:0,0:0:0:0:
280,364,74263,1,0,0:0:0:0:
200,264,74557,6,0,L|184:152,1,105,0|0,0:0|0:0,0:0:0:0:
88,44,75145,2,0,L|102:147,1,105
124,276,75636,1,0,1:0:0:0:
116,231,75734,2,0,P|156:212|185:160,1,105,0|0,0:0|1:0,0:0:0:0:
256,32,76322,6,0,L|304:88,1,70,0|0,0:0|1:0,0:0:0:0:
328,116,76616,1,0,0:0:0:0:
235,150,76812,1,0,0:0:0:0:
208,180,76910,2,0,P|211:238|199:286,1,105,4|0,0:0|0:0,0:0:0:0:
104,340,77498,2,0,P|101:282|111:236,1,105
112,236,78087,6,0,L|68:180,1,70,0|0,0:0|1:0,0:0:0:0:
40,148,78381,1,0,0:0:0:0:
76,60,78577,1,0,0:0:0:0:
108,68,78675,2,0,L|184:160,1,105,0|0,1:0|0:0,0:0:0:0:
232,224,79165,1,0,1:0:0:0:
268,224,79263,2,0,P|316:224|360:272,1,105
312,128,79851,6,0,L|268:224,1,105
380,320,80440,1,0,0:0:0:0:
288,300,80636,1,0,1:0:0:0:
260,332,80734,2,0,P|232:352|192:352,1,70
160,344,81028,1,0,1:0:0:0:
192,240,81224,1,0,0:0:0:0:
164,204,81322,2,0,L|92:188,1,70
72,152,81616,2,0,P|116:112|116:52,1,105
36,72,82106,1,0,0:0:0:0:
216,40,82400,5,0,0:0:0:0:
256,64,82498,2,0,P|256:100|276:132,1,70
312,148,82792,2,0,L|296:252,1,105
364,312,83283,1,0,0:0:0:0:
396,136,83577,5,0,0:0:0:0:
396,136,83675,2,0,P|364:80|328:68,1,105
196,120,84263,1,0,1:0:0:0:
276,200,84459,1,0,0:0:0:0:
260,236,84557,2,0,L|188:260,1,70,0|0,1:0|1:0,0:0:0:0:
36,312,85047,1,0,0:0:0:0:
68,288,85145,2,0,P|88:252|96:212,1,70,0|0,0:0|1:0,0:0:0:0:
92,184,85439,1,0,0:0:0:0:
168,56,85734,2,0,L|256:112,1,105,0|0,1:0|0:0,0:0:0:0:
256,112,86322,6,0,P|304:76|372:88,1,131.25,4|0,0:0|0:0,0:0:0:0:
256,112,86910,2,0,P|208:148|140:136,1,131.25,0|0,1:0|0:0,0:0:0:0:
60,204,87400,1,0,1:0:0:0:
80,244,87498,2,0,P|120:264|148:300,1,87.5,0|0,0:0|1:0,0:0:0:0:
176,328,87792,2,0,L|268:312,1,87.5
304,332,88087,2,0,B|324:284|264:268|280:208,1,131.25,0|0,1:0|0:0,0:0:0:0:
340,120,88577,5,0,1:0:0:0:
364,96,88675,2,0,P|380:156|360:220,1,131.25
364,96,89263,2,0,B|408:128|452:104|452:104|488:128,1,131.25,0|0,1:0|0:0,0:0:0:0:
504,208,89753,1,0,1:0:0:0:
460,216,89851,2,0,L|376:184,1,87.5,0|0,0:0|1:0,0:0:0:0:
344,200,90145,2,0,P|344:264|300:312,1,131.25,0|0,0:0|1:0,0:0:0:0:
216,336,90636,5,0,0:0:0:0:
212,296,90734,2,0,P|232:248|264:232,1,87.5
240,196,91028,2,0,B|104:216,1,131.25
110,215,91616,6,0,P|140:148|128:88,1,131.25,0|0,1:0|0:0,0:0:0:0:
240,32,92106,2,0,L|260:120,1,87.5,0|0,1:0|0:0,0:0:0:0:
300,128,92400,2,0,P|356:168|364:232,1,131.25,0|0,1:0|0:0,0:0:0:0:
348,272,92792,2,0,B|296:256|292:340|232:328,1,131.25,0|0,1:0|0:0,0:0:0:0:
224,248,93283,5,0,1:0:0:0:
196,216,93381,2,0,P|128:200|84:240,2,131.25,0|0|0,0:0|0:0|1:0,0:0:0:0:
316,168,94165,2,0,P|384:184|428:144,1,131.25,0|0,0:0|1:0,0:0:0:0:
444,112,94557,1,0,0:0:0:0:
324,44,94753,6,0,L|316:88,1,43.75,0|0,1:0|0:0,0:0:0:0:
196,88,95047,6,0,L|188:44,1,43.75,0|0,0:0|1:0,0:0:0:0:
68,112,95341,5,0,1:0:0:0:
85,146,95439,2,0,P|128:184|192:168,1,87.5,0|0,0:0|0:0,0:0:0:0:
196,167,95734,6,0,P|256:144|316:168,1,131.25,4|0,0:0|0:0,0:0:0:0:
352,308,96322,2,0,B|328:260|328:260|304:264|276:256|256:232,1,131.25,0|0,1:0|0:0,0:0:0:0:
315,167,96812,6,0,P|352:140|392:136,1,87.5,0|0,1:0|0:0,0:0:0:0:
428,168,97106,1,0,1:0:0:0:
428,168,97204,2,0,B|464:120|396:88|420:44,2,131.25,0|0|0,0:0|1:0|0:0,0:0:0:0:
420,268,97989,1,0,1:0:0:0:
388,300,98087,2,0,P|320:296|288:348,1,131.25
224,248,98675,6,0,P|180:252|148:224,1,87.5,0|0,1:0|0:0,0:0:0:0:
176,112,99165,2,0,P|220:68|284:84,1,131.25,0|0,1:0|1:0,0:0:0:0:
300,116,99557,2,0,B|292:148|292:148|316:216,1,87.5
308,244,99851,2,0,P|288:304|224:336,2,131.25,0|0|0,1:0|0:0|0:0,0:0:0:0:
416,112,100734,6,0,L|332:80,1,87.5
292,64,101028,1,0,1:0:0:0:
200,120,101224,2,0,P|140:116|96:60,1,131.25,0|0,0:0|1:0,0:0:0:0:
60,48,101616,2,0,L|36:136,1,87.5,0|0,0:0|1:0,0:0:0:0:
24,176,101910,2,0,B|52:222|102:193|134:251,1,131.25,0|0,0:0|1:0,0:0:0:0:
24,348,102498,5,0,0:0:0:0:
176,368,102792,2,0,P|232:336|248:272,1,131.25
324,180,103381,1,0,0:0:0:0:
388,244,103577,2,0,L|364:328,1,87.5
400,328,103871,1,0,1:0:0:0:
436,328,103969,2,0,P|476:300|484:260,1,87.5,0|0,0:0|1:0,0:0:0:0:
472,220,104263,6,0,L|444:128,1,87.5
404,168,104557,6,0,L|376:76,1,87.5,0|0,1:0|1:0,0:0:0:0:
336,120,104851,6,0,L|308:28,1,87.5,0|0,0:0|1:0,0:0:0:0:
310,36,105145,6,0,P|256:80|248:144,1,131.25
320,48,105734,6,0,P|336:120|384:152,1,131.25
332,60,106224,6,0,P|368:80|412:64,1,87.5
448,44,106518,2,0,B|484:96|408:128|444:184,1,131.25
464,200,106910,2,0,P|480:256|440:320,1,131.25
296,252,107498,6,0,L|204:236,1,87.5
188,200,107792,2,0,P|200:152|188:104,1,87.5
164,80,108087,1,0,0:0:0:0:
100,152,108283,2,0,P|88:200|100:248,1,87.5
88,280,108577,6,0,P|156:284|208:328,1,131.25
244,340,108969,2,0,L|332:316,1,87.5
316,276,109263,2,0,L|276:148,1,131.25
170,95,109851,6,0,P|228:100|276:150,1,131.25
180,88,110439,6,0,P|193:148|153:204,1,131.25
188,80,110930,6,0,P|148:104|104:104,1,87.5
68,84,111224,2,0,P|68:148|24:200,1,131.25
52,232,111616,1,0,0:0:0:0:
132,360,111910,1,0,0:0:0:0:
200,232,112204,2,0,L|240:152,1,87.5
276,128,112498,2,0,P|320:124|356:148,1,87.5
376,192,112792,1,0,0:0:0:0:
300,256,112989,6,0,P|320:296|356:320,1,87.5
376,356,113283,2,0,B|424:336|400:276|448:240,1,131.25
480,232,113675,1,0,0:0:0:0:
392,88,113969,2,0,L|310:52,1,87.5
272,36,114263,1,0,0:0:0:0:
272,36,114557,6,0,L|256:168,1,131.25
264,44,115145,6,0,L|152:116,1,131.25
256,52,115636,6,0,L|168:40,1,87.5
124,48,115930,2,0,P|80:104|96:160,1,131.25
116,192,116322,2,0,B|152:232|204:188|240:224,1,131.25
340,360,116910,1,0,0:0:0:0:
192,288,117204,1,0,0:0:0:0:
296,260,117400,5,0,0:0:0:0:
332,244,117498,2,0,P|376:244|412:268,1,87.5
500,148,117989,2,0,L|368:140,1,131.25
352,108,118381,2,0,P|316:80|268:76,1,87.5
264,36,118675,2,0,B|216:68|264:124|220:156,1,131.25
88,280,119263,6,0,P|124:224|100:160,1,131.25
84,292,119851,6,0,P|144:284|196:236,1,131.25
80,304,120341,6,0,P|116:328|160:336,1,87.5
196,316,120636,2,0,P|256:292|312:320,1,131.25
336,356,121028,1,0,0:0:0:0:
460,264,121322,1,0,0:0:0:0:
312,212,121616,2,0,P|320:160|312:120,1,87.5
296,92,121910,2,0,L|384:64,1,87.5
420,84,122204,1,0,0:0:0:0:
432,188,122400,6,0,B|376:224|376:224|312:212,1,131.25
276,204,122792,2,0,L|190:187,1,87.5
190,187,123087,1,0,0:0:0:0:
72,132,123283,5,0,0:0:0:0:
72,132,123381,1,0,0:0:0:0:
180,68,123577,5,0,0:0:0:0:
180,68,123675,1,0,0:0:0:0:
100,220,123969,5,0,0:0:0:0:
248,88,124459,1,0,0:0:0:0:
276,68,124557,2,0,P|316:48|348:52,1,70
276,160,125047,6,0,P|236:180|204:176,1,70
176,164,125341,2,0,L|140:224,1,70
120,260,125636,1,0,0:0:0:0:
120,260,125734,2,0,P|160:308|152:348,1,105
153,346,126322,5,0,0:0:0:0:
372,280,126812,1,0,0:0:0:0:
356,244,126910,2,0,P|328:216|276:212,1,70
276,176,127204,2,0,L|344:152,1,70
400,44,127694,5,0,0:0:0:0:
280,96,127989,1,0,0:0:0:0:
240,104,128087,2,0,P|208:136|204:200,1,105
201,193,128675,1,0,0:0:0:0:
48,56,129165,1,0,0:0:0:0:
36,96,129263,2,0,L|12:176,2,70
72,120,129753,6,0,P|80:156|104:180,1,70
124,212,130047,2,0,P|92:236|80:272,1,70
48,288,130341,2,0,L|144:340,1,105
176,356,130734,1,0,0:0:0:0:
336,328,131028,6,0,L|404:304,1,70
440,292,131322,1,0,0:0:0:0:
452,200,131518,2,0,L|384:224,1,70
348,236,131812,1,0,0:0:0:0:
392,136,132106,6,0,L|416:92,1,43.75
328,40,132400,2,0,L|307:78,1,43.75
204,78,132694,6,0,L|184:40,1,43.75
99,97,132988,2,0,L|120:136,1,43.75
256,224,133381,5,0,0:0:0:0:
72,336,133871,5,0,0:0:0:0:
48,304,133969,2,0,P|76:256|72:224,1,87.5
72,226,134459,6,0,L|144:164,1,87.5
160,200,134753,2,0,L|231:137,1,87.5
264,144,135047,1,0,0:0:0:0:
264,144,135145,2,0,P|292:208|264:264,1,131.25
268,260,135734,5,0,0:0:0:0:
420,152,136224,1,0,0:0:0:0:
456,172,136322,2,0,L|444:40,1,131.25
360,116,136812,1,0,0:0:0:0:
416,264,137106,5,0,0:0:0:0:
272,328,137400,5,0,0:0:0:0:
236,308,137498,2,0,L|160:264,1,87.5
148,228,137792,2,0,P|212:228|256:172,1,131.25
228,44,138577,1,0,0:0:0:0:
216,76,138675,2,0,L|180:156,1,87.5
180,155,139165,6,0,P|140:144|100:164,1,87.5
76,192,139459,2,0,P|62:236|76:273,1,87.5
108,300,139753,1,0,0:0:0:0:
108,300,139851,2,0,B|152:344|192:280|236:312,1,131.25
424,344,140439,2,0,P|364:296|308:292,1,131.25
311,291,140930,2,0,P|328:224|380:192,1,131.25
412,168,141322,1,0,0:0:0:0:
404,28,141518,1,0,0:0:0:0:
376,64,141616,2,0,L|296:104,1,87.5
272,136,141910,1,0,0:0:0:0:
194,81,142106,5,0,0:0:0:0:
168,48,142204,1,0,0:0:0:0:
128,152,142400,5,0,0:0:0:0:
102,185,142498,1,0,0:0:0:0:
44,100,142694,5,0,0:0:0:0:
18,67,142792,2,0,L|-8:168,1,105
32,292,143381,2,0,P|72:244|128:236,1,105
224,268,143969,2,0,P|252:296|260:324,1,70
248,364,144263,1,0,0:0:0:0:
224,268,144557,2,0,P|208:240|208:192,1,70
212,164,144851,1,0,0:0:0:0:
280,100,145047,1,0,0:0:0:0:
312,108,145145,2,0,L|416:128,1,105
480,236,145734,2,0,L|376:216,1,105
336,320,146322,2,0,L|275:359,1,70
239,363,146616,2,0,P|211:331|179:323,1,70
155,303,146910,2,0,P|171:263|171:219,1,70
159,199,147204,1,0,0:0:0:0:
96,124,147400,1,0,0:0:0:0:
120,96,147498,2,0,L|232:72,1,105
356,48,148087,2,0,P|408:60|440:100,1,105
400,228,148675,2,0,L|373:163,1,70
360,128,148969,1,0,0:0:0:0:
268,96,149165,1,0,0:0:0:0:
236,124,149263,2,0,P|204:168|208:216,1,105
192,356,149851,6,0,L|148:256,1,105
28,140,150439,2,0,L|70:236,1,105
28,308,150930,1,0,0:0:0:0:
28,308,151028,2,0,P|72:324|124:300,1,105
152,180,151616,2,0,L|216:148,1,70
256,128,151910,2,0,P|284:152|288:184,1,70
272,224,152204,2,0,P|240:264|232:320,1,105
348,204,152792,2,0,P|380:164|388:108,1,105
488,28,153381,2,0,L|496:100,1,70
500,140,153675,1,0,0:0:0:0:
405,235,153969,2,0,P|384:212|348:204,1,70
304,212,154263,1,0,0:0:0:0:
340,292,154459,1,0,0:0:0:0:
340,292,154557,2,0,P|384:324|444:308,1,105
492,252,155047,2,0,L|460:144,1,105
368,52,155636,2,0,B|320:48|312:100|272:108,1,105
240,104,156028,1,0,0:0:0:0:
152,68,156224,1,0,0:0:0:0:
112,52,156322,2,0,P|72:40|36:52,1,70
16,80,156616,2,0,L|28:148,1,70
12,188,156910,2,0,P|68:200|96:244,1,105
20,268,157400,1,0,0:0:0:0:
176,216,157694,1,0,0:0:0:0:
212,196,157792,2,0,L|236:120,1,70
264,108,158087,2,0,P|304:72|356:72,1,105
336,152,158577,1,0,0:0:0:0:
384,276,158871,1,0,0:0:0:0:
376,320,158969,2,0,P|344:304|304:308,1,70
272,328,159263,1,0,0:0:0:0:
132,256,159557,1,0,0:0:0:0:
64,184,159753,1,0,0:0:0:0:
32,152,159851,2,0,L|100:136,1,70
120,100,160145,2,0,L|188:84,1,70
228,76,160439,1,0,0:0:0:0:
320,112,160636,2,0,L|316:148,1,35
232,272,161028,2,0,L|245:167,1,105
256,192,161420,12,0,162792,0:0:0:0:
224,120,171028,6,0,P|184:96|140:96,1,87.5
108,104,171322,1,0,0:0:0:0:
48,184,171518,1,0,0:0:0:0:
78,207,171616,2,0,L|160:176,1,87.5
304,132,172106,2,0,P|320:180|300:228,1,87.5
288,244,172400,2,0,L|284:288,1,43.75
364,348,172694,1,0,0:0:0:0:
364,348,172792,2,0,P|392:284|376:224,1,131.25
304,132,173381,2,0,L|348:56,1,87.5
384,76,173675,2,0,P|412:112|412:152,1,87.5
404,192,173969,2,0,P|376:228|336:236,1,87.5
308,260,174263,2,0,P|276:224|232:216,1,87.5
200,224,174557,2,0,P|164:252|156:296,1,87.5
167,328,174851,2,0,P|204:328|236:292,1,87.5
240,252,175145,2,0,L|244:160,1,87.5
208,148,175439,2,0,L|212:56,1,87.5
176,48,175734,2,0,B|124:40|124:40|128:64|128:64|72:52,2,131.25
328,108,176616,1,0,0:0:0:0:
408,52,176812,2,0,P|456:56|492:76,1,87.5
512,108,177106,1,0,0:0:0:0:
512,108,177204,2,0,B|528:156|464:176|484:240,2,131.25
428,132,177989,1,0,0:0:0:0:
408,168,178087,2,0,L|280:208,1,131.25
260,348,178675,2,0,P|197:350|141:291,1,131.25
80,224,179165,1,0,0:0:0:0:
52,200,179263,2,0,L|76:112,1,87.5
104,88,179557,2,0,L|192:64,1,87.5
232,52,179851,1,0,0:0:0:0:
296,120,180047,2,0,L|254:132,1,43.75
184,316,180439,2,0,P|212:280|244:272,1,78.7500030040742
336,288,181028,2,0,L|392:308,1,52.5000020027161
460,248,181518,2,0,P|464:196|436:152,1,105.000004005432
344,104,182204,2,0,L|284:92,1,52.5000020027161
216,36,182694,2,0,P|168:48|136:92,1,105.000004005432
52,168,183381,2,0,L|104:176,1,52.5000020027161
132,260,183871,2,0,P|160:288|200:296,1,78.7500030040742
236,296,184263,2,0,P|272:280|300:248,1,78.7500030040742
312,160,184753,1,0,0:0:0:0:
312,160,184851,2,0,L|256:168,1,52.5000020027161
220,172,185145,2,0,P|208:124|184:100,1,78.7500030040742
256,36,185734,2,0,L|308:24,1,52.5000020027161
380,88,186224,2,0,P|412:116|448:116,2,78.7500030040742
348,112,186910,2,0,L|332:172,1,52.5000020027161
436,228,187400,2,0,P|388:236|352:276,1,105.000004005432
452,360,188087,2,0,L|428:313,1,52.5000020027161
336,348,188577,2,0,P|296:356|260:340,1,78.7500030040742
236,312,188969,2,0,P|216:280|220:236,1,78.7500030040742
256,156,189459,1,0,0:0:0:0:
256,156,189557,2,0,L|248:88,1,52.5000020027161
216,96,189851,2,0,P|180:80|140:84,1,78.7500030040742
116,168,190439,2,0,P|135:173|167:169,1,52.5000020027161
92,244,190930,2,0,P|140:256|200:240,1,105.000004005432
240,328,191616,2,0,P|264:312|284:284,1,52.5000020027161
348,372,192106,2,0,P|364:324|364:268,1,105.000004005432
488,216,192792,2,0,L|436:200,1,52.5000020027161
348,216,193283,2,0,P|304:228|272:216,1,78.7500030040742
244,196,193675,2,0,P|220:168|220:120,1,78.7500030040742
300,84,194165,1,0,0:0:0:0:
300,84,194263,2,0,L|308:136,1,52.5000020027161
344,132,194557,2,0,L|436:116,1,78.7500030040742
456,216,195145,2,0,P|428:208|408:188,1,52.5000020027161
376,284,195636,2,0,P|340:252|316:200,1,105.000004005432
232,248,196322,2,0,P|228:216|236:184,1,52.5000020027161
140,200,196812,2,0,P|156:144|184:104,1,105.000004005432
256,40,197498,1,0,0:0:0:0:
256,40,197694,1,0,0:0:0:0:
340,100,197989,2,0,L|376:128,1,26.2500010013581
332,204,198283,2,0,L|311:187,1,26.2500010013581
464,204,198675,1,0,0:0:0:0:
432,292,198871,2,0,L|420:328,1,26.2500010013581
304,360,199263,2,0,L|272:224,1,131.25
292,352,199851,2,0,P|256:296|192:288,1,131.25
92,272,200341,1,0,0:0:0:0:
104,240,200439,2,0,L|136:156,1,87.5
112,128,200734,2,0,B|152:96|188:144|204:116,1,87.5
232,100,201028,2,0,P|292:80|360:92,1,131.25
424,160,201518,1,0,0:0:0:0:
452,136,201616,2,0,L|412:268,1,131.25
292,344,202204,2,0,P|304:272|356:232,1,131.25
336,148,202694,2,0,L|248:168,1,87.5
228,208,202989,1,0,0:0:0:0:
228,208,203087,2,0,B|192:172|232:124|196:84,1,131.25
116,140,203577,1,0,0:0:0:0:
84,160,203675,2,0,L|60:244,1,87.5
28,276,203969,2,0,P|100:276|136:324,1,131.25
134,318,204557,2,0,P|200:304|252:340,1,131.25
344,320,205047,2,0,L|432:308,1,87.5
456,268,205341,2,0,L|328:240,1,131.25
295,220,205734,2,0,P|292:156|308:92,1,131.25
384,28,206224,1,0,0:0:0:0:
416,44,206322,2,0,B|448:64|448:64|460:164,1,131.25
308,92,206910,2,0,P|284:64|236:56,1,87.5
116,112,207400,2,0,L|72:136,1,43.75
200,156,207694,2,0,L|238:135,1,43.75
208,248,208087,2,0,P|204:288|168:324,1,87.5
136,336,208381,2,0,P|92:336|56:312,1,87.5
36,280,208675,2,0,B|20:232|80:208|64:156,1,131.25
124,20,209263,2,0,L|152:152,1,131.25
268,168,209753,1,0,0:0:0:0:
240,192,209851,2,0,P|212:228|208:276,1,87.5
220,304,210145,2,0,P|284:308|320:360,2,131.25
304,236,210930,1,0,0:0:0:0:
332,208,211028,2,0,L|420:192,1,87.5
452,168,211322,2,0,P|464:120|452:80,1,87.5
428,52,211616,2,0,P|388:32|344:40,1,87.5
232,120,212106,2,0,L|260:204,1,87.5
260,244,212400,1,0,0:0:0:0:
260,244,212498,2,0,P|220:296|156:304,2,131.25
296,152,213283,1,0,0:0:0:0:
316,120,213381,2,0,P|344:84|384:72,1,87.5
424,84,213675,1,0,0:0:0:0:
434,244,213969,2,0,L|392:168,1,87.5
392,167,214459,2,0,L|272:224,1,131.25
236,220,214851,2,0,P|192:200|152:208,1,87.5
120,224,215145,2,0,B|100:268|176:296|156:344,1,131.25
72,336,215636,1,0,0:0:0:0:
48,304,215734,2,0,P|28:232|48:172,1,131.25
128,120,216224,1,0,0:0:0:0:
156,104,216322,2,0,L|236:56,2,87.5
176,136,216812,2,0,L|200:172,1,43.75
312,172,217106,2,0,L|336:136,1,43.75
448,228,217498,2,0,P|452:276|432:320,1,87.5
412,340,217792,1,0,0:0:0:0:
348,260,217989,1,0,0:0:0:0:
320,232,218087,2,0,P|260:220|204:264,1,131.25
56,112,218675,2,0,P|124:144|152:196,1,131.25
180,100,219165,2,0,P|220:80|268:80,1,87.5
298,106,219459,1,0,0:0:0:0:
298,106,219557,2,0,B|332:144|288:180|320:232,1,131.25
396,184,220047,1,0,0:0:0:0:
464,64,220341,1,0,0:0:0:0:
464,64,220439,2,0,L|332:40,1,131.25
184,32,221028,2,0,P|152:83|167:149,1,131.25
248,208,221518,1,0,0:0:0:0:
248,208,221616,2,0,P|296:224|312:256,1,87.5
308,296,221910,2,0,B|288:360|220:312|196:356,1,131.25
136,280,222400,1,0,0:0:0:0:
100,264,222498,2,0,P|63:237|53:194,1,87.5
20,176,222792,2,0,P|80:136|84:68,1,131.25
128,192,223381,2,0,B|228:212|228:212|248:184,1,131.25
216,104,223871,2,0,P|236:56|280:40,1,87.5
304,32,224165,1,0,0:0:0:0:
304,32,224263,2,0,P|352:44|384:88,1,87.5
392,112,224557,2,0,L|480:96,1,87.5
440,224,225047,1,0,0:0:0:0:
404,216,225145,2,0,B|360:224|384:280|352:288,1,87.5
328,296,225439,2,0,P|284:304|256:340,1,87.5
228,360,225734,2,0,L|212:272,1,87.5
100,176,226224,2,0,L|88:133,1,43.75
192,56,226518,2,0,L|204:100,1,43.75
308,98,226812,2,0,L|320:56,1,43.75
423,133,227106,2,0,L|412:176,1,43.75
292,220,227400,1,0,0:0:0:0:
288,252,227498,2,0,P|256:308|192:320,1,131.25
40,248,228087,2,0,L|72:120,1,131.25
128,52,228577,1,0,0:0:0:0:
128,52,228675,2,0,P|168:68|216:52,1,87.5
248,40,228969,2,0,P|300:16|372:56,1,131.25
363,44,229459,1,0,0:0:0:0:
272,128,229753,1,0,0:0:0:0:
304,144,229851,2,0,L|356:264,1,131.25
386,151,230439,2,0,P|344:136|304:144,1,87.5
288,308,230930,2,0,L|251:223,1,87.5
232,192,231224,1,0,0:0:0:0:
232,192,231322,2,0,P|184:180|152:196,1,87.5
124,220,231616,2,0,P|100:272|128:344,2,131.25
