osu file format v9

[General]
AudioFilename: kagerou days.mp3
AudioLeadIn: 0
PreviewTime: 59276
Countdown: 0
SampleSet: Soft
StackLeniency: 0.4
Mode: 0
LetterboxInBreaks: 0

[Editor]
Bookmarks: 11585,21185,21485,40385,59585,78785,88385,107585,126785,145985,155585,165185,174785,184385,203585
DistanceSpacing: 1
BeatDivisor: 4
GridSize: 8

[Metadata]
Title:Kagerou Days
Artist:Hatsune Miku
Creator:m i z u k i
Version:mizuki
Source:Jin
Tags:vocaloid shidu yuzuki climbb65588 vxjokerxv mizuki

[Difficulty]
HPDrainRate:6
CircleSize:4
OverallDifficulty:8
ApproachRate:9
SliderMultiplier:1.7
SliderTickRate:1

[Events]
//Background and Video events
0,0,"bg.jpg"
Video,0,"kagerou days.flv"
//Break Periods
2,11576,20576
2,78976,87776
2,155775,164576
//Storyboard Layer 0 (Background)
//Storyboard Layer 1 (Fail)
//Storyboard Layer 2 (Pass)
//Storyboard Layer 3 (Foreground)
//Storyboard Sound Samples
//Background Colour Transformations
3,100,163,162,255

[TimingPoints]
776,300,4,2,0,50,1,0
1976,-200,4,2,0,50,0,0
6626,-200,4,2,0,5,0,0
6701,-200,4,2,0,50,0,0
9026,-200,4,2,0,5,0,0
9101,-200,4,2,0,50,0,0
10601,-200,4,2,0,5,0,0
10676,-200,4,2,0,50,0,0
10901,-200,4,2,0,5,0,0
10976,-200,4,2,0,50,0,0
11276,-200,4,2,0,5,0,0
11351,-100,4,1,0,75,0,0
21401,-100,4,1,0,70,0,0
30326,-100,4,1,0,10,0,0
30401,-100,4,1,0,70,0,0
40001,-100,4,2,0,65,0,0
40451,-100,4,2,0,10,0,0
41651,-100,4,2,0,65,0,0
42851,-100,4,2,0,10,0,0
44051,-100,4,2,0,65,0,0
49976,-100,4,2,0,70,0,0
56201,-100,4,2,0,10,0,0
56276,-100,4,2,0,70,0,0
56501,-100,4,2,0,10,0,0
56576,-100,4,2,0,70,0,0
56801,-100,4,2,0,10,0,0
56876,-100,4,2,0,70,0,0
57176,-100,4,1,0,75,0,0
59576,-100,4,1,0,75,0,1
59801,-100,4,1,0,10,0,1
59876,-100,4,1,0,75,0,1
60101,-100,4,1,0,10,0,1
60176,-100,4,1,0,75,0,1
60401,-100,4,1,0,10,0,1
60476,-100,4,1,0,75,0,1
60701,-100,4,1,0,10,0,1
60776,-100,4,1,0,75,0,1
64376,-100,4,1,0,65,0,0
65576,-100,4,1,0,70,0,0
66776,-100,4,1,0,75,0,0
67976,-100,4,1,0,80,0,0
69176,-100,4,1,0,75,0,1
71801,-100,4,1,0,10,0,1
71876,-100,4,1,0,75,0,1
72101,-100,4,1,0,10,0,1
72176,-100,4,1,0,75,0,1
72401,-100,4,1,0,10,0,1
72476,-100,4,1,0,75,0,1
72701,-100,4,1,0,10,0,1
72776,-100,4,1,0,75,0,1
73976,-100,4,1,0,65,0,0
75176,-100,4,1,0,70,0,0
76376,-100,4,1,0,75,0,0
76601,-100,4,1,0,10,0,0
76676,-100,4,1,0,75,0,0
76901,-100,4,1,0,10,0,0
76976,-100,4,1,0,75,0,0
77201,-100,4,1,0,10,0,0
77276,-100,4,1,0,75,0,0
77501,-100,4,1,0,10,0,0
77576,-100,4,1,0,80,0,0
78326,-100,4,1,0,10,0,0
78401,-100,4,1,0,80,0,0
88226,-100,4,1,0,75,0,0
88601,-100,4,1,0,70,0,0
97526,-100,4,1,0,10,0,0
97601,-100,4,1,0,70,0,0
107201,-100,4,2,0,65,0,0
107651,-100,4,2,0,10,0,0
108851,-100,4,2,0,65,0,0
110051,-100,4,2,0,10,0,0
111251,-100,4,2,0,65,0,0
117176,-100,4,2,0,70,0,0
123401,-100,4,2,0,10,0,0
123476,-100,4,2,0,70,0,0
123701,-100,4,2,0,10,0,0
123776,-100,4,2,0,70,0,0
124376,-100,4,1,0,75,0,0
126251,-100,4,2,0,50,0,0
126476,-200,4,2,0,50,0,0
126701,-200,4,2,0,10,0,0
126776,-100,4,1,0,75,0,1
127001,-100,4,1,0,10,0,1
127076,-100,4,1,0,75,0,1
127301,-100,4,1,0,10,0,1
127376,-100,4,1,0,75,0,1
127601,-100,4,1,0,10,0,1
127676,-100,4,1,0,75,0,1
127901,-100,4,1,0,10,0,1
127976,-100,4,1,0,75,0,1
131576,-100,4,1,0,65,0,0
132776,-100,4,1,0,70,0,0
133976,-100,4,1,0,75,0,0
135176,-100,4,1,0,80,0,0
136376,-100,4,1,0,75,0,1
139001,-100,4,1,0,10,0,1
139076,-100,4,1,0,75,0,1
139301,-100,4,1,0,10,0,1
139376,-100,4,1,0,75,0,1
139601,-100,4,1,0,10,0,1
139676,-100,4,1,0,75,0,1
139901,-100,4,1,0,10,0,1
139976,-100,4,1,0,75,0,1
141176,-100,4,1,0,65,0,0
142376,-100,4,1,0,70,0,0
143576,-100,4,1,0,75,0,0
143801,-100,4,1,0,10,0,0
143876,-100,4,1,0,75,0,0
144101,-100,4,1,0,10,0,0
144176,-100,4,1,0,75,0,0
144401,-100,4,1,0,10,0,0
144476,-100,4,1,0,75,0,0
144701,-100,4,1,0,10,0,0
144776,-100,4,1,0,80,0,0
145526,-100,4,1,0,10,0,0
145601,-100,4,1,0,80,0,0
146126,-100,4,1,0,70,0,0
150626,-200,4,1,0,70,0,0
150926,-100,4,1,0,70,0,0
165176,-200,4,2,0,50,0,0
174776,-133.333333333333,4,2,0,60,0,0
182051,-133.333333333333,4,2,0,5,0,0
184376,-100,4,1,0,75,0,1
184601,-100,4,1,0,10,0,1
184676,-100,4,1,0,75,0,1
184901,-100,4,1,0,10,0,1
184976,-100,4,1,0,75,0,1
185201,-100,4,1,0,10,0,1
185276,-100,4,1,0,75,0,1
185501,-100,4,1,0,10,0,1
185576,-100,4,1,0,75,0,1
189176,-100,4,1,0,65,0,0
190376,-100,4,1,0,70,0,0
191576,-100,4,1,0,75,0,0
192776,-100,4,1,0,80,0,0
193976,-100,4,1,0,75,0,1
196601,-100,4,1,0,10,0,1
196676,-100,4,1,0,75,0,1
196901,-100,4,1,0,10,0,1
196976,-100,4,1,0,75,0,1
197201,-100,4,1,0,10,0,1
197276,-100,4,1,0,75,0,1
197501,-100,4,1,0,10,0,1
197576,-100,4,1,0,75,0,1
198776,-100,4,1,0,65,0,0
199976,-100,4,1,0,70,0,0
201176,-100,4,1,0,75,0,0
201401,-100,4,1,0,10,0,0
201476,-100,4,1,0,75,0,0
201701,-100,4,1,0,10,0,0
201776,-100,4,1,0,75,0,0
202001,-100,4,1,0,10,0,0
202076,-100,4,1,0,75,0,0
202301,-100,4,1,0,10,0,0
202376,-100,4,1,0,80,0,0

[Colours]
Combo1 : 235,235,235
Combo2 : 255,0,0
Combo3 : 13,152,227

[HitObjects]
88,208,1976,2,0,B|88:256,1,42.5,2|0
208,368,2426,1,0
208,368,2576,2,0,B|208:312,1,42.5,2|0
296,184,3026,1,0
360,240,3176,1,2
480,120,3476,6,0,B|508:72,1,42.5,0|0
440,24,3776,2,0,B|412:72,1,42.5
352,120,4076,1,2
296,184,4226,1,2
232,240,4376,6,0,B|216:288,2,42.5,2|0|0
160,200,4826,2,0,B|112:192,2,42.5,2|0|0
224,136,5276,2,0,B|232:88,2,42.5,2|0|2
360,240,5876,6,0,B|360:184,1,42.5
336,112,6176,2,0,B|304:72,1,42.5
232,48,6476,2,0,B|176:40,1,42.5
104,56,6776,6,0,B|72:56|48:72,2,42.5,2|0|0
112,144,7226,2,0,B|88:160|80:184,2,42.5,2|0|0
192,176,7676,2,0,B|184:200|184:224,2,42.5,2|0|2
320,288,8276,6,0,B|300:296|272:296,1,42.5
192,292,8576,2,0,B|164:288|140:272,1,42.5
80,236,8876,2,0,B|60:224|48:204,1,42.5
40,120,9176,5,2
104,64,9326,1,0
192,64,9476,1,0
112,40,9626,5,2
168,104,9776,1,0
168,192,9926,1,0
192,112,10076,5,2
128,168,10226,1,0
40,168,10376,6,0,B|40:248,1,63.75,2|0
72,256,10676,2,0,B|104:272|144:288,1,63.75,2|0
168,296,10976,2,0,B|160:336|128:376,1,85,2|0
120,344,21176,5,4
120,344,21476,2,0,B|80:360|80:360|40:352,1,85
64,224,21776,2,0,B|104:208|104:208|160:216,1,85
224,192,22076,2,0,B|328:152|384:256,2,170
144,160,22826,1,0
200,96,22976,1,0
168,264,23276,2,0,B|72:288,1,85,0|0
248,248,23576,6,0,B|328:272|384:208,1,127.5
392,192,23876,1,0
448,128,24026,1,0
368,96,24176,2,0,B|199:142,1,170
122,163,24626,1,0
128,80,24776,6,0,B|309:31,1,170,0|0
332,188,25226,1,0
320,272,25376,1,0
256,328,25526,1,0
172,352,25676,2,0,B|84:352,1,85
4,352,25976,5,0
4,352,26276,2,0,B|20:256|124:224,1,170,2|2
152,20,26876,2,0,B|80:92,1,85,2|0
64,160,27176,5,2
152,144,27326,1,0
232,176,27476,1,2
288,240,27626,2,0,B|392:232,1,85,2|0
456,336,27926,2,0,B|352:344,1,85,2|0
288,344,28226,1,2
216,304,28376,6,0,B|112:272|64:360,2,170,0|2|2
296,152,29276,1,2
376,120,29426,1,2
320,56,29576,5,0
192,24,29726,1,2
72,64,29876,1,0
8,176,30026,1,2
136,152,30176,2,0,B|168:160|168:160|184:144|208:144|208:144|232:128|240:120,1,85,2|0
136,168,30476,2,0,B|176:264|112:328,1,170,2|4
376,216,31076,6,0,B|336:120|400:56,2,170
136,168,31976,2,0,B|176:256|112:328,1,170
200,336,32426,2,0,B|304:344,1,85
272,48,32876,1,0
216,112,33026,1,0
272,176,33176,6,0,B|312:232|288:320,1,127.5
280,336,33476,2,0,B|192:352,1,85
72,344,33776,2,0,B|16:280|56:192,1,127.5
24,184,34076,2,0,B|128:160,1,85
192,144,34376,6,0,B|272:120|272:120|392:120,1,170
392,200,34826,1,0
480,192,34976,1,0
504,112,35126,1,0
456,40,35276,2,0,B|416:24|416:24|352:32,1,85
312,80,35576,5,0
312,80,35876,2,0,B|272:160|328:248,1,170,2|2
192,352,36476,2,0,B|152:328|96:320,1,85,2|0
24,336,36776,5,2
56,256,36926,1,0
128,208,37076,1,2
208,184,37226,2,0,B|256:168|328:176,1,85,2|0
280,256,37526,2,0,B|272:296|288:352,1,85,2|0
284,340,37826,1,2
292,173,37976,6,0,B|244:109|140:149,1,127.5,2|0
144,160,38276,2,0,B|187:140|219:108,1,85,2|0
312,24,38576,5,2
360,96,38726,1,0
440,128,38876,1,0
376,80,39026,5,2
408,160,39176,1,0
368,240,39326,1,0
376,152,39476,5,2
400,232,39626,1,0
472,280,39776,1,2
256,344,40076,5,0
256,320,40226,1,0
256,296,40376,1,4
256,192,40451,12,0,41576
400,112,41726,6,0,B|396:160|348:188,1,85
272,196,42026,1,0
104,180,42176,2,0,B|80:220|104:268,1,85
184,236,42476,2,0,B|200:284|256:308,1,85
192,132,42776,1,4
256,192,42851,12,0,43976
172,136,44126,6,0,B|68:144,1,85,0|0
116,44,44426,2,0,B|28:36,1,85,0|0
204,48,44726,1,0
272,100,44876,1,0
288,184,45026,1,0
240,256,45176,1,4
240,256,45476,6,0,B|168:232|104:288,1,127.5
96,312,45776,2,0,B|8:328,1,85
184,344,46076,1,0
304,376,46226,1,0
392,288,46376,6,0,B|436:200|396:112,1,170
208,32,46826,1,0
208,32,46976,2,0,B|168:96|212:184,1,127.5
220,192,47276,1,0
148,240,47426,1,0
180,320,47576,6,0,B|4:344,1,170,4|0
180,320,48026,2,0,B|220:304|220:304|292:312,1,85
292,224,48326,2,0,B|328:248|328:248|344:288,1,85
376,368,48626,1,2
440,312,48776,5,2
440,312,49076,2,0,B|448:264|448:264|432:224,1,85,2|0
400,152,49376,1,2
320,120,49526,1,0
296,112,49601,1,0
272,104,49676,1,2
248,96,49751,1,0
224,88,49826,1,0
200,80,49901,1,0
176,72,49976,6,0,B|104:136|152:256,1,170,4|8
224,240,50426,1,0
240,320,50576,1,0
160,360,50726,1,2
99,299,50876,1,8
143,226,51026,1,2
288,144,51326,5,0
272,64,51476,1,8
352,24,51626,1,2
413,85,51776,2,0,B|496:104,1,85,0|2
369,158,52076,2,0,B|440:224,1,85,8|2
368,280,52376,5,4
288,248,52526,1,2
288,248,52601,1,0
288,248,52676,1,8
208,264,52826,2,0,B|120:288|48:224,1,170,0|2
49,225,53276,2,0,B|0:304,2,85,8|2|0
256,56,53726,5,0
224,136,53876,1,8
256,216,54026,1,2
336,248,54176,5,0
216,208,54326,1,2
96,240,54476,1,8
16,344,54626,1,2
120,272,54776,6,0,B|184:248|184:248|272:248,1,127.5,4|0
288,240,55076,2,0,B|248:272|240:336,1,85,8|0
360,368,55376,2,0,B|392:336|400:288,1,85,0|2
432,216,55676,1,8
384,144,55826,1,2
296,152,55976,6,0,B|264:96|272:16,1,127.5,0|0
272,160,56276,2,0,B|216:128|184:56,1,127.5,8|0
256,176,56576,2,0,B|192:176|136:136,1,127.5
248,200,56876,2,0,B|208:224|136:224,1,85,8|10
80,232,57176,5,0
48,352,57326,1,0
240,272,57626,5,0
216,144,57776,1,0
424,184,58076,5,0
456,56,58226,1,0
328,232,58526,5,0
376,352,58676,2,0,B|440:368,3,42.5
456,344,58976,1,0
120,328,59576,6,0,B|184:304|208:240,1,127.5,4|0
240,216,59876,2,0,B|176:240|96:224,1,127.5,8|0
80,248,60176,2,0,B|144:224|168:160,1,127.5
200,136,60476,2,0,B|136:160|56:144,1,127.5,8|0
208,40,60776,5,0
296,56,60926,1,0
376,104,61076,1,8
432,192,61226,1,0
448,304,61376,2,0,B|344:296,1,85
248,168,61676,2,8,B|352:176,1,85,8|0
448,304,61976,6,0,B|280:288,1,170,0|8
200,320,62426,1,0
120,304,62576,2,0,B|72:256|80:184,1,127.5
79,187,62876,2,0,B|144:128,1,85,8|0
240,48,63176,5,0
296,112,63326,1,0
216,160,63476,1,8
304,208,63626,1,0
200,248,63776,2,0,B|168:304|96:336,1,127.5
106,331,64076,2,0,B|192:368,1,85,8|0
304,328,64376,6,0,B|344:340|344:340|384:328,1,85,4|0
496,144,64676,2,0,B|456:132|456:132|416:144,1,85,8|0
200,248,64976,2,0,B|160:260|160:260|120:248,1,85
208,56,65276,2,0,B|248:44|248:44|288:56,1,85,8|8
80,344,65576,6,0,B|160:288,1,85,4|0
432,40,65876,2,0,B|352:96,1,85,8|0
56,336,66176,2,0,B|136:280,1,85,0|0
456,48,66476,2,0,B|376:104,1,85,8|8
312,128,66776,5,4
224,136,66926,1,0
144,96,67076,1,8
96,24,67226,1,0
96,112,67376,5,4
128,232,67526,1,0
240,296,67676,1,8
368,304,67826,1,8
448,280,67976,6,0,B|432:216|432:216|464:136,1,127.5,4|0
472,120,68276,2,0,B|432:144|432:144|384:144,1,85,8|0
312,120,68576,2,0,B|264:104,3,42.5
264,128,68876,1,8
256,144,68951,1,0
248,160,69026,1,0
240,176,69101,1,0
232,192,69176,6,0,B|176:216|88:200,1,127.5,4|0
64,192,69476,1,8
24,112,69626,1,0
56,280,69776,2,0,B|48:320|48:320|16:360,1,85
144,320,70076,2,0,B|152:280|152:280|184:240,1,85,8|8
264,224,70376,5,0
320,360,70526,1,0
248,312,70676,1,8
400,320,70826,1,0
432,184,70976,2,0,B|400:152|400:96,1,85
408,88,71201,1,0
416,72,71276,2,0,B|360:72|312:120,1,85,8|8
204,214,71576,6,0,B|160:88,1,127.5,4|0
144,56,71876,2,0,B|56:160,1,127.5,8|0
40,184,72176,2,0,B|176:208,1,127.5
204,214,72476,2,0,B|160:88,1,127.5,8|0
308,170,72776,6,0,B|352:296,1,127.5
360,328,73076,1,8
360,328,73226,1,0
272,336,73376,2,0,B|176:344,1,85,0|8
200,216,73676,2,0,B|104:224,1,85,8|0
128,96,73976,6,0,B|32:104,1,85,4|0
384,288,74276,2,0,B|480:280,1,85,8|0
160,112,74576,2,0,B|64:120,1,85,0|0
352,272,74876,2,0,B|448:264,1,85,8|8
264,264,75176,5,4
264,264,75476,1,8
176,256,75626,1,0
88,248,75776,1,0
168,232,75926,1,0
248,216,76076,1,8
328,200,76226,1,8
408,184,76376,6,0,B|446:109|376:48,1,127.5,4|0
353,51,76676,2,0,B|276:52|260:129,1,127.5,8|0
265,166,76976,2,0,B|306:221|386:205,1,127.5,0|0
408,184,77276,2,0,B|446:109|376:48,1,127.5,8|0
272,24,77576,5,4
192,56,77726,1,0
112,32,77876,1,8
48,88,78026,1,0
48,88,78176,2,0,B|96:168,1,85,0|0
72,248,78476,2,0,B|168:200|232:280,1,170,8|4
272,56,88376,5,4
272,56,88676,2,0,B|312:80|312:80|360:88,1,85
464,216,88976,2,0,B|424:192|424:192|376:184,1,85
304,184,89276,1,0
224,224,89426,1,0
176,296,89576,6,0,B|120:336|32:320,1,127.5
16,312,89876,1,0
64,192,90026,1,0
24,72,90176,1,0
304,184,90476,2,0,B|200:168,1,85
392,200,90776,6,0,B|416:264|376:328,1,127.5
360,360,91076,1,0
360,360,91226,1,0
272,368,91376,2,0,B|104:344,1,170
103,343,91826,1,0
32,240,91976,6,0,B|200:264,1,170
284,276,92426,1,0
264,192,92576,1,0
200,136,92726,1,0
112,120,92876,2,0,B|24:112,1,85
280,104,93176,5,0
368,120,93326,1,2
384,136,93401,1,0
400,152,93476,2,0,B|488:176,1,85,0|2
336,216,93776,1,2
256,184,93926,1,0
176,216,94076,1,2
176,216,94151,1,0
176,216,94226,1,0
392,280,94376,5,2
256,184,94526,1,0
264,272,94676,2,0,B|256:168,1,85,2|0
248,104,94976,5,2
168,72,95126,1,0
264,104,95276,5,0
344,72,95426,1,0
256,72,95576,6,0,B|80:72,1,170,0|2
16,120,96026,1,0
256,312,96176,2,0,B|432:312,1,170,2|2
496,264,96626,1,2
448,192,96776,6,0,B|408:176|408:176|360:184,1,85,2|0
280,208,97076,1,2
280,208,97376,2,0,B|248:232|248:232|176:240,1,85,2|0
176,152,97676,2,0,B|104:88|16:144,1,170,2|4
216,64,98276,5,0
304,56,98426,1,0
392,48,98576,1,0
480,40,98726,1,0
392,48,98876,2,0,B|408:240,1,170
216,64,99476,5,0
256,136,99626,1,0
224,216,99776,1,0
224,216,100076,1,0
248,296,100226,1,0
200,368,100376,6,0,B|152:304|176:208,1,127.5
128,240,100676,2,0,B|176:232|216:184,1,85
296,120,100976,2,0,B|328:176|312:272,1,127.5
360,248,101276,2,0,B|312:264|280:304,1,85
296,120,101576,6,0,B|120:96,1,170
56,144,102026,1,0
72,224,102176,1,0
176,336,102326,1,0
152,256,102476,1,0
88,304,102626,1,0
136,176,102776,5,0
136,176,103076,2,0,B|200:112|304:136,1,170,2|2
472,320,103676,2,0,B|432:344|368:336,1,85,2|0
304,336,103976,5,2
224,296,104126,1,0
192,216,104276,1,2
200,128,104426,2,0,B|304:96,1,85,2|0
168,48,104726,2,0,B|64:80,1,85,2|0
86,72,105026,1,2
112,152,105176,6,0,B|120:200|96:256,1,85,2|0
96,256,105401,1,0
88,272,105476,2,0,B|72:312|72:312|80:360,1,85,2|0
160,328,105776,5,2
240,312,105926,1,0
320,296,106076,1,0
400,312,106226,5,2
320,280,106376,1,0
240,248,106526,1,0
160,264,106676,5,2
240,232,106826,1,0
320,200,106976,1,2
256,40,107276,5,0
256,64,107426,1,0
256,88,107576,1,4
256,192,107651,12,0,108776
112,112,108926,6,0,B|116:160|164:188,1,85
240,196,109226,1,0
408,180,109376,2,0,B|432:220|408:268,1,85
328,236,109676,2,0,B|312:284|256:308,1,85
320,132,109976,1,4
256,192,110051,12,0,111176
416,48,111326,6,0,B|520:64,2,85
392,128,111776,1,0
328,200,111926,1,0
232,240,112076,1,0
120,248,112226,1,0
232,240,112376,6,0,B|304:264|344:336,1,127.5,4|0
336,360,112676,2,0,B|360:320|400:288,1,85
464,248,112976,2,0,B|440:152|328:128,1,170
349,133,113426,1,0
256,48,113576,6,0,B|88:72,1,170
32,184,114026,1,0
32,184,114176,2,0,B|192:160,1,127.5
200,160,114476,1,0
256,224,114626,1,0
216,304,114776,6,0,B|168:216|216:128,1,170,4|0
280,88,115226,2,0,B|320:72|320:72|376:80,1,85
448,176,115526,2,0,B|408:192|408:192|352:184,1,85
280,176,115826,1,0
200,208,115976,6,0,B|232:256,2,42.5
120,240,116276,2,0,B|72:256|32:232,1,85,0|2
128,152,116576,1,0
200,208,116726,1,2
216,216,116801,1,0
232,224,116876,1,2
248,232,116951,1,0
264,240,117026,1,0
280,248,117101,1,0
296,256,117176,6,0,B|384:288|464:240,1,170,4|8
504,168,117626,1,0
448,104,117776,1,0
368,72,117926,1,2
280,80,118076,1,8
208,128,118226,1,2
200,128,118526,5,0
280,96,118676,1,8
368,96,118826,1,2
440,136,118976,2,0,B|480:160|488:208,1,85,0|2
416,256,119276,2,0,B|368:248|328:264,1,85,8|2
288,192,119576,5,4
224,248,119726,1,2
224,248,119801,1,0
224,248,119876,1,8
296,288,120026,2,0,B|376:304|376:304|448:352,1,170,0|2
504,288,120476,2,8,B|432:240,2,85,8|2|0
368,192,120926,5,0
344,112,121076,1,8
376,32,121226,1,2
360,112,121376,5,0
272,200,121526,1,2
144,224,121676,1,8
24,176,121826,1,2
176,104,121976,6,0,B|240:72|320:72,1,127.5,4|0
344,80,122276,2,0,B|312:112|304:192,1,85,8|0
408,240,122576,2,0,B|440:200|440:152,1,85,0|2
320,232,122876,1,8
240,272,123026,1,2
200,352,123176,6,0,B|64:328,1,127.5,0|0
64,248,123476,2,0,B|200:272,1,127.5,8|0
184,184,123776,2,0,B|0:152,1,170,0|8
17,154,124226,1,10
256,48,124376,5,0
384,24,124526,1,0
256,192,124826,5,0
128,168,124976,1,0
256,336,125276,5,0
384,312,125426,1,0
336,104,125726,5,0
264,64,125876,2,0,B|200:32|136:72,1,127.5
104,88,126176,1,0
88,168,126326,5,0
80,184,126401,1,0
72,200,126476,2,0,B|88:240|72:280,1,63.75,0|0
56,296,126776,6,0,B|104:344|200:344,1,127.5,4|0
288,296,127076,2,0,B|232:248|136:248,1,127.5,8|0
272,176,127376,2,0,B|320:224|416:224,1,127.5
504,176,127676,2,0,B|448:128|352:128,1,127.5,8|0
312,96,127976,5,0
224,104,128126,1,0
264,32,128276,2,0,B|224:56|222:124,1,85,8|0
136,104,128576,2,0,B|144:152|192:184,1,85
192,192,128801,1,0
200,208,128876,2,0,B|216:248|216:248|200:296,1,85,8|0
128,248,129176,6,0,B|304:272,1,170,4|8
336,352,129626,1,0
336,352,129776,2,0,B|190:332,1,127.5
168,328,130076,2,0,B|216:312|240:272,1,85,8|0
176,216,130376,5,0
232,152,130526,1,0
152,104,130676,1,8
240,56,130826,1,0
136,16,130976,1,0
64,64,131126,1,0
56,80,131201,1,0
48,96,131276,2,0,B|8:176,1,85,8|0
56,296,131576,6,0,B|96:280|120:240,1,85,4|0
224,312,131876,2,0,B|248:264|224:200,1,85,8|0
360,216,132176,2,0,B|336:176|296:152,1,85
376,56,132476,2,0,B|336:40|288:40,1,85,8|8
168,80,132776,6,0,B|72:96,1,85,4|0
344,304,133076,2,0,B|440:288,1,85,8|0
160,72,133376,2,0,B|64:88,1,85
352,312,133676,2,0,B|448:296,1,85,8|8
344,208,133976,5,4
264,224,134126,1,0
200,280,134276,1,8
184,360,134426,1,0
176,272,134576,5,4
224,152,134726,1,0
336,88,134876,1,8
464,72,135026,1,8
336,64,135176,6,0,B|264:72|216:24,1,127.5,4|0
218,26,135476,2,0,B|144:80,1,85,8|0
80,120,135776,1,0
136,184,135926,1,0
156,192,136001,1,0
176,200,136076,2,0,B|144:232|88:232,1,85,8|0
96,360,136376,6,0,B|144:304|216:336,1,127.5,4|0
248,352,136676,1,8
280,272,136826,1,0
240,192,136976,2,0,B|136:184,1,85
208,72,137276,2,0,B|312:80,1,85,8|8
320,160,137576,5,0
320,160,137726,1,0
432,288,137876,1,8
432,288,138026,1,0
264,336,138176,1,0
152,208,138326,1,0
152,208,138401,1,0
152,208,138476,2,0,B|184:176|248:168,1,85,8|8
392,200,138776,6,0,B|327:178|303:114,1,127.5,4|0
264,96,139076,2,0,B|303:52|382:60,1,127.5,8|0
416,32,139376,2,0,B|438:94|399:154,1,127.5
392,200,139676,2,0,B|327:178|303:114,1,127.5,8|0
120,184,139976,6,0,B|184:205|208:269,1,127.5,0|0
232,304,140276,1,8
312,272,140426,1,0
360,344,140576,2,0,B|400:360|400:360|464:344,1,85,0|8
496,232,140876,2,0,B|456:216|456:216|392:232,1,85,8|0
296,176,141176,5,4
230,95,141326,1,0
288,12,141476,1,8
387,35,141626,1,0
394,137,141776,1,0
318,94,141926,5,0
318,94,142076,1,8
318,94,142226,1,8
216,208,142376,5,4
282,289,142526,1,0
224,372,142676,1,8
125,349,142826,1,0
118,247,142976,1,0
194,290,143126,5,0
194,290,143276,1,8
194,290,143426,1,8
168,208,143576,6,0,B|120:128|208:64,1,127.5,4|0
216,72,143876,2,0,B|296:72|320:152,1,127.5,8|0
312,184,144176,2,0,B|272:248|192:232,1,127.5,0|0
168,208,144476,2,0,B|120:128|208:64,1,127.5,8|0
280,16,144776,5,4
360,48,144926,1,0
440,24,145076,1,8
504,80,145226,1,0
504,80,145376,2,0,B|472:112|472:112|472:112|456:160,1,85,0|0
464,232,145676,2,0,B|368:184|304:264,1,170,8|4
48,152,146276,6,0,B|144:200|208:120,1,170,8|0
288,32,146726,2,0,B|344:48,3,42.5,0|0|8|0
368,56,147026,2,0,B|424:144|360:224,1,170
352,232,147401,1,0
336,248,147476,2,0,B|328:296|328:296|344:336,1,85,8|0
168,328,147926,1,0
168,328,148076,1,8
224,264,148226,1,0
224,264,148301,1,0
224,264,148376,6,0,B|208:216|208:168,1,85
312,112,148676,2,0,B|328:152|328:216,1,85,8|0
312,280,148976,1,0
400,296,149126,1,0
200,104,149276,1,8
112,88,149426,1,0
24,72,149576,6,0,B|32:120|0:160,1,85,8|0
5,152,150026,1,8
216,312,150326,1,0
288,272,150476,1,8
376,280,150626,6,0,B|392:236|376:184,1,85,0|0
372,176,151001,1,0
360,156,151076,2,0,B|352:140|312:132,3,42.5,8|0|0|0
304,140,151376,2,0,B|272:156|248:132,3,42.5,0|0|0|0
244,136,151676,1,8
224,136,151751,1,0
204,128,151826,1,0
184,132,151901,1,0
164,128,151976,5,8
96,184,152126,1,8
96,184,152426,2,0,B|168:248|272:232,1,170
253,234,152876,1,8
96,184,153026,6,0,B|104:312|232:336,1,212.5,0|0
264,344,153476,2,0,B|313:318|386:333|412:374,1,127.5,8|0
424,368,153776,2,0,B|399:321|420:255|462:244,1,127.5,0|0
488,240,154076,2,0,B|408:248|376:184,1,127.5,8|0
372,148,154376,5,0
424,80,154526,1,0
407,66,154601,1,0
387,56,154676,2,0,B|324:42,3,42.5,8|0|0|0
326,57,154976,2,0,B|282:83,3,42.5,0|0|0|0
286,99,155276,2,0,B|277:154,4,42.5,8|0|0|0|12
256,288,165176,6,0,B|88:272,1,170,4|2
200,144,166376,2,0,B|368:160,2,170,0|2|4
64,48,168176,1,2
32,216,168776,1,0
120,208,169076,1,0
208,200,169376,1,0
296,192,169676,1,0
208,200,169976,6,0,B|208:104|296:64,1,170,4|2
384,208,171176,2,0,B|384:304|296:344,2,170,0|2|4
464,56,172976,1,2
304,120,173576,1,0
224,96,173876,1,0
144,72,174176,1,0
64,48,174476,1,0
144,72,174776,6,0,B|136:128|96:168,1,95.624997150153,4|0
80,192,175076,2,0,B|120:208|152:232,1,63.749998100102,2|0
144,344,175376,2,0,B|104:328|72:304,1,63.749998100102
160,352,175676,1,2
232,312,175826,1,0
304,360,175976,6,0,B|312:312|336:272,1,63.749998100102
432,240,176276,2,0,B|424:288|400:328,1,63.749998100102,2|0
322,299,176576,2,0,B|272:288|224:248,1,95.624997150153
208,288,176876,2,0,B|224:248|208:208,1,63.749998100102,2|0
160,160,177176,6,0,B|216:128|296:136,1,127.499996200204,4|2
352,176,177626,1,0
416,120,177776,2,0,B|488:88,1,63.749998100102
360,48,178076,2,0,B|288:80,1,63.749998100102,2|0
224,112,178376,5,0
264,184,178526,1,0
216,248,178676,1,2
240,328,178826,1,0
160,312,178976,2,0,B|96:304|48:352,1,95.624997150153
32,344,179276,2,0,B|72:352|104:384,1,63.749998100102,2|0
240,328,179576,6,0,B|320:304|384:368,1,127.499996200204,4|2
160,312,180026,1,0
216,248,180176,2,0,B|144:208,1,63.749998100102
296,136,180476,2,0,B|368:176,1,63.749998100102,2|0
208,120,180776,5,0
208,120,181076,1,2
208,120,181376,1,0
184,124,181526,1,0
156,140,181676,1,2
140,176,181826,1,0
148,220,181976,1,2
256,192,182051,12,0,183026
324,156,183176,6,0,B|336:208|308:252,1,95.624997150153
188,252,183476,2,0,B|172:204|196:156,1,95.624997150153
308,132,183776,2,0,B|342:203|292:264,1,127.499996200204
160,320,184376,6,0,B|160:240|104:176,1,127.5,4|0
200,104,184676,2,0,B|200:184|256:248,1,127.5,8|0
352,272,184976,2,0,B|352:192|296:128,1,127.5
392,56,185276,2,0,B|392:136|448:200,1,127.5,8|0
488,240,185576,5,0
432,304,185726,1,0
352,272,185876,2,0,B|304:256|264:272,1,85,8|0
192,304,186176,2,0,B|136:256|152:176,1,127.5
149,189,186476,2,0,B|224:144,1,85,8|0
336,16,186776,6,0,B|408:64|520:48,1,170,4|8
344,120,187226,1,0
344,120,187376,2,0,B|288:80|208:80,1,127.5
224,120,187676,2,0,B|216:80|192:40,1,85,8|0
112,32,187976,5,0
48,88,188126,1,0
24,176,188276,1,8
48,272,188426,1,0
144,328,188576,1,0
200,224,188726,1,0
200,224,188801,1,0
200,224,188876,2,0,B|248:208|304:224,1,85,8|0
376,240,189176,6,0,B|424:248|464:280,1,85,4|0
296,128,189476,2,0,B|336:104|392:104,1,85,8|0
168,96,189776,2,0,B|176:48|208:16,1,85
40,152,190076,2,0,B|24:104|40:48,1,85,8|8
192,264,190376,6,0,B|104:248,1,85,4|0
320,120,190676,2,0,B|408:136,1,85,8|0
176,280,190976,2,0,B|88:264,1,85
336,104,191276,2,0,B|424:120,1,85,8|8
384,200,191576,5,4
296,208,191726,1,0
216,184,191876,1,8
160,120,192026,1,0
136,40,192176,5,4
224,136,192326,1,0
208,264,192476,1,8
112,352,192626,1,8
16,208,192776,5,12
16,208,193076,2,0,B|64:152|152:168,1,127.5,8|0
176,176,193376,1,8
248,224,193526,1,8
248,224,193601,1,0
248,224,193676,2,0,B|296:248|352:232,1,85,8|0
432,312,193976,6,0,B|352:280|296:344,1,127.5,4|0
288,360,194276,1,8
288,360,194426,1,0
176,304,194576,2,0,B|194:256|242:227,1,85
227,238,194876,2,0,B|267:209|329:207,1,85,8|8
328,80,195176,5,0
448,40,195326,1,0
320,104,195476,1,8
464,56,195626,1,0
312,128,195776,2,0,B|264:176|176:160,1,127.5,0|0
152,160,196076,2,0,B|192:184|208:240,1,85,8|8
80,344,196376,6,0,B|32:224,1,127.5,4|0
80,112,196676,2,0,B|128:232,1,127.5,8|0
240,288,196976,2,0,B|192:168,1,127.5,0|0
240,56,197276,2,0,B|288:176,1,127.5,8|0
352,232,197576,6,0,B|400:168|496:216,1,127.5
504,224,197876,1,8
504,224,198026,1,0
384,104,198176,2,0,B|288:136,1,85,0|8
144,64,198476,2,0,B|240:32,1,85,8|0
224,128,198776,5,4
224,128,199076,1,8
224,128,199226,1,0
136,120,199376,5,0
192,48,199526,1,0
296,32,199676,1,8
392,80,199826,1,8
288,256,199976,5,4
288,256,200276,1,8
288,256,200426,1,0
376,264,200576,5,0
320,336,200726,1,0
216,352,200876,1,8
120,304,201026,1,8
72,200,201176,6,0,B|53:108|157:77,1,127.5,4|0
164,87,201476,2,0,B|240:113|237:196,1,127.5,8|0
218,224,201776,2,0,B|159:271|89:230,1,127.5,0|0
72,200,202076,2,0,B|53:108|157:77,1,127.5,8|0
256,16,202376,5,4
368,72,202526,1,0
416,192,202676,1,8
376,312,202826,1,0
272,232,202976,1,0
272,232,203276,2,8,B|176:200|104:264,1,170,8|4
