osu file format v9

[General]
AudioFilename: kagerou days.mp3
AudioLeadIn: 0
PreviewTime: 59276
Countdown: 0
SampleSet: Normal
StackLeniency: 0.7
Mode: 1
LetterboxInBreaks: 1

[Editor]
Bookmarks: 11557,40358,59552,78750,88349,126745,145943,155542,165141,184339,203537,231735
DistanceSpacing: 1.3
BeatDivisor: 4
GridSize: 8

[Metadata]
Title:Kagerou Days
Artist:Hatsune Miku
Creator:m i z u k i
Version:Taiko Oni
Source:Jin
Tags:vocaloid shidu yuzuki climbb65588 vxjokerxv mizuki

[Difficulty]
HPDrainRate:5
CircleSize:5
OverallDifficulty:5
ApproachRate:5
SliderMultiplier:1.4
SliderTickRate:1

[Events]
//Background and Video events
0,0,"taiko.jpg"
//Break Periods
//Storyboard Layer 0 (Background)
Sprite,Background,Centre,"SB\namebox.png",320,240 S,0,0,,0.569537 M,0,0,234971,29,493
//Storyboard Layer 1 (Fail)
//Storyboard Layer 2 (Pass)
//Storyboard Layer 3 (Foreground)
Sprite,Foreground,Centre,"SB\climbb.png",320,240 S,0,0,,0.50121 M,0,0,126468,58,465 F,0,126243,126468,1,0
Sprite,Foreground,Centre,"SB\joker.png",320,240 M,0,126468,,61,464 S,0,126468,,0.5148755 F,0,126468,126693,0,1 F,0,126693,231735,1 F,0,231735,232068,1,0
//Storyboard Sound Samples
//Background Colour Transformations
3,100,163,162,255

[TimingPoints]
776,300,4,1,0,50,1,0
11576,-100,4,1,0,80,0,0
59576,-100,4,1,0,80,0,1
78776,-100,4,1,0,80,0,0
126776,-100,4,1,0,80,0,1
145976,-100,4,1,0,80,0,0
164351,-133.333333333333,4,2,0,70,0,0
184376,-100,4,1,0,80,0,1
203576,-100,4,1,0,70,0,0

[Colours]
Combo1 : 235,235,235
Combo2 : 255,0,0
Combo3 : 13,152,227

[HitObjects]
256,192,1976,1,8
256,192,2126,1,8
256,192,2276,1,0
256,192,2426,1,8
224,224,2576,1,8
224,224,2726,1,8
224,224,2876,1,0
224,256,3026,1,8
224,256,3176,1,8
224,256,3476,1,0
224,256,3626,1,0
224,256,3776,1,0
224,256,3926,1,0
224,256,4076,1,8
224,256,4226,1,8
160,288,4376,1,8
160,288,4526,1,8
160,288,4676,1,0
160,288,4826,1,8
160,288,4976,1,8
160,288,5126,1,8
192,224,5276,1,0
192,224,5426,1,8
192,224,5576,1,8
192,224,5876,1,0
192,224,6026,1,0
192,224,6176,1,0
192,224,6326,1,0
192,224,6476,1,0
192,224,6776,1,8
192,224,6926,1,8
192,224,7076,1,0
192,224,7226,1,8
192,224,7376,1,8
192,224,7526,1,8
192,224,7676,1,0
192,224,7826,1,8
192,224,7976,1,8
192,224,8276,1,0
192,224,8426,1,0
192,224,8576,1,0
192,224,8726,1,0
192,224,8876,1,8
192,224,9176,1,8
192,224,9326,1,8
192,224,9476,1,0
192,224,9626,1,8
192,224,9776,1,8
192,224,9926,1,8
192,224,10076,1,0
192,224,10226,1,8
192,224,10376,1,8
192,224,10676,1,8
192,224,10976,1,8
96,128,11276,1,8
192,192,11576,1,4
192,192,11726,1,0
192,192,11876,1,8
192,192,12026,1,0
224,160,12101,1,0
192,192,12176,1,0
192,192,12326,1,0
224,160,12476,1,8
224,160,12626,1,0
224,160,12776,1,0
224,160,12851,1,8
224,160,12926,1,0
224,160,13076,1,8
224,160,13151,1,8
224,160,13226,1,0
224,160,13376,1,0
224,160,13526,1,0
224,160,13676,1,8
160,160,13826,1,0
160,160,13976,1,0
160,160,14276,1,8
160,160,14426,1,0
160,160,14501,1,0
160,160,14576,1,0
160,160,14726,1,0
160,160,14876,1,8
160,160,15026,1,0
160,160,15176,1,0
160,160,15251,1,8
160,160,15326,1,0
160,160,15401,1,0
160,160,15476,1,8
160,160,15626,1,0
160,160,15701,1,0
160,160,15776,1,8
160,160,15851,1,8
160,160,15926,1,0
160,160,16076,1,8
160,192,16226,1,0
128,192,16376,1,4
160,160,16676,1,8
160,160,16826,1,0
160,160,16901,1,8
160,160,16976,1,0
160,160,17126,1,0
160,160,17276,1,8
160,160,17351,1,8
160,160,17426,1,8
160,160,17576,1,0
160,160,17726,1,0
160,160,17876,1,8
160,160,18026,1,0
160,160,18176,1,0
192,192,18251,1,0
192,192,18401,1,0
192,192,18476,1,8
192,192,18626,1,8
192,192,18776,1,4
192,160,19076,1,8
192,160,19226,1,0
192,160,19301,1,8
192,160,19376,1,0
192,160,19526,1,0
192,160,19676,1,8
192,160,19826,1,0
192,160,19901,1,0
192,160,19976,1,0
192,160,20126,1,0
128,160,20276,1,8
128,160,20426,1,0
128,160,20576,1,0
160,128,20876,1,8
128,96,21176,1,0
128,96,21476,1,8
128,96,21626,1,8
192,160,21701,1,8
128,96,21776,1,0
128,96,21926,1,0
128,96,22076,1,8
128,96,22376,1,0
128,96,22676,1,8
128,96,22826,1,8
192,160,23126,1,0
160,128,23276,1,8
192,160,23426,1,0
160,128,23501,1,0
160,128,23576,1,0
192,128,23726,1,0
192,128,23876,1,8
192,128,24026,1,8
192,128,24326,1,0
192,128,24476,1,8
160,160,24626,1,0
160,160,24701,1,0
128,160,24776,1,0
160,128,24926,1,0
128,160,25076,1,8
128,160,25226,1,8
160,96,25526,1,0
160,96,25676,1,8
128,160,25751,1,8
128,160,25826,1,0
160,96,25976,1,0
160,96,26276,1,8
160,96,26426,1,8
160,96,26576,1,0
160,96,26726,1,0
160,96,26876,1,8
160,96,27026,1,0
160,96,27101,1,8
160,96,27176,1,0
128,96,27326,1,0
160,128,27476,1,8
128,96,27626,1,8
128,128,27776,1,0
128,128,27926,1,0
128,128,28001,1,0
128,128,28076,1,8
96,96,28226,1,0
128,96,28376,1,0
128,96,28676,1,8
128,96,28826,1,8
128,96,29126,1,0
128,96,29276,1,8
128,96,29351,1,8
128,96,29426,1,0
128,96,29576,1,0
128,96,29876,1,8
128,96,30026,1,8
128,96,30176,1,0
128,128,30251,1,0
128,128,30326,1,0
128,128,30476,1,8
128,128,30776,1,4
160,192,31076,1,8
160,160,31226,1,8
64,192,31376,1,0
64,192,31451,1,0
160,192,31526,1,0
160,192,31676,1,8
160,160,31976,1,0
160,160,32276,1,8
160,160,32426,1,8
160,128,32726,1,0
160,160,32876,1,8
160,160,33026,1,8
160,160,33101,1,8
160,160,33176,1,0
160,160,33476,1,8
160,128,33626,1,8
160,128,33776,1,0
160,128,33851,1,0
160,128,33926,1,0
160,128,34076,1,8
192,288,34376,1,0
128,192,34676,1,8
128,192,34826,1,8
96,192,35126,1,0
96,192,35276,1,8
224,192,35426,1,8
224,192,35501,1,8
192,256,35576,1,0
160,160,35726,1,0
160,160,35876,1,8
192,224,36026,1,8
192,224,36326,1,0
160,192,36476,1,8
192,256,36551,1,8
160,160,36626,1,0
160,160,36776,1,0
160,128,37076,1,8
160,128,37226,1,8
160,128,37526,1,0
160,128,37601,1,0
160,128,37676,1,8
160,128,37826,1,0
160,128,37976,1,0
160,128,38276,1,8
160,128,38426,1,8
192,288,38501,1,8
160,128,38576,1,0
160,128,38726,1,0
192,288,38876,1,8
192,288,39026,1,0
160,192,39176,1,0
160,192,39326,1,0
160,192,39401,1,8
160,192,39476,1,8
160,192,39626,1,0
160,192,39776,1,0
160,224,39926,1,0
160,224,40001,1,8
160,224,40076,1,8
160,224,40226,1,8
160,224,40376,1,4
128,224,40676,1,0
128,192,40976,1,0
128,192,41126,1,8
128,192,41276,1,0
128,192,41426,1,8
128,192,41576,1,0
128,192,41726,1,8
128,192,41876,1,0
64,160,42026,1,8
128,192,42176,1,0
192,192,42251,1,8
128,192,42326,1,8
160,192,42476,1,0
192,224,42626,1,8
160,192,42776,1,0
160,192,43076,1,0
160,192,43226,1,8
160,192,43376,1,0
160,192,43526,1,8
160,192,43676,1,0
160,192,43826,1,8
160,192,43976,1,0
160,192,44126,1,8
160,192,44276,1,0
160,192,44426,1,8
160,192,44576,1,0
160,192,44726,1,8
192,192,44801,1,8
192,192,44876,1,0
192,192,44951,1,8
192,192,45026,1,8
192,160,45176,1,4
128,224,45476,1,0
224,192,45626,1,8
128,224,45776,1,0
128,224,45926,1,8
128,224,46076,1,0
128,192,46226,1,8
128,192,46376,1,0
128,192,46526,1,8
128,192,46676,1,0
128,192,46826,1,8
224,128,46976,1,0
288,128,47201,1,0
288,128,47276,1,0
192,192,47426,1,8
224,160,47576,1,4
192,192,47876,1,0
160,192,48176,1,0
160,192,48326,1,8
160,192,48476,1,0
160,192,48626,1,8
160,192,48776,1,0
160,192,48926,1,8
160,192,49076,1,0
160,192,49226,1,8
160,192,49376,1,0
160,192,49526,1,8
160,128,49601,1,0
160,128,49676,1,0
160,128,49751,1,0
160,128,49826,1,0
160,128,49976,1,4
288,160,50276,1,0
288,160,50426,1,8
288,160,50501,1,8
288,160,50576,1,8
320,320,50651,1,8
256,128,50726,1,8
256,128,50876,1,0
192,128,51026,1,8
192,128,51176,1,0
192,128,51326,1,8
192,128,51401,1,8
192,128,51476,1,8
192,128,51551,1,8
192,128,51626,1,0
288,192,51776,1,0
288,192,51851,1,8
288,192,51926,1,8
288,128,52076,1,0
192,128,52151,1,8
288,128,52226,1,8
288,128,52376,1,0
288,128,52526,1,8
320,192,52676,1,0
288,128,52826,1,8
320,192,52901,1,8
288,128,52976,1,8
288,224,53051,1,8
160,128,53126,1,8
288,128,53276,1,0
288,128,53426,1,8
288,128,53576,1,0
288,128,53726,1,8
320,192,53801,1,8
320,192,53876,1,0
320,192,53951,1,8
320,192,54026,1,8
128,160,54176,1,0
128,160,54251,1,8
128,160,54326,1,8
128,160,54476,1,0
128,160,54551,1,8
128,160,54626,1,8
288,160,54776,1,0
160,128,54926,1,8
160,128,55076,1,0
160,128,55226,1,8
160,128,55301,1,8
160,128,55376,1,8
192,192,55451,1,8
192,192,55526,1,8
192,192,55676,1,0
352,256,55826,1,8
352,256,55976,1,0
256,192,56126,1,8
192,256,56276,1,0
192,256,56351,1,8
192,256,56426,1,8
192,256,56501,1,8
192,256,56576,1,0
192,256,56726,1,8
192,256,56801,1,8
192,256,56876,1,0
192,256,57026,1,8
192,256,57176,1,12
192,128,57326,1,12
256,160,57626,1,12
256,160,57776,1,12
256,160,58076,1,12
256,160,58226,1,12
256,160,58526,1,12
256,160,58676,1,0
256,192,58751,1,0
256,192,58826,1,0
256,192,58901,1,0
256,192,58976,1,8
224,160,59576,1,12
224,160,59726,1,0
224,160,59801,1,0
224,160,59876,1,8
224,160,60026,1,0
224,160,60101,1,0
224,160,60176,1,8
224,160,60326,1,0
224,160,60401,1,0
224,160,60476,1,8
224,160,60626,1,0
224,160,60776,1,8
224,160,60851,1,8
224,160,60926,1,0
224,160,61001,1,0
224,160,61076,1,8
224,160,61226,1,0
224,160,61376,1,8
224,160,61451,1,8
224,160,61526,1,0
224,160,61601,1,0
224,160,61676,1,8
224,160,61826,1,0
224,160,61976,1,8
192,160,62051,1,0
192,160,62201,1,0
192,160,62276,1,8
192,160,62426,1,0
192,160,62576,1,8
192,128,62651,1,8
192,128,62726,1,0
192,160,62801,1,0
192,160,62876,1,8
192,160,63026,1,0
192,160,63176,1,8
160,128,63326,1,0
160,128,63401,1,8
160,128,63476,1,0
160,128,63626,1,0
160,128,63701,1,0
160,128,63776,1,8
160,160,63926,1,0
128,64,64076,1,8
160,96,64376,1,12
160,96,64526,1,0
160,96,64676,1,8
160,96,64751,1,0
160,96,64826,1,0
160,96,64901,1,0
160,96,64976,1,8
160,96,65126,1,0
160,96,65276,1,8
160,96,65426,1,0
160,96,65501,1,0
160,96,65576,1,8
160,96,65726,1,0
160,96,65801,1,8
160,96,65876,1,0
160,96,66026,1,8
160,96,66176,1,8
160,96,66251,1,8
160,96,66326,1,0
160,96,66401,1,0
160,96,66476,1,8
160,96,66626,1,0
160,96,66776,1,8
160,96,66926,1,0
160,96,67001,1,0
160,96,67076,1,8
160,96,67151,1,0
160,96,67301,1,0
160,96,67376,1,8
160,96,67526,1,0
160,96,67676,1,8
160,128,67751,1,8
160,96,67826,1,8
160,96,67976,1,8
160,96,68051,1,0
160,96,68126,1,0
160,96,68201,1,0
160,128,68276,1,8
160,96,68351,1,8
160,96,68426,1,0
160,96,68501,1,0
160,128,68576,1,8
160,128,68726,1,0
128,96,68801,1,0
128,96,68876,1,0
128,96,68951,1,0
128,96,69026,1,0
128,96,69176,1,12
128,96,69326,1,0
128,96,69401,1,0
128,96,69476,1,8
128,96,69626,1,0
128,96,69701,1,0
128,192,69776,1,8
128,192,69926,1,0
128,192,70001,1,0
128,192,70076,1,8
128,192,70226,1,0
128,192,70376,1,8
128,192,70451,1,8
128,192,70526,1,0
128,192,70601,1,0
128,192,70676,1,8
256,128,70751,1,8
128,192,70826,1,0
128,192,70901,1,0
128,192,70976,1,8
128,192,71126,1,0
128,128,71201,1,0
128,192,71276,1,8
128,192,71426,1,0
128,192,71576,1,8
128,192,71651,1,8
128,192,71726,1,0
128,192,71876,1,8
128,192,71951,1,8
128,192,72026,1,0
128,192,72176,1,8
128,192,72326,1,0
128,192,72401,1,0
128,192,72476,1,8
128,192,72626,1,0
128,192,72776,1,8
128,192,72926,1,0
128,192,73001,1,0
128,192,73076,1,8
128,192,73151,1,0
128,192,73226,1,8
128,192,73376,1,8
224,96,73526,1,0
32,160,73676,1,8
160,128,73751,1,0
128,160,73826,1,0
32,160,73976,1,12
96,128,74126,1,0
96,128,74201,1,0
96,128,74276,1,8
96,128,74426,1,0
96,128,74501,1,0
96,128,74576,1,8
96,128,74651,1,8
96,128,74726,1,0
96,128,74876,1,8
96,128,75026,1,0
96,128,75176,1,8
96,128,75251,1,8
96,128,75326,1,0
96,128,75401,1,0
96,128,75476,1,8
96,128,75626,1,0
96,128,75701,1,0
96,128,75776,1,8
96,128,75851,1,8
96,128,75926,1,0
96,128,76076,1,8
96,128,76226,1,0
192,96,76376,1,8
192,96,76451,1,0
192,96,76526,1,0
192,128,76601,1,0
192,96,76676,1,8
192,96,76751,1,0
192,96,76826,1,0
160,96,76901,1,0
160,96,76976,1,8
160,64,77126,1,0
160,96,77201,1,0
160,64,77276,1,8
160,64,77426,1,0
192,128,77501,1,0
160,64,77576,1,8
96,32,77726,1,0
160,96,77876,1,8
160,96,77951,1,8
160,96,78026,1,0
192,128,78101,1,0
160,64,78176,1,8
160,64,78251,1,8
160,64,78326,1,0
160,64,78476,1,4
160,64,78776,1,4
96,160,79076,1,8
96,160,79226,1,8
96,160,79376,1,0
96,160,79526,1,0
96,160,79601,1,0
96,128,79676,1,8
128,96,79751,1,0
128,96,79826,1,0
128,96,79976,1,0
128,96,80126,1,0
128,96,80276,1,8
128,96,80426,1,8
128,96,80576,1,0
128,96,80876,1,8
128,96,81176,1,0
128,96,81326,1,0
128,96,81401,1,0
128,96,81476,1,8
128,96,81626,1,8
128,96,81776,1,0
128,96,81926,1,0
128,96,82001,1,0
128,96,82076,1,8
128,96,82226,1,0
128,96,82376,1,0
128,96,82526,1,0
128,96,82676,1,8
128,96,82826,1,8
128,96,82976,1,0
128,96,83276,1,8
128,96,83426,1,8
128,96,83501,1,0
128,96,83576,1,0
128,96,83876,1,8
128,96,84026,1,8
128,96,84176,1,0
128,96,84326,1,0
128,96,84401,1,0
128,96,84476,1,8
128,96,84626,1,0
128,96,84776,1,0
128,96,84926,1,0
128,96,85076,1,8
128,96,85226,1,8
128,128,85301,1,8
96,96,85376,1,0
96,96,85526,1,0
96,96,85676,1,8
96,96,85826,1,0
128,64,85976,1,0
128,64,86126,1,0
128,64,86276,1,8
128,64,86426,1,8
128,64,86576,1,0
128,64,86726,1,0
128,64,86801,1,0
128,64,86876,1,8
128,64,86951,1,0
128,64,87026,1,0
128,64,87176,1,0
128,64,87326,1,0
128,64,87476,1,8
128,64,87626,1,8
128,64,87776,1,0
224,192,87926,1,0
128,64,88076,1,8
160,192,88376,1,0
192,160,88676,1,8
192,160,88826,1,8
192,160,88976,1,0
192,160,89126,1,0
192,160,89276,1,8
192,160,89576,1,0
192,160,89726,1,0
192,160,89801,1,0
192,160,89876,1,8
192,160,90026,1,8
192,160,90176,1,0
192,160,90326,1,0
192,160,90401,1,0
192,160,90476,1,8
192,160,90626,1,0
160,160,90776,1,0
128,160,91076,1,8
128,160,91226,1,8
128,128,91376,1,0
128,128,91451,1,0
128,128,91526,1,0
128,128,91676,1,8
160,160,91976,1,0
160,160,92276,1,8
160,160,92426,1,8
160,160,92576,1,0
192,256,92651,1,0
192,256,92726,1,0
192,256,92801,1,0
192,256,92876,1,8
192,256,93026,1,0
192,256,93176,1,0
160,192,93476,1,8
192,96,93626,1,8
192,128,93926,1,0
192,128,94076,1,8
160,192,94151,1,8
160,192,94226,1,0
160,192,94376,1,0
160,160,94676,1,8
160,160,94826,1,8
256,160,94976,1,0
256,160,95126,1,0
256,160,95201,1,0
256,160,95276,1,8
160,192,95426,1,0
96,160,95576,1,0
160,160,95876,1,8
160,160,96026,1,8
192,192,96326,1,0
192,192,96476,1,8
192,192,96626,1,0
192,192,96701,1,0
192,192,96776,1,0
160,96,96926,1,0
160,96,97076,1,8
160,128,97226,1,8
160,128,97526,1,0
160,128,97676,1,8
192,128,97751,1,8
192,192,97826,1,0
192,128,97976,1,4
192,128,98276,1,8
192,128,98426,1,8
192,128,98726,1,0
192,128,98876,1,8
96,160,99026,1,0
96,128,99101,1,0
96,128,99176,1,0
96,128,99326,1,0
96,128,99476,1,8
96,128,99626,1,8
96,128,99926,1,0
96,128,100076,1,8
96,160,100151,1,8
96,160,100226,1,0
160,192,100376,1,0
192,128,100676,1,8
192,128,100826,1,8
192,128,101126,1,0
192,128,101201,1,0
192,128,101276,1,8
192,128,101426,1,0
192,128,101576,1,0
192,128,101726,1,0
192,128,101876,1,8
192,128,102026,1,8
192,96,102326,1,0
192,96,102476,1,8
256,192,102626,1,0
256,192,102701,1,0
256,192,102776,1,0
192,160,102926,1,0
256,192,103076,1,8
256,192,103226,1,8
192,160,103376,1,0
192,128,103451,1,8
192,160,103526,1,0
192,128,103676,1,8
192,128,103976,1,0
192,128,104051,1,0
192,128,104126,1,0
192,128,104276,1,8
192,128,104426,1,8
128,128,104726,1,0
128,128,104876,1,8
160,128,104951,1,8
128,128,105026,1,0
160,160,105101,1,0
128,128,105176,1,0
128,128,105326,1,0
128,128,105476,1,8
128,128,105626,1,8
128,96,105776,1,0
128,96,105851,1,0
128,96,105926,1,0
128,128,106001,1,0
128,128,106076,1,8
128,128,106226,1,0
128,128,106376,1,0
128,128,106526,1,0
128,128,106601,1,8
128,128,106676,1,8
160,224,106826,1,0
160,224,106976,1,0
224,160,107051,1,0
224,160,107126,1,0
224,160,107201,1,8
224,160,107276,1,8
224,160,107426,1,0
224,160,107576,1,4
224,160,107876,1,0
224,160,108176,1,0
224,160,108326,1,8
224,160,108476,1,0
224,160,108626,1,8
224,160,108776,1,0
224,160,108926,1,8
224,160,109076,1,0
288,192,109226,1,8
192,128,109376,1,0
192,128,109451,1,8
192,128,109526,1,8
192,128,109676,1,0
192,96,109826,1,8
192,128,109976,1,0
192,96,110276,1,0
192,96,110426,1,8
192,96,110576,1,0
192,96,110726,1,8
192,96,110876,1,0
192,96,111026,1,8
192,96,111176,1,0
192,96,111326,1,8
192,96,111476,1,0
192,96,111626,1,8
192,96,111776,1,0
192,96,111926,1,8
128,128,112001,1,8
128,128,112076,1,0
128,96,112151,1,8
128,96,112226,1,8
128,96,112376,1,4
128,96,112676,1,0
128,96,112826,1,8
128,96,112976,1,0
128,96,113126,1,8
128,96,113276,1,0
128,96,113426,1,8
128,96,113576,1,0
128,96,113726,1,8
128,96,113876,1,0
128,96,114026,1,8
128,96,114176,1,0
128,64,114401,1,0
128,64,114476,1,0
128,64,114626,1,8
128,128,114776,1,4
128,64,115076,1,0
128,64,115226,1,8
128,96,115376,1,0
128,64,115526,1,8
128,64,115676,1,0
128,64,115826,1,8
128,64,115976,1,0
128,64,116126,1,8
128,64,116276,1,0
128,64,116426,1,8
128,64,116576,1,0
128,64,116726,1,8
128,64,116801,1,0
128,64,116876,1,0
128,64,116951,1,0
128,64,117026,1,0
128,64,117176,1,4
128,64,117326,1,8
128,64,117476,1,0
128,64,117551,1,8
128,64,117626,1,8
128,64,117701,1,8
128,64,117776,1,0
160,64,117926,1,8
160,64,118076,1,0
160,64,118226,1,8
160,64,118376,1,0
160,64,118526,1,8
160,64,118601,1,8
160,64,118676,1,8
160,64,118751,1,8
160,64,118826,1,8
160,64,118976,1,0
160,64,119051,1,8
160,64,119126,1,8
160,64,119276,1,0
160,64,119351,1,8
160,64,119426,1,8
160,64,119576,1,0
160,64,119726,1,8
160,64,119876,1,0
160,64,120026,1,8
160,64,120101,1,8
160,64,120176,1,8
160,64,120251,1,8
160,64,120326,1,8
160,64,120476,1,0
160,64,120626,1,8
160,64,120776,1,0
160,64,120926,1,8
160,64,121001,1,8
160,64,121076,1,8
160,64,121151,1,8
160,64,121226,1,8
160,64,121376,1,0
160,64,121451,1,8
160,64,121526,1,8
160,64,121676,1,0
160,64,121751,1,8
160,64,121826,1,8
224,128,121976,1,0
224,128,122126,1,8
160,160,122276,1,0
160,160,122426,1,8
192,160,122501,1,8
192,160,122576,1,8
192,160,122651,1,8
192,160,122726,1,8
160,160,122876,1,0
160,96,123026,1,8
160,96,123176,1,0
160,96,123326,1,8
160,96,123401,1,8
160,96,123476,1,0
160,96,123551,1,8
160,96,123626,1,8
160,96,123776,1,0
160,96,123851,1,8
160,96,123926,1,8
160,96,124076,1,0
160,96,124151,1,8
160,96,124226,1,8
160,96,124376,1,12
160,96,124526,1,12
160,96,124826,1,12
160,96,124976,1,12
128,96,125276,1,12
128,96,125426,1,12
128,96,125726,1,12
128,96,125876,1,8
128,32,125951,1,0
128,32,126026,1,0
128,32,126101,1,0
128,32,126176,1,0
128,32,126326,1,8
128,32,126401,1,8
128,32,126476,1,8
256,192,126776,5,4
256,192,127076,1,0
256,192,127226,1,0
256,192,127376,1,2
256,192,127526,1,0
256,192,127601,1,0
256,192,127676,1,2
256,192,127826,1,0
256,192,127976,1,2
256,192,128126,1,2
256,192,128201,1,2
256,192,128276,1,0
256,192,128426,1,2
256,192,128576,1,0
256,192,128876,1,0
256,192,129026,1,2
256,192,129176,1,0
256,192,129476,1,2
256,192,129626,1,2
256,192,129776,1,0
256,192,130076,1,2
256,192,130376,1,0
256,192,130526,1,0
256,192,130676,1,0
256,192,130826,1,2
256,192,130976,1,0
256,192,131126,1,2
256,192,131201,1,2
256,192,131276,1,0
256,192,131426,1,2
256,192,131576,1,0
256,192,131726,1,0
256,192,131801,1,0
256,192,131876,1,2
256,192,132026,1,0
256,192,132176,1,0
256,192,132251,1,0
256,192,132326,1,2
256,192,132401,1,2
256,192,132476,1,0
256,192,132626,1,2
256,192,132776,1,0
256,192,132926,1,2
256,192,133001,1,2
256,192,133076,1,0
256,192,133226,1,2
256,192,133376,1,0
256,192,133451,1,2
256,192,133526,1,2
256,192,133601,1,2
256,192,133676,1,0
256,192,133826,1,2
256,192,133976,1,0
256,192,134126,1,2
256,192,134201,1,2
256,192,134276,1,0
256,192,134426,1,2
256,192,134576,1,0
256,192,134651,1,0
256,192,134726,1,2
256,192,134801,1,2
256,192,134876,1,2
256,192,135026,1,4
256,192,135176,1,4
256,192,135476,1,4
256,192,135776,1,6
256,192,135926,1,6
256,192,136076,1,6
256,192,136376,1,4
256,192,136676,1,0
256,192,136826,1,0
256,192,136976,1,2
256,192,137126,1,0
256,192,137201,1,0
256,192,137276,1,2
256,192,137426,1,0
256,192,137576,1,0
256,192,137651,1,0
256,192,137726,1,2
256,192,137801,1,2
256,192,137876,1,0
256,192,137951,1,0
256,192,138026,1,2
256,192,138101,1,2
256,192,138176,1,0
256,192,138476,1,0
256,192,138626,1,0
256,192,138776,1,0
256,192,139076,1,0
256,192,139226,1,2
256,192,139376,1,0
256,192,139676,1,2
256,192,139976,1,0
256,192,140126,1,0
256,192,140276,1,0
256,192,140426,1,2
256,192,140576,1,0
256,192,140876,1,0
256,192,141176,1,0
256,192,141326,1,2
256,192,141401,1,2
256,192,141476,1,0
256,192,141626,1,2
256,192,141776,1,0
256,192,141851,1,0
256,192,141926,1,2
256,192,142001,1,2
256,192,142076,1,0
256,192,142226,1,2
256,192,142376,1,0
256,192,142526,1,2
256,192,142601,1,2
256,192,142676,1,0
256,192,142826,1,2
256,192,142976,1,0
256,192,143051,1,2
256,192,143126,1,2
256,192,143201,1,2
256,192,143276,1,0
256,192,143426,1,2
256,192,143576,1,4
256,192,143876,1,4
256,192,144176,1,4
256,192,144476,1,0
256,192,144626,1,0
256,192,144776,1,2
256,192,144926,1,0
256,192,145076,1,0
256,192,145226,1,2
256,192,145376,1,0
256,192,145526,1,2
256,192,145676,1,2
256,192,145976,5,4
256,192,146276,1,0
256,192,146576,1,0
256,192,146726,1,2
256,192,146801,1,2
256,192,146876,1,0
256,192,147026,1,2
256,192,147326,1,2
256,192,147401,1,2
256,192,147476,1,0
256,192,147626,1,2
256,192,147926,1,0
256,192,148076,1,2
256,192,148226,1,0
256,192,148376,1,0
256,192,148526,1,0
256,192,148601,1,0
256,192,148676,1,0
256,192,148826,1,2
256,192,148976,1,0
256,192,149126,1,2
256,192,149201,1,2
256,192,149276,1,0
256,192,149426,1,2
256,192,149576,1,4
256,192,149726,1,4
256,192,150026,1,4
256,192,150326,1,0
256,192,150476,1,0
256,192,150626,1,2
256,192,150926,1,0
256,192,151001,1,0
256,192,151076,1,0
256,192,151151,1,2
256,192,151226,1,0
256,192,151301,1,0
256,192,151376,1,0
256,192,151451,1,2
256,192,151526,1,0
256,192,151601,1,0
256,192,151676,1,0
256,192,151751,1,2
256,192,151826,1,0
256,192,151976,1,4
256,192,152126,1,4
256,192,152426,1,6
256,192,152726,1,0
256,192,152876,1,0
256,192,153026,1,2
256,192,153326,1,0
256,192,153401,1,0
256,192,153476,1,2
256,192,153626,1,2
256,192,153701,1,2
256,192,153776,1,0
256,192,153926,1,0
256,192,154001,1,0
256,192,154076,1,2
256,192,154226,1,2
256,192,154301,1,2
256,192,154376,1,0
256,192,154526,1,0
256,192,154601,1,0
256,192,154676,1,2
256,192,154826,1,2
256,192,154901,1,2
256,192,154976,1,0
256,192,155051,1,0
256,192,155126,1,2
256,192,155201,1,2
256,192,155276,1,0
256,192,155351,1,0
256,192,155426,1,0
256,192,155501,1,0
256,192,155576,1,2
256,192,155726,1,0
256,192,155801,1,0
256,192,155876,1,2
256,192,156026,1,0
256,192,156176,1,2
256,192,156251,1,2
256,192,156326,1,0
256,192,156476,1,2
256,192,156626,1,0
256,192,156701,1,0
256,192,156776,1,2
256,192,156926,1,0
256,192,157076,1,2
256,192,157151,1,2
256,192,157226,1,0
256,192,157376,1,0
256,192,157526,1,0
256,192,157676,1,2
256,192,157826,1,4
256,192,158126,1,0
256,192,158276,1,0
256,192,158426,1,2
256,192,158576,1,0
256,192,158726,1,2
256,192,158876,1,2
256,192,159026,1,2
256,192,159176,1,0
256,192,159326,1,0
256,192,159401,1,0
256,192,159476,1,0
256,192,159626,1,6
256,192,159926,1,0
256,192,160076,1,0
256,192,160226,1,2
256,192,160376,1,0
256,192,160526,1,0
256,192,160601,1,0
256,192,160676,1,2
256,192,160826,1,0
256,192,160976,1,2
256,192,161426,1,0
256,192,161726,1,0
256,192,161876,1,2
256,192,162176,1,0
256,192,162326,1,0
256,192,162476,1,2
256,192,162626,1,0
256,192,162926,1,0
256,192,163076,1,0
256,192,163226,1,2
256,192,163376,1,0
256,192,163526,1,0
256,192,163601,1,0
256,192,163676,1,0
256,192,163826,1,2
256,192,163976,1,0
256,192,164276,1,4
256,192,165176,5,0
256,192,165626,1,0
256,192,165776,1,0
256,192,165926,1,2
256,192,166226,1,0
256,192,166376,1,0
256,192,166526,1,2
256,192,166676,1,0
256,192,166826,1,2
256,192,166976,1,2
256,192,167276,1,0
256,192,167426,1,0
256,192,167576,1,0
256,192,168026,1,0
256,192,168176,1,0
256,192,168326,1,0
256,192,168476,1,2
256,192,168776,1,0
256,192,168926,1,0
256,192,169076,1,2
256,192,169226,1,0
256,192,169376,1,2
256,192,169976,1,4
256,192,170426,1,0
256,192,170576,1,2
256,192,170876,1,0
256,192,171026,1,0
256,192,171176,1,2
256,192,171326,1,0
256,192,171476,1,2
256,192,171626,1,2
256,192,171776,1,2
256,192,172076,1,0
256,192,172226,1,0
256,192,172376,1,2
256,192,172826,1,0
256,192,172976,1,0
256,192,173126,1,2
256,192,173276,1,0
256,192,173426,1,2
256,192,173576,1,2
256,192,173726,1,2
256,192,173876,1,2
256,192,174026,1,2
256,192,174176,1,0
256,192,174776,1,4
256,192,175226,1,0
256,192,175376,1,2
256,192,175676,1,0
256,192,175826,1,2
256,192,175976,1,0
256,192,176126,1,2
256,192,176276,1,2
256,192,176426,1,2
256,192,176576,1,0
256,192,176876,1,0
256,192,177026,1,2
256,192,177176,1,0
256,192,177626,1,0
256,192,177776,1,0
256,192,177926,1,2
256,192,178226,1,0
256,192,178376,1,2
256,192,178526,1,0
256,192,178676,1,0
256,192,178826,1,0
256,192,178976,1,2
256,192,179576,1,0
256,192,180026,1,0
256,192,180176,1,2
256,192,180476,1,0
256,192,180626,1,2
256,192,180776,1,0
256,192,181076,1,0
256,192,181376,1,0
256,192,181526,1,2
256,192,181676,1,0
256,192,181826,1,2
256,192,181976,1,2
256,192,183176,1,4
256,192,183476,1,4
256,192,183776,1,4
256,192,184376,5,4
256,192,184676,1,0
256,192,184826,1,0
256,192,184976,1,2
256,192,185126,1,0
256,192,185201,1,0
256,192,185276,1,2
256,192,185426,1,0
256,192,185576,1,2
256,192,185726,1,2
256,192,185801,1,2
256,192,185876,1,0
256,192,186026,1,2
256,192,186176,1,0
256,192,186476,1,0
256,192,186626,1,2
256,192,186776,1,0
256,192,187076,1,2
256,192,187226,1,2
256,192,187376,1,0
256,192,187676,1,2
256,192,187976,1,0
256,192,188126,1,0
256,192,188276,1,0
256,192,188426,1,2
256,192,188576,1,0
256,192,188726,1,2
256,192,188801,1,2
256,192,188876,1,0
256,192,189026,1,2
256,192,189176,1,0
256,192,189326,1,0
256,192,189401,1,0
256,192,189476,1,2
256,192,189626,1,0
256,192,189776,1,0
256,192,189851,1,0
256,192,189926,1,2
256,192,190001,1,2
256,192,190076,1,0
256,192,190226,1,2
256,192,190376,1,0
256,192,190526,1,2
256,192,190601,1,2
256,192,190676,1,0
256,192,190826,1,2
256,192,190976,1,0
256,192,191051,1,2
256,192,191126,1,2
256,192,191201,1,2
256,192,191276,1,0
256,192,191426,1,2
256,192,191576,1,0
256,192,191726,1,2
256,192,191801,1,2
256,192,191876,1,0
256,192,192026,1,2
256,192,192176,1,0
256,192,192251,1,0
256,192,192326,1,2
256,192,192401,1,2
256,192,192476,1,2
256,192,192626,1,4
256,192,192776,1,4
256,192,193076,1,4
256,192,193376,1,6
256,192,193526,1,6
256,192,193676,1,6
256,192,193976,1,4
256,192,194276,1,0
256,192,194426,1,0
256,192,194576,1,2
256,192,194726,1,0
256,192,194801,1,0
256,192,194876,1,2
256,192,195026,1,0
256,192,195176,1,0
256,192,195251,1,0
256,192,195326,1,2
256,192,195401,1,2
256,192,195476,1,0
256,192,195551,1,0
256,192,195626,1,2
256,192,195701,1,2
256,192,195776,1,0
256,192,196076,1,0
256,192,196226,1,0
256,192,196376,1,0
256,192,196676,1,0
256,192,196826,1,2
256,192,196976,1,0
256,192,197276,1,2
256,192,197576,1,0
256,192,197726,1,0
256,192,197876,1,0
256,192,198026,1,2
256,192,198176,1,0
256,192,198476,1,0
256,192,198776,1,0
256,192,198926,1,2
256,192,199001,1,2
256,192,199076,1,0
256,192,199226,1,2
256,192,199376,1,0
256,192,199451,1,0
256,192,199526,1,2
256,192,199601,1,2
256,192,199676,1,0
256,192,199826,1,2
256,192,199976,1,0
256,192,200126,1,2
256,192,200201,1,2
256,192,200276,1,0
256,192,200426,1,2
256,192,200576,1,0
256,192,200651,1,2
256,192,200726,1,2
256,192,200801,1,2
256,192,200876,1,0
256,192,201026,1,2
256,192,201176,1,4
256,192,201476,1,4
256,192,201776,1,4
256,192,202076,1,0
256,192,202226,1,0
256,192,202376,1,2
256,192,202526,1,0
256,192,202676,1,0
256,192,202826,1,2
256,192,202976,1,0
256,192,203126,1,2
256,192,203276,1,2
