osu file format v9

[General]
AudioFilename: kagerou days.mp3
AudioLeadIn: 0
PreviewTime: 59276
Countdown: 0
SampleSet: Soft
StackLeniency: 0.6
Mode: 0
LetterboxInBreaks: 0

[Editor]
Bookmarks: 11585,21185,21485,40385,48185,59585,78785,88385,107585,117185,126785,145985,155585,165176,174785,184385,203585
DistanceSpacing: 1.6
BeatDivisor: 4
GridSize: 8

[Metadata]
Title:Kagerou Days
Artist:Hatsune Miku
Creator:m i z u k i
Version:Easy
Source:Jin
Tags:vocaloid shidu yuzuki climbb65588 vxjokerxv mizuki

[Difficulty]
HPDrainRate:2
CircleSize:3
OverallDifficulty:2
ApproachRate:2
SliderMultiplier:0.6
SliderTickRate:1

[Events]
//Background and Video events
0,0,"bg.jpg"
Video,0,"kagerou days.flv"
//Break Periods
2,11576,19616
2,78976,86816
2,146176,163616
//Storyboard Layer 0 (Background)
//Storyboard Layer 1 (Fail)
//Storyboard Layer 2 (Pass)
//Storyboard Layer 3 (Foreground)
//Storyboard Sound Samples
//Background Colour Transformations
3,100,163,162,255

[TimingPoints]
776,300,4,2,0,50,1,0
21176,-100,4,1,0,75,0,0
40301,-100,4,2,0,75,0,0
57026,-100,4,1,0,75,0,0
59576,-100,4,1,0,75,0,1
64376,-100,4,1,0,75,0,0
69176,-100,4,1,0,75,0,1
73976,-100,4,1,0,75,0,0
107426,-100,4,2,0,75,0,0
124301,-100,4,1,0,75,0,0
126776,-100,4,1,0,75,0,1
131576,-100,4,1,0,75,0,0
136376,-100,4,1,0,75,0,1
141176,-100,4,1,0,75,0,0
165026,-100,4,2,0,55,0,0
183776,-100,4,2,0,5,0,0
184376,-100,4,1,0,75,0,1
189176,-100,4,1,0,75,0,0
193976,-100,4,1,0,75,0,1
198776,-100,4,1,0,75,0,0

[Colours]
Combo1 : 235,235,235
Combo2 : 255,0,0
Combo3 : 13,152,227

[HitObjects]
152,56,1976,2,0,B|112:104|104:168,1,120,2|0
216,320,3176,2,0,B|256:272|264:200,1,120
320,136,4076,1,0
408,176,4376,6,0,B|408:296,1,120,2|0
232,368,5576,2,0,B|232:240,1,120
168,176,6476,1,0
256,144,6776,6,0,B|328:160|384:136,1,120,2|0
208,40,7976,2,0,B|136:24|80:48,1,120,0|0
32,120,8876,1,0
104,184,9176,6,0,B|168:160|216:200,2,120,2|0|2
48,264,10676,1,2
144,288,10976,1,2
64,256,21176,5,4
96,64,21776,1,0
280,120,22376,2,0,B|344:112|408:144,1,120,0|0
480,312,23576,5,0
296,352,24176,1,0
144,232,24776,2,0,B|88:208|16:232,2,120,0|0|0
256,72,26576,5,2
408,184,27176,2,0,B|280:160,1,120,2|2
256,352,28376,5,0
112,224,28976,1,2
192,48,29576,2,0,B|240:88|224:160,2,120,2|2|4
24,144,31376,5,0
104,320,31976,2,0,B|144:272|216:288,1,120
400,344,33176,5,0
496,176,33776,1,0
328,80,34376,2,0,B|256:88|216:40,2,120
160,168,36176,5,2
320,272,36776,2,0,B|368:232|432:240,2,120,2|2|0
248,208,38276,5,2
288,120,38576,2,0,B|232:104,1,60,2|0
160,40,39176,2,0,B|96:56,1,60,2|0
80,144,39776,2,0,B|16:136,1,60,2|0
32,232,40376,6,0,B|24:296|56:352,2,120,4|0|0
216,176,42176,2,0,B|288:168,1,60
232,84,42776,6,0,B|108:100,2,120,4|0|0
248,272,44576,2,0,B|312:288,1,60
400,256,45176,6,0,B|440:208|432:144,2,120,4|0|0
216,192,46976,2,0,B|160:208,1,60
112,296,47576,6,0,B|40:288|16:224,2,120,4|0|0
296,352,49376,2,0,B|368:352,1,60,2|2
400,264,49976,6,0,B|328:264|288:208,1,120,6|0
256,32,51176,2,0,B|320:32|368:80,1,120
456,48,52076,1,0
440,144,52376,6,0,B|408:272,1,120,4|0
240,176,53576,2,0,B|272:48,1,120,0|0
176,40,54476,1,0
96,96,54776,6,0,B|64:152|72:216,2,120,4|0|0
168,32,56276,2,0,B|232:56,1,60
280,128,56876,1,0
248,216,57176,6,0,B|224:256|168:256,2,90
296,296,58376,2,0,B|328:280|360:280,2,60
184,144,59576,6,0,B|152:88|152:16,1,120,6|0
336,96,60776,2,0,B|368:152|368:224,1,120,2|0
216,320,61976,6,0,B|96:304,2,120,2|2|2
296,264,63476,1,0
232,192,63776,1,2
384,72,64376,6,0,B|456:64,2,60,6|0|0
232,192,65576,2,0,B|168:184,2,60,2|0|0
320,360,66776,6,0,B|360:312|432:328,2,120,2|2|2
240,304,68276,1,2
144,328,68576,2,0,B|80:320,1,60,2|2
64,224,69176,6,0,B|192:192,1,120,6|0
288,40,70376,2,0,B|160:72,1,120,2|0
336,160,71576,6,0,B|464:128,2,120,2|2|2
272,232,73076,1,0
312,320,73376,1,2
232,144,73976,6,0,B|176:120|112:144,1,120,6|0
280,48,75176,2,0,B|336:24|400:48,1,120,2|0
312,216,76376,5,2
136,144,76976,1,0
184,328,77576,2,0,B|240:344,1,60,2|0
336,312,78176,1,2
424,344,78476,2,0,B|488:336,1,60,2|4
448,128,88376,5,4
416,320,88976,1,0
232,264,89576,2,0,B|168:272|104:240,1,120,0|0
32,72,90776,5,0
216,32,91376,1,0
368,152,91976,2,0,B|424:176|496:152,2,120,0|0|0
256,312,93776,5,2
104,200,94376,2,0,B|232:224,1,120,2|2
256,32,95576,5,0
400,160,96176,1,2
320,336,96776,2,0,B|272:296|288:224,2,120,2|2|4
488,240,98576,5,0
408,64,99176,2,0,B|368:112|296:96,1,120
112,40,100376,5,0
16,208,100976,1,0
184,304,101576,2,0,B|256:296|296:344,2,120
352,216,103376,5,2
192,112,103976,2,0,B|144:152|80:144,2,120,2|2|0
264,176,105476,5,2
224,264,105776,2,0,B|280:280,1,60,2|0
352,344,106376,2,0,B|416:328,1,60,2|0
432,240,106976,2,0,B|496:248,1,60,2|0
480,152,107576,6,0,B|488:88|456:32,2,120,4|0|0
296,208,109376,2,0,B|224:216,1,60
280,300,109976,6,0,B|404:284,2,120,4|0|0
264,112,111776,2,0,B|200:96,1,60
112,128,112376,6,0,B|72:176|80:240,2,120,4|0|0
296,192,114176,2,0,B|352:176,1,60
400,88,114776,6,0,B|472:96|496:160,2,120,4|0|0
216,32,116576,2,0,B|144:32,1,60,2|2
112,120,117176,6,0,B|184:120|224:176,1,120,6|0
256,352,118376,2,0,B|192:352|144:304,1,120
56,336,119276,1,0
80,240,119576,6,0,B|112:112,1,120,4|0
280,208,120776,2,0,B|248:336,1,120,0|0
344,352,121676,1,0
416,288,121976,6,0,B|448:232|440:168,2,120,4|0|0
344,352,123476,2,0,B|280:328,1,60
232,256,124076,1,0
264,168,124376,6,0,B|296:136|352:144,2,90
192,104,125576,2,0,B|160:104|128:120,2,60
328,240,126776,6,0,B|360:296|360:368,1,120,6|0
176,288,127976,2,0,B|144:232|144:160,1,120,2|0
288,48,129176,6,0,B|352:40|408:64,2,120,2|2|2
220,116,130676,1,0
280,192,130976,1,2
128,312,131576,6,0,B|56:320,2,60,6|0|0
280,192,132776,2,0,B|344:200,2,60,2|0|0
192,24,133976,6,0,B|152:72|80:56,2,120,2|2|2
272,80,135476,1,2
368,56,135776,2,0,B|432:64,1,60,2|2
448,160,136376,6,0,B|320:192,1,120,6|0
224,344,137576,2,0,B|352:312,1,120,2|0
176,224,138776,6,0,B|120:256|48:256,2,120,2|2|2
240,152,140276,1,0
200,64,140576,1,2
280,240,141176,6,0,B|336:264|400:240,1,120,6|0
232,336,142376,2,0,B|176:360|112:336,1,120,2|0
200,168,143576,5,2
376,240,144176,1,0
328,56,144776,2,0,B|272:40,1,60,2|0
176,72,145376,1,2
88,40,145676,2,0,B|24:48,1,60,2|4
72,248,165176,6,0,B|96:312|160:328,2,120,4|0|0
440,136,167576,2,0,B|416:72|352:56,2,120,4|0|0
256,192,169376,1,0
360,352,169976,6,0,B|480:328,2,120,4|0|0
152,32,172376,2,0,B|32:56,2,120,4|0|0
256,192,174176,1,0
392,56,174776,6,0,B|416:120|488:128,2,120,4|2|0
208,16,176576,1,2
256,200,177176,6,0,B|240:272|152:288,2,120,4|2|0
440,144,178976,2,0,B|384:96|312:120,1,120,2|4
152,200,180176,5,2
304,312,180776,1,0
368,240,181076,1,0
288,192,181376,2,0,B|264:120,1,60,2|0
256,192,181976,12,0,183776
192,168,184376,6,0,B|248:136|312:160,1,120,6|0
424,312,185576,2,0,B|368:344|304:320,1,120,2|0
136,232,186776,6,0,B|16:264,2,120,2|2|2
216,288,188276,1,0
280,216,188576,1,2
440,320,189176,6,0,B|512:312,2,60,6|0|0
392,136,190376,2,0,B|328:128,2,60,2|0|0
240,256,191576,6,0,B|200:208|128:224,2,120,2|2|2
320,208,193076,1,2
400,160,193376,2,0,B|464:160,1,60,2|2
448,64,193976,6,0,B|320:32,1,120,6|0
144,88,195176,2,0,B|272:120,1,120,2|0
320,296,196376,6,0,B|392:312|448:264,2,120,2|2|2
248,232,197876,1,0
160,272,198176,1,2
192,80,198776,6,0,B|248:56|312:80,1,120,6|0
144,168,199976,2,0,B|88:192|24:168,1,120,2|0
112,344,201176,5,2
248,208,201776,1,0
160,40,202376,2,0,B|224:32,1,60,2|0
272,112,202976,2,0,B|336:120,1,60,2|2
408,64,203576,1,4
