osu file format v9

[General]
AudioFilename: Kagefumi Etranger.mp3
AudioLeadIn: 0
PreviewTime: 11262
Countdown: 0
SampleSet: Soft
StackLeniency: 0.6
Mode: 0
LetterboxInBreaks: 1

[Editor]
Bookmarks: 46566,55373,218309
DistanceSpacing: 1
BeatDivisor: 2
GridSize: 8

[Metadata]
Title:Kagefumi Etranger
Artist:Hatsune Miku
Creator:NatsumeRin
Version:Normal
Source:Substreet
Tags:vocaloid vocaloid2 impossiblexu arien666 arken1015 Disoy

[Difficulty]
HPDrainRate:4
CircleSize:3
OverallDifficulty:4
ApproachRate:5
SliderMultiplier:0.96
SliderTickRate:1

[Events]
//Background and Video events
0,0,"BG.jpg"
//Break Periods
2,46760,54167
2,139237,145543
//Storyboard Layer 0 (Background)
//Storyboard Layer 1 (Fail)
//Storyboard Layer 2 (Pass)
//Storyboard Layer 3 (Foreground)
//Storyboard Sound Samples
//Background Colour Transformations
3,100,0,0,0

[TimingPoints]
10230,275.229357798165,4,2,1,100,1,0
11055,-100,4,2,1,90,0,0
28945,-100,4,2,1,85,0,0
37752,-100,4,1,1,50,0,0
37890,-100,4,2,1,85,0,0
46009,-100,4,1,1,70,0,0
46285,-100,4,1,1,80,0,0
46560,-100,4,2,1,85,0,0
55367,-100,4,2,1,70,0,0
64174,-100,4,2,1,80,0,0
72982,-100,4,2,1,90,0,0
80138,-200,4,2,1,90,0,0
82890,-100,4,1,1,75,0,0
83991,-100,4,2,1,90,0,1
101606,-200,4,2,1,70,0,0
106009,-133.333333333333,4,2,1,80,0,0
109312,-100,4,1,1,90,0,0
109587,-100,4,1,1,60,0,0
109863,-100,4,1,1,65,0,0
110138,-100,4,1,1,70,0,0
110413,-100,4,2,1,90,0,0
117569,-200,4,2,1,90,0,0
120321,-100,4,1,1,75,0,0
121422,-100,4,2,1,90,0,1
136835,-133.333333333333,4,2,1,90,0,1
137385,-133.333333333333,4,2,1,10,0,1
137661,-100,4,2,1,90,0,1
139037,-100,4,2,1,90,0,0
146468,-100,4,1,1,80,0,0
147844,-100,4,1,1,70,0,0
156927,-100,4,2,1,90,0,0
161055,-100,4,1,1,50,0,0
161330,-100,4,2,1,90,0,0
163257,-100,4,1,1,85,0,0
164633,-100,4,1,1,90,0,0
164908,-100,4,1,1,95,0,0
165184,-100,4,1,1,100,0,0
165459,-100,4,2,1,90,0,0
183074,-200,4,2,1,80,0,0
187477,-133.333333333333,4,2,1,80,0,0
190780,-100,4,1,1,70,0,0
191881,-100,4,2,1,80,0,0
199587,-100,4,1,1,80,0,0
200138,-100,4,1,1,85,0,0
200413,-100,4,1,1,90,0,0
200688,-100,4,2,1,100,0,1
218303,-100,4,2,1,100,0,0

[Colours]
Combo1 : 90,0,181
Combo2 : 146,20,20
Combo3 : 0,75,175

[HitObjects]
72,192,10230,1,0
72,192,10505,1,0
72,192,10780,2,0,B|176:192,1,96,0|8
216,112,11330,6,0,B|280:144|280:240|216:272,1,192,2|2
136,320,12156,1,0
216,368,12431,2,0,B|280:344|336:296|352:208,1,192,2|2
368,144,13257,1,0
360,48,13532,1,2
440,224,14083,1,0
288,104,14633,2,0,B|240:120|184:104,1,96,2|0
128,32,15184,2,0,B|88:64|96:120,1,96,2|0
152,192,15734,22,0,B|112:224|56:208,2,96,2|0|2
256,352,16835,1,2
360,192,17385,2,0,B|400:224|456:208,2,96,2|0|2
256,32,18486,1,2
216,120,18762,1,0
224,216,19037,2,0,B|160:224|136:160,1,96,2|0
216,120,19587,2,0,B|280:112|352:184|320:264,1,192,2|2
168,352,20688,6,0,B|64:352,1,96,2|0
16,272,21239,1,2
72,88,21789,2,0,B|184:88,1,96,2|0
224,168,22340,1,2
168,352,22890,1,2
264,352,23165,1,0
352,312,23441,2,0,B|408:288|456:208|448:144,1,192,2|2
288,48,24541,22,0,B|192:48,1,96,2|0
152,136,25092,2,0,B|248:136,1,96,2|0
344,136,25642,1,2
248,304,26193,2,0,B|152:328|48:304,1,192,2|2
56,112,27294,1,2
224,200,27844,1,2
264,112,28119,1,0
224,24,28395,1,2
416,24,28945,6,0,B|464:64|464:168|400:216,1,192
272,328,30046,1,0
184,288,30321,1,2
96,328,30596,1,0
96,136,31147,1,2
288,136,31697,2,0,B|384:136,1,96
384,40,32248,2,0,B|440:48|472:96,1,96,2|0
464,184,32798,2,0,B|440:232|382:230,1,96,2|0
384,136,33349,21,2
384,328,33899,1,0
216,240,34450,1,0
120,240,34725,1,2
216,240,35000,2,0,B|216:312|128:352|64:320,1,192
24,240,35826,1,2
72,152,36101,2,0,B|176:152,1,96
248,96,36652,2,0,B|368:96,2,96,2|0|2
440,96,37752,6,0,B|488:144|440:256|368:264,1,192,4|0
208,304,38853,2,0,B|182:259|206:211,1,96,0|2
288,256,39404,1,0
96,256,39954,1,2
128,168,40229,1,0
64,96,40505,2,0,B|112:64|176:88,1,96,2|0
248,112,41055,2,0,B|291:129|339:97,1,96,2|0
392,16,41606,1,2
472,192,42156,21,0
392,368,42707,1,0
216,288,43257,2,0,B|112:288,2,96,0|2|0
280,104,44358,1,0
96,56,44908,2,0,B|72:104|104:160,1,96,2|0
160,224,45459,1,0
352,224,46009,6,0,B|256:224,1,96,8|8
256,224,46560,5,4
272,120,55367,5,2
240,208,55642,1,0
160,160,55918,2,0,B|64:160,2,96,2|0|2
352,160,57018,2,0,B|456:160,2,96,2|0|2
160,160,58119,1,2
64,160,58395,1,0
112,240,58670,2,0,B|160:264|224:232,1,96,2|0
288,184,59220,2,0,B|336:160|400:192,1,96,2|0
336,264,59771,5,2
336,72,60321,1,2
256,24,60596,1,0
176,72,60872,1,2
176,264,61422,1,2
256,312,61697,1,0
336,264,61973,1,2
336,72,62523,2,0,B|315:116|255:129|192:118|172:64,1,192,2|2
256,24,63349,1,0
256,24,63624,1,2
448,24,64174,22,0,B|480:72|480:160|440:224,1,192
312,344,65275,2,0,B|216:344,1,96
136,288,65826,1,0
216,112,66376,1,0
392,184,66927,1,0
304,216,67202,1,0
208,208,67477,2,0,B|144:200|128:136,1,96
216,112,68028,2,0,B|208:64|248:24,1,96
304,104,68578,5,0
120,48,69129,1,0
32,216,69679,2,0,B|32:312,2,96
208,136,70780,2,0,B|208:240,1,96
264,312,71330,1,0
352,344,71606,1,0
440,312,71881,1,0
496,232,72156,2,0,B|496:136,1,96
320,56,72982,22,0,B|224:40|120:80,1,192,2|0
64,256,74083,1,0
160,232,74358,1,2
240,288,74633,1,0
424,336,75184,2,0,B|464:296|472:240,1,96,2|0
376,240,75734,2,0,B|400:184|384:120,1,96,2|0
296,168,76285,2,0,B|296:112|264:64,2,96,2|0|2
104,144,77385,5,2
256,264,77936,1,0
272,72,78486,2,0,B|376:72,1,96,0|2
464,72,79037,1,0
296,160,79587,1,2
488,160,80138,22,0,B|512:256|408:360|296:336,1,288,2|0
240,280,82340,1,2
152,312,82890,22,0,B|40:312,2,96
104,128,83991,22,0,B|208:120|280:48,1,192,2|0
456,112,85092,2,0,B|432:160|464:224,1,96,0|2
496,288,85642,1,0
312,352,86193,2,0,B|208:352,1,96,2|0
168,264,86743,2,0,B|288:264,1,96,2|0
312,176,87294,2,0,B|208:176,1,96,2|2
275,51,88395,22,0,B|264:112|336:184|416:200,1,192,2|0
264,344,89496,2,0,B|208:336|168:288,1,96,0|2
120,224,90046,1,0
312,264,90596,2,0,B|384:272|424:248,1,96,0|2
472,184,91147,1,2
432,96,91422,1,0
368,168,91697,2,0,B|264:192|168:120,1,192,2|0
16,224,92798,6,0,B|72:304|176:328,1,192,2|0
360,344,93899,1,0
448,304,94174,1,2
488,216,94450,1,0
416,40,95000,2,0,B|360:56|352:112,1,96,2|0
448,128,95551,1,2
384,200,95826,1,0
288,176,96101,2,0,B|248:136|264:80,1,96,2|2
353,105,96652,1,2
224,248,97202,22,0,B|184:288|96:304|32:288,1,192,2|0
168,144,98303,2,0,B|136:176|72:176,2,96,0|2|0
320,32,99404,1,2
400,88,99679,1,0
440,176,99954,2,0,B|464:224|448:288,1,96,2|0
360,232,100505,1,2
312,312,100780,1,0
216,336,101055,2,0,B|160:360|88:320|16:344,1,192,2|4
256,24,102707,5,0
472,192,103807,1,0
256,360,104908,1,0
40,192,106009,21,0
184,192,106560,1,0
328,192,107110,1,0
472,192,107661,1,0
392,312,108211,22,0,B|328:368|184:368|112:304,1,287.999991416931
168,224,109587,1,8
256,184,109863,1,8
344,224,110138,1,8
392,312,110413,22,0,B|448:288|464:192|408:144,1,192,2|0
224,112,111514,2,0,B|216:168|256:200,1,96,0|2
320,128,112064,1,0
128,96,112615,1,2
112,192,112890,1,0
24,232,113165,2,0,B|40:280|104:288,1,96,2|0
192,256,113716,2,0,B|288:256,1,96,2|0
384,256,114266,1,2
472,88,114817,22,0,B|424:48|336:48|280:96,1,192,2|0
384,256,115918,1,0
296,296,116193,1,2
208,336,116468,1,0
32,256,117018,1,2
208,336,117569,6,0,B|240:296|240:224|208:176|208:176|208:112|208:112|200:80|200:80|208:48,1,288,2|0
296,80,119771,1,2
312,168,120321,6,0,B|328:208|328:264,2,96,8|8|0
480,80,121422,6,0,B|512:168|512:296,1,192,2|0
328,336,122523,1,0
264,264,122798,2,0,B|216:304|232:368,1,96,2|0
312,176,123624,1,2
216,176,123899,2,0,B|120:176,1,96,0|2
24,176,124450,1,0
72,88,124725,1,2
168,88,125000,2,0,B|280:88,1,96,2|2
440,8,125826,6,0,B|496:40|496:144|432:176,1,192,2|0
496,352,126927,1,0
400,368,127202,1,2
312,328,127477,1,0
336,136,128028,2,0,B|320:184|272:208,1,96,0|2
224,288,128578,2,0,B|176:312|168:368,1,96,2|0
264,376,129129,2,0,B|88:256,1,192,2|0
152,80,130230,22,0,B|272:152|272:152|352:120,1,192,2|0
416,296,131330,2,0,B|520:248,2,96,0|2|0
240,376,132431,1,2
328,336,132707,1,0
240,296,132982,1,2
152,256,133257,1,0
240,216,133532,2,0,B|240:120,2,96,2|2|2
64,296,134633,6,0,B|48:248|64:200|64:200|64:136,2,144,0|2|0
240,216,136009,1,2
152,256,136285,1,0
152,160,136560,1,0
240,120,136835,2,0,B|288:120|336:160|336:208|336:208|408:272,1,215.999993562699,2|0
464,320,137936,5,0
256,368,138486,1,2
48,320,139037,1,4
208,32,146743,6,0,B|320:32,1,96,8|8
304,120,147294,6,0,B|208:120,1,96,8|8
160,200,147844,22,0,B|144:280|208:336,4,144
352,184,150046,6,0,B|368:104|304:48,4,144
256,352,152248,21,0
112,320,152661,1,0
40,192,153074,1,0
112,64,153486,1,0
256,32,153899,1,0
256,32,154450,5,0
400,64,154863,1,0
472,192,155276,1,0
400,320,155688,1,0
256,352,156101,2,0,B|160:352,2,96,0|0|4
312,272,156927,21,2
256,88,157477,1,2
200,272,158028,1,2
256,88,158578,2,0,B|352:88,2,96,2|0|2
72,40,159679,1,2
24,232,160229,1,2
104,288,160505,1,2
200,272,160780,1,2
280,328,161055,6,0,B|392:328,1,96,4|2
464,160,161881,1,2
280,96,162431,1,2
200,272,162982,1,2
280,328,163257,2,0,B|224:368|224:368|144:352,2,144,4|0|0
200,272,164358,6,0,B|96:248,1,96,8|8
168,176,164908,2,0,B|64:152,1,96,8|8
40,64,165459,6,0,B|120:72|184:32,2,144,2|2|2
40,64,166560,1,0
224,120,167110,1,2
320,96,167385,1,0
384,24,167661,2,0,B|432:64|424:152|368:192|368:192|432:272,2,288,2|0|0
280,184,169863,6,0,B|224:240|144:248,2,144,2|0|0
232,104,170963,2,0,B|176:152|88:160,2,144,2|0|2
328,104,172064,2,0,B|408:104|472:168,2,144,2|0|0
280,184,173165,1,2
208,128,174266,21,2
136,192,174541,1,0
208,128,174817,1,2
280,64,175092,1,0
208,128,175367,2,0,B|256:168|224:280|144:288,1,192,2|0
304,128,176468,5,2
376,192,176743,1,0
304,128,177019,1,2
232,64,177294,1,0
304,128,177569,2,0,B|256:168|288:280|368:288,1,192,2|2
256,192,178670,12,0,179771
256,192,180321,21,0
352,24,180872,1,2
160,24,181422,1,0
256,192,181973,6,0,B|256:288,2,96,0|2|2
448,192,183074,22,0,B|448:304,1,96,2|0
448,192,184174,2,0,B|448:88,1,96,2|0
448,192,185275,2,0,B|392:192,1,48,2|0
352,192,185826,2,0,B|296:192,1,48,2|0
256,192,186376,2,0,B|192:192,2,48,2|2|2
64,192,187477,6,0,B|64:336,1,143.999995708466,2|0
64,192,188578,2,0,B|64:48,1,143.999995708466,2|0
64,192,189679,2,0,B|152:224|272:160|352:192,1,287.999991416931,2|0
416,264,191055,5,8
480,192,191330,1,8
416,120,191606,1,8
352,192,191881,6,0,B|256:224|144:192,1,192,2|0
32,56,192982,1,0
128,32,193257,2,0,B|184:16|240:48,1,96,2|0
408,88,194083,1,2
448,176,194358,1,0
352,168,194633,2,0,B|352:224|408:264,1,96,2|0
448,176,195184,1,2
488,264,195459,1,0
424,336,195734,2,0,B|328:360|216:320,1,192,2|2
72,224,196835,5,0
168,56,197385,2,0,B|272:56,2,96,0|2|0
360,56,198486,2,0,B|464:56,1,96,2|0
416,144,199037,2,0,B|304:144,1,96,2|0
360,232,199587,5,0
456,232,199863,1,8
416,320,200138,1,8
320,320,200413,1,8
224,320,200688,6,0,B|128:336|16:320,1,192,2|0
32,128,201789,1,0
128,136,202064,1,2
224,128,202340,1,0
392,40,202890,2,0,B|432:72|424:136,1,96,2|0
408,224,203441,2,0,B|400:280|432:320,1,96,2|0
504,256,203991,1,2
504,256,204266,1,2
288,64,205092,6,0,B|304:128|272:208|192:240,1,192,2|0
408,224,206193,1,0
368,312,206468,1,2
288,368,206743,1,0
104,304,207294,1,0
56,224,207569,1,2
40,128,207844,2,0,B|32:72|72:40,1,96,2|0
136,112,208395,2,0,B|192:144|288:80|352:120,1,192,2|2
480,216,209496,22,0,B|432:248|336:256|264:232,1,192,2|0
360,64,210596,2,0,B|304:72|240:48,1,96,0|2
176,16,211147,1,0
48,160,211697,2,0,B|24:208|48:256,1,96,2|0
128,208,212248,1,2
128,304,212523,1,0
208,256,212798,2,0,B|232:304|208:352,1,96,2|2
128,304,213349,1,2
320,304,213899,5,4
360,104,214450,1,0
176,56,215000,1,0
96,104,215275,1,2
176,144,215551,1,0
360,104,216101,2,0,B|360:160|304:192,1,96,2|0
264,104,216652,2,0,B|216:72|216:16,1,96,2|0
312,24,217202,2,0,B|360:0|416:24,2,96,2|2|2
256,192,218303,5,4
