osu file format v9

[General]
AudioFilename: Kagefumi Etranger.mp3
AudioLeadIn: 0
PreviewTime: 11262
Countdown: 0
SampleSet: Soft
StackLeniency: 0.6
Mode: 0
LetterboxInBreaks: 1

[Editor]
Bookmarks: 46566,55373,64180,218309
DistanceSpacing: 1.6
BeatDivisor: 4
GridSize: 8

[Metadata]
Title:Kagefumi Etranger
Artist:Hatsune Miku
Creator:NatsumeRin
Version:Dis
Source:Substreet
Tags:vocaloid vocaloid2 impossiblexu arien666 arken1015 Disoy

[Difficulty]
HPDrainRate:4
CircleSize:4
OverallDifficulty:6
ApproachRate:7
SliderMultiplier:1.3
SliderTickRate:1

[Events]
//Background and Video events
0,0,"BG.jpg"
//Break Periods
2,48962,54467
2,141439,145568
//Storyboard Layer 0 (Background)
//Storyboard Layer 1 (Fail)
//Storyboard Layer 2 (Pass)
//Storyboard Layer 3 (Foreground)
//Storyboard Sound Samples
//Background Colour Transformations
3,100,0,0,0

[TimingPoints]
10230,275.229357798165,4,2,1,100,1,0
10918,-100,4,1,1,60,0,0
11055,-100,4,2,1,90,0,0
19450,-100,4,2,1,40,0,0
19587,-100,4,2,1,90,0,0
28532,-100,4,2,1,75,0,0
28945,-100,4,2,1,85,0,0
37752,-100,4,1,1,50,0,0
37890,-100,4,2,1,85,0,0
46009,-100,4,1,1,70,0,0
46147,-100,4,1,1,75,0,0
46285,-100,4,1,1,80,0,0
46560,-100,4,2,1,85,0,0
55367,-100,4,2,1,70,0,0
64174,-100,4,2,1,80,0,0
72982,-100,4,2,1,90,0,0
80138,-100,4,2,1,90,0,0
80688,-100,4,2,1,20,0,0
81239,-100,4,2,1,90,0,0
82890,-200,4,1,1,75,0,0
83028,-200,4,1,1,85,0,0
83441,-133.333333333333,4,1,1,80,0,0
83716,-133.333333333333,4,2,1,0,0,0
83991,-100,4,2,1,90,0,1
101606,-200,4,2,1,70,0,0
106009,-133.333333333333,4,2,1,80,0,0
109312,-100,4,1,1,90,0,0
109587,-100,4,1,1,60,0,0
109863,-100,4,1,1,65,0,0
110138,-100,4,1,1,70,0,0
110413,-100,4,2,1,90,0,0
120321,-100,4,1,1,75,0,0
120459,-100,4,1,1,85,0,0
120872,-100,4,1,1,80,0,0
121422,-100,4,2,1,90,0,1
137385,-100,4,2,1,50,0,1
137661,-100,4,2,1,90,0,1
138211,-100,4,2,1,30,0,1
138486,-100,4,2,1,90,0,1
138762,-100,4,2,1,30,0,1
139037,-100,4,2,1,90,0,0
146468,-100,4,1,1,80,0,0
147844,-100,4,1,1,70,0,0
156927,-100,4,1,1,55,0,0
157064,-100,4,1,1,70,0,0
157202,-100,4,1,1,55,0,0
157477,-100,4,1,1,70,0,0
157752,-100,4,1,1,55,0,0
158853,-100,4,1,1,70,0,0
159129,-100,4,1,1,55,0,0
159266,-100,4,1,1,70,0,0
159404,-100,4,1,1,55,0,0
159679,-100,4,1,1,70,0,0
159954,-100,4,1,1,55,0,0
161055,-100,4,1,1,70,0,0
163257,-100,4,1,1,85,0,0
164496,-100,4,1,1,90,0,0
164908,-100,4,1,1,95,0,0
165184,-100,4,1,1,100,0,0
165459,-100,4,1,1,80,0,0
178670,-100,4,1,1,65,0,0
183074,-133.333333333333,4,2,1,80,0,0
190780,-133.333333333333,4,1,1,70,0,0
190918,-100,4,1,1,70,0,0
191881,-100,4,2,1,80,0,0
199587,-100,4,1,1,80,0,0
200138,-100,4,1,1,85,0,0
200413,-100,4,1,1,90,0,0
200688,-100,4,2,1,100,0,1
217752,-133.333333333333,4,2,1,100,0,1
218303,-133.333333333333,4,2,1,100,0,0

[Colours]
Combo1 : 90,0,181
Combo2 : 128,0,0
Combo3 : 0,75,175

[HitObjects]
184,72,10229,5,0
336,120,10505,1,0
256,256,10780,2,0,B|256:272|256:272|264:280|264:280|248:280|248:280|256:288|256:288|256:264|256:280|256:360,1,130
256,344,11330,5,4
200,200,11606,2,0,B|240:160|304:176|328:216,2,130,8|2|8
336,280,12431,5,2
256,144,12707,2,0,B|216:104|152:120|128:160,2,130,8|2|8
120,224,13532,5,2
200,88,13807,2,0,B|240:48|304:64|328:104,2,130,8|2|8
336,168,14633,6,0,B|384:208|424:200|464:176,1,130,2|8
456,180,15046,1,2
328,88,15321,1,0
288,24,15459,2,0,B|224:67|272:139,1,130,8|4
312,256,16009,6,0,B|272:216|208:232|184:272,2,130,8|2|8
176,336,16835,5,2
256,200,17110,2,0,B|296:160|360:176|384:216,2,130,8|2|8
392,280,17936,5,2
312,144,18211,2,0,B|272:104|208:120|184:160,2,130,8|2|8
176,224,19037,6,0,B|128:264|88:256|48:232,1,130,2|8
56,236,19450,1,8
176,224,19725,1,8
200,296,19863,2,0,B|232:320|288:304,1,65,8|0
240,232,20138,5,4
376,152,20413,1,8
240,72,20688,2,0,B|230:58|230:58|232:47|232:47|221:45|221:45|219:56|219:56|235:65|235:65|194:6,1,130,2|8
288,144,21239,5,2
392,264,21514,1,8
456,120,21789,2,0,B|468:109|468:109|479:111|479:111|480:99|480:99|469:98|469:98|462:114|462:114|518:69,1,130,2|8
384,168,22340,5,2
304,304,22615,1,8
232,168,22890,2,0,B|217:160|217:160|206:164|206:164|203:153|203:153|213:150|213:150|224:164|224:164|160:128,1,130,2|8
304,216,23441,5,2
304,216,23716,1,8
168,288,23991,2,0,B|96:288,2,65,2|0|8
320,256,24541,5,4
181,178,24817,1,8
316,95,25092,2,0,B|324:81|324:81|322:70|322:70|333:68|333:68|336:79|336:79|320:88|320:88|360:28,1,130,2|8
269,168,25642,5,2
168,290,25918,1,8
100,147,26193,2,0,B|87:137|87:137|76:138|76:138|74:127|74:127|86:125|86:125|93:142|93:142|36:97,1,130,2|8
174,194,26743,5,2
256,328,27018,1,8
326,191,27294,2,0,B|340:183|340:183|351:187|351:187|354:176|354:176|343:172|343:172|333:187|333:187|397:149,1,130,2|8
255,240,27844,5,2
255,240,27982,1,0
255,240,28119,1,8
280,88,28395,2,0,B|256:160,1,65,8|8
259,149,28670,1,8
144,96,28945,6,0,B|144:176|128:248,1,130,4|8
132,225,29358,1,0
80,280,29496,2,0,B|144:344|192:264,1,130,2|8
187,271,30046,5,2
328,240,30321,1,8
232,128,30596,1,2
264,272,30872,2,0,B|280:352,1,65,8|0
352,336,31147,2,0,B|384:352|432:352|472:296,2,130,2|8|2
376,192,31973,6,0,B|336:192|288:144|288:96,1,130,8|2
288,107,32523,1,8
424,56,32798,1,2
376,192,33074,2,0,B|376:272,1,65,8|0
312,296,33349,2,0,B|288:264|224:256|184:280,2,130,2|8|2
272,160,34174,2,0,B|208:184|168:256,1,130,8|2
320,224,34725,2,0,B|360:192|368:136|320:96,1,130,8|2
200,64,35275,2,0,B|128:64,1,65,8|0
112,136,35551,6,0,B|168:176|160:256,1,130,2|8
296,296,36101,2,0,B|240:256|248:176,1,130,2|8
304,136,36514,2,0,B|280:104|240:112,1,65,0|2
344,216,36927,2,0,B|384:224|424:240,1,65,8|0
400,304,37202,2,0,B|480:304|480:224,1,130,2|8
432,88,37752,5,4
288,72,38028,2,0,B|248:64|224:40,1,65,8|0
192,104,38303,2,0,B|240:160|232:240,1,130,2|8
112,304,38853,2,0,B|176:264|152:168,1,130,2|8
136,336,39404,2,0,B|192:320|208:304,1,65,2|0
264,328,39679,6,0,B|320:272|272:208,1,130,8|2
224,264,40092,1,0
208,192,40230,2,0,B|240:120|320:152,2,130,8|2|8
347,225,41055,5,2
448,328,41330,1,8
488,192,41606,1,2
347,225,41881,2,0,B|312:256|304:288,1,65,8|0
248,240,42156,2,0,B|256:192|248:128|208:104,1,130,2|8
160,80,42569,5,0
223,116,42707,2,0,B|216:176|168:208|128:208,2,130,2|8|2
368,104,43532,1,8
312,232,43807,2,0,B|352:288|432:328,1,130,2|8
312,232,44358,6,0,B|320:272|296:320|224:320,1,130,2|8
208,176,44908,2,0,B|200:136|224:88|296:88,1,130,2|8
312,232,45459,1,2
312,232,46009,5,8
248,256,46147,1,8
176,264,46285,1,8
256,192,46560,12,4,48762
256,112,55367,6,0,B|304:160|384:160,1,130,4|8
256,112,55918,1,2
344,240,56193,1,8
200,184,56468,6,0,B|264:208|344:160,1,130,2|8
200,184,57018,1,2
384,88,57294,1,8
232,280,57569,6,0,B|304:256|312:168,1,130,2|8
232,280,58119,1,2
264,72,58395,1,8
72,152,58670,6,0,B|128:192|224:176,1,130,2|8
352,152,59220,2,0,B|272:152,2,65,2|0|8
256,272,59771,6,0,B|208:224|128:224,1,130,4|8
256,272,60321,1,2
168,144,60596,1,8
312,200,60872,6,0,B|248:176|168:224,1,130,2|8
312,200,61422,1,2
128,296,61697,1,8
280,104,61973,6,0,B|208:128|200:216,1,130,2|8
280,104,62523,1,2
248,312,62798,1,8
440,232,63074,6,0,B|384:192|288:208,1,130,2|8
160,232,63624,2,0,B|240:232,2,65,2|0|8
96,104,64174,6,0,B|152:152|208:168,1,130,4|8
352,168,64725,1,2
272,288,65000,2,0,B|248:240|296:200|272:152,2,130,8|2|8
272,288,65826,1,2
352,168,66101,6,0,B|384:200|432:200,1,65,8|0
408,128,66376,2,0,B|368:72|296:104|288:144,2,130,2|8|2
296,125,67202,1,8
160,160,67477,6,0,B|144:120|160:56|192:40,2,130,2|8|2
160,160,68303,2,0,B|136:192|104:208,1,65,8|0
40,192,68578,2,0,B|32:240|88:288|136:288,1,130,2|8
256,256,69129,2,0,B|296:232|296:232|352:240|392:216,1,130,2|8
432,176,69541,1,0
440,104,69679,2,0,B|384:96|360:168|320:160,2,130,2|8|2
256,112,70505,5,8
256,256,70780,2,0,B|288:304|256:344|256:344|208:344,1,130,2|8
184,280,71193,5,0
112,272,71330,2,0,B|40:248|48:144,1,130,2|8
128,176,71743,1,0
200,208,71881,1,2
256,120,72156,2,0,B|264:80|232:40,1,65,8|0
256,120,72431,2,0,B|200:64|136:56,1,130,2|8
256,120,72982,5,4
216,248,73257,2,0,B|192:296|112:296|88:272,1,130,8|2
101,280,73807,1,8
120,136,74083,1,2
264,160,74358,1,8
304,296,74633,1,2
240,328,74771,2,0,B|224:296|240:256,1,65,0|8
369,229,75184,5,2
472,352,75459,2,0,B|448:304|448:256|464:224,1,130,8|2
360,104,76009,2,0,B|384:152|384:200|368:232,1,130,8|2
328,288,76422,2,0,B|296:304|272:336,1,65,0|8
120,312,76835,2,0,B|163:261|235:261,1,130,2|8
120,160,77385,6,0,B|168:160|208:144|240:88,1,130,2|8
280,40,77798,2,0,B|320:56|320:96,1,65,0|2
296,240,78211,2,0,B|256:208|296:168|296:168|352:168,2,130,8|2|8
448,232,79037,1,2
352,120,79312,6,0,B|288:136,1,65,8|0
232,96,79587,2,0,B|200:120|128:112|112:64,1,130,2|8
80,16,80000,1,0
88,88,80138,2,0,B|96:136|80:184|48:208,1,130,4|8
192,192,80688,1,4
336,192,80963,1,2
192,192,81239,1,2
344,264,81514,6,0,B|320:296|344:336|344:336|272:336,1,130,8|4
256,48,82340,1,2
120,304,82890,1,8
176,256,83028,1,8
208,192,83165,1,8
216,120,83303,1,8
200,48,83441,2,0,B|232:80|296:96|344:72,1,146.24999564141
364,153,83991,6,0,B|356:201|316:233|268:225,1,130,4|8
120,208,84541,1,2
184,240,84679,1,0
128,280,84817,1,8
144,136,85092,6,0,B|208:96|272:136,1,130,2|8
352,248,85642,2,0,B|336:288|296:296,2,65,2|0|8
456,152,86193,6,0,B|440:120|376:120|352:64,1,130,2|8
296,32,86606,2,0,B|272:72|296:112,1,65,0|2
328,152,86881,2,0,B|304:184|264:192,1,65,0|8
208,208,87156,1,0
136,224,87294,2,0,B|128:176|168:128|224:128,1,130,2|8
312,224,87844,2,0,B|320:272|280:320|224:320,1,130,2|8
241,318,88257,1,0
320,304,88395,6,0,B|384:272|456:312,1,130,4|8
360,176,88945,1,2
288,200,89083,2,8,B|280:160|296:128,1,65,0|8
168,232,89496,2,0,B|176:184|168:144|120:112,1,130,2|8
184,72,89908,2,2,B|256:88|312:16,1,130
300,30,90321,1,8
240,200,90596,6,0,B|208:224|208:232|208:240|232:272|232:272|280:272,1,130,2|8
273,272,91009,1,0
328,224,91147,2,0,B|369:224|369:224|393:256|393:264|393:272|361:296,1,130,2|8
352,152,91697,2,0,B|432:160|448:64,1,130,2|8
444,80,92110,1,8
304,40,92385,2,0,B|264:56|248:88,1,65,0|8
352,152,92798,6,0,B|400:224,1,65,4|0
368,280,93074,2,0,B|304:248|224:272,2,130,8|2|8
144,272,93899,6,0,B|160:216|232:168,1,130,2|8
323,257,94450,2,0,B|312:288|280:304,1,65,2|0
208,312,94725,1,8
208,312,95000,6,0,B|256:296|304:312|352:352,1,130,2|8
400,312,95413,1,0
464,336,95551,2,0,B|488:296|448:240|400:240,1,130,2|8
376,104,96101,6,0,B|336:72|328:120,1,65,2|8
304,184,96376,2,0,B|264:152|256:200,1,65,8|0
296,264,96652,2,0,B|320:224|368:216|416:248,1,130,2|8
256,320,97202,6,0,B|184:352|144:280,1,130,4|8
136,216,97615,1,0
259,168,97890,2,0,B|272:192|264:232,1,65,0|8
336,96,98303,6,0,B|392:136|408:224,1,130,2|8
260,167,98853,1,2
196,143,98991,1,0
124,135,99129,1,8
64,224,99404,6,0,B|112:240|136:232,1,65,2|0
200,256,99679,2,0,B|240:280|256:304,1,65,8|0
320,312,99954,2,0,B|352:336|400:344,1,65,2|0
320,312,100230,6,0,B|392:312|440:288|464:264,1,130,8|2
320,312,100780,1,8
256,184,101055,2,0,B|256:152|256:152|264:144|264:144|248:144|248:144|256:136|256:136|256:64,1,130,4|0
352,120,101606,6,0,B|368:160|400:176,1,65,0|2
384,272,102156,2,0,B|352:240|320:240,1,65,0|2
160,120,102707,6,0,B|144:160|112:176,1,65,0|2
128,272,103257,2,0,B|160:240|192:240,1,65,0|2
256,168,103807,6,0,B|256:232,1,65,0|2
360,256,104358,2,0,B|360:320,1,65,0|2
256,168,104908,6,0,B|256:232,1,65,0|2
152,256,105459,2,0,B|152:320,1,65,0|2
352,304,106009,6,0,B|352:248|288:216,1,97.4999970942737,4|2
272,296,106422,2,0,B|272:352,1,48.7499985471368,0|2
144,256,106835,2,0,B|144:192,1,48.7499985471368,2|0
64,200,107110,2,0,B|64:144|128:112,1,97.4999970942737,2|2
256,64,107661,1,2
256,64,108211,6,0,B|256:96|256:96|272:104|240:104|256:112|256:112|256:160,1,97.4999970942737,0|2
256,312,108762,2,0,B|256:271|256:271|240:263|272:263|256:255|256:255|256:223,1,97.4999970942737,0|2
256,64,109312,6,8,B|256:88|256:88|272:104|240:104|256:120|256:120|256:104|256:104|256:160,1,130
256,312,109863,1,8
200,264,110000,1,8
256,216,110138,1,8
312,264,110275,1,8
256,216,110413,6,0,B|192:168|136:224,1,130,4|8
120,296,110826,2,0,B|80:288|64:240,1,65,0|2
72,72,111239,2,0,B|72:88|72:88|80:96|80:96|64:96|64:96|72:104|72:104|72:208,1,130,8|2
208,104,111789,2,0,B|272:104|328:48,1,130,8|2
256,216,112340,5,8
256,216,112477,1,0
176,200,112615,2,0,B|152:168|104:152,1,65,2|0
176,200,112890,2,0,B|184:120|96:80,2,130,8|2|8
328,168,113716,2,0,B|352:208|400:232|448:232,1,130,2|8
456,152,114129,1,0
496,88,114266,2,0,B|416:48|384:120,1,130,2|8
232,112,114817,6,0,B|184:152|128:144,1,97.5,2|0
144,184,115092,2,0,B|176:216|192:280,1,97.5,8|0
192,312,115367,2,0,B|224:272|288:248|328:256,1,130,2|8
464,272,115918,1,2
304,254,116193,1,8
400,128,116468,2,0,B|416:176|368:224|392:264,2,130,2|8|2
256,184,117294,6,0,B|264:152|248:128|264:104,1,65,8|0
256,184,117569,2,0,B|288:240|232:288|256:320,2,130,2|8|2
104,232,118395,1,8
104,232,118670,1,2
256,184,118945,2,0,B|192:184,1,65,8|0
216,256,119220,6,0,B|264:264|304:312|304:352,1,130,2|8
296,128,119771,2,0,B|248:120|208:72|208:32,1,130,2|8
256,192,120321,5,8
256,192,120459,1,8
256,192,120596,1,8
256,192,120872,1,0
440,240,121422,6,0,B|416:304|344:328,1,130,4|8
192,304,121973,1,2
272,312,122110,1,0
192,304,122248,2,0,B|144:280|128:240,1,65,8|0
208,224,122523,6,0,B|152:160|80:216,1,130,2|8
232,136,123074,2,0,B|288:200|360:144,1,130,2|8
296,96,123486,1,0
283,173,123624,2,0,B|312:224|264:272|295:310,1,130,2|8
360,272,124037,2,0,B|400:272|424:296,1,65,0|2
480,248,124312,2,0,B|472:216|496:176,1,65,0|8
360,272,124725,6,0,B|328:304|248:296|232:256,2,130,2|8|2
224,192,125551,2,0,B|272:184|296:216,1,65,8|0
241,269,125826,2,0,B|272:192|361:173,1,130,2|8
472,112,126376,2,0,B|496:176|464:240,2,130,2|8|2
464,238,127202,2,0,B|448:280|400:288,1,65,8|0
392,208,127477,2,0,B|432:144|512:176,2,130,2|8|2
256,280,128303,5,8
128,192,128578,1,2
256,104,128853,1,8
384,192,129129,2,0,B|336:168|336:136,1,65,2|0
408,112,129404,2,0,B|456:128|464:176,1,65,8|0
384,192,129679,2,0,B|312:152|336:80,1,130,2|8
128,192,130230,6,0,B|200:232|176:304,1,130,2|8
104,272,130642,1,0
120,352,130780,2,0,B|72:352|56:328,1,65,2|0
104,272,131055,2,0,B|176:272|208:344,2,130,8|2|8
240,192,131881,2,0,B|384:192,1,130,2|8
240,192,132431,6,0,B|192:128,1,65,2|0
152,200,132707,2,0,B|104:264,1,65,8|0
64,192,132982,2,0,B|16:128,2,65,2|0|8
200,272,133532,5,2
264,232,133670,1,8
312,176,133807,1,8
336,104,133945,1,0
352,184,134083,2,0,B|360:256|432:288,2,130,2|8|4
424,284,134908,5,8
424,360,135046,2,2,B|472:360|512:312|488:248,1,130
448,208,135459,2,0,B|480:176|480:176|496:128|448:88,1,130,8|2
312,144,136009,2,0,B|280:176|280:176|264:224|312:264,2,130,8|2|8
392,280,136835,2,0,B|368:352|280:344,2,130,4|8|4
240,256,137661,2,0,B|160:256,1,65,8|8
176,336,137936,2,0,B|120:336|88:288|104:232,1,130,6|8
216,152,138486,5,8
256,224,138624,1,8
256,304,138762,2,8,B|280:328|320:344,1,65
256,192,139037,12,4,141239
256,192,146468,6,0,B|256:208|256:208|264:216|264:216|248:216|248:216|256:224|256:224|256:216|256:216|256:296,1,130,0|8
184,248,146881,2,8,B|168:224|184:168,3,65
224,120,147431,2,8,B|264:104|304:128,2,65
144,104,147844,6,0,B|64:136|88:232,1,130,0|8
184,248,148257,2,0,B|264:216|240:120,1,130,0|0
216,72,148670,1,8
428,206,148945,6,0,B|448:136|368:104,1,130,0|8
232,176,149496,1,0
280,232,149633,1,0
304,160,149771,2,0,B|280:88|192:104,2,130,8|0|8
160,216,150596,6,0,B|184:288|272:272,1,130,0|8
328,128,151147,2,0,B|304:56|216:72,1,130,0|8
304,208,151697,1,0
384,192,151835,1,0
304,208,151973,2,0,B|224:232,1,65,8|0
168,248,152248,6,0,B|40:280,1,130,4|8
136,160,152798,2,0,B|262:128,1,130,0|8
392,224,153349,2,0,B|264:256,1,130,0|8
112,296,153899,1,0
192,280,154037,1,0
136,224,154174,2,0,B|96:168|96:168|96:96,2,130,8|0|8
288,200,155000,6,0,B|288:261|288:261|248:317,2,130,0|8|0
256,48,155826,2,8,B|256:120,1,65
200,168,156101,2,0,B|88:232,1,130,0|8
232,280,156652,6,0,B|296:248|384:288,1,130,0|2
424,328,157064,1,8
400,256,157202,2,0,B|384:176|424:120,1,130,0|2
448,56,157615,1,8
384,96,157752,2,0,B|320:136|248:112,1,130,0|2
136,208,158303,2,0,B|200:168|272:192,1,130,0|2
280,104,158853,6,0,B|216:136|128:96,1,130,4|2
88,56,159266,1,8
112,128,159404,2,0,B|128:208|88:264,1,130
64,328,159817,1,8
128,288,159954,2,0,B|192:248|264:272,1,130,0|8
376,176,160505,2,0,B|312:216|240:192,1,130,0|2
256,40,161055,6,0,B|256:112,1,65,4|8
192,152,161330,2,0,B|192:240,1,65,2|0
112,208,161606,2,0,B|112:248|112:248|136:296|136:296|136:336,2,130,0|2|0
112,208,162431,1,2
256,272,162707,2,0,B|296:216,1,65,0|8
368,224,162982,6,0,B|448:112,1,130,2|4
384,64,163395,2,8,B|328:88|240:80,1,130
200,128,163807,2,8,B|104:120|56:160,1,130
40,304,164358,1,0
112,312,164496,6,8,B|168:312,2,32.5
136,240,164771,2,0,B|192:240|216:280,1,65
240,328,165046,2,0,B|280:344|320:336,2,65
280,256,165459,6,0,B|248:184|280:128,1,130,0|8
320,64,165872,1,0
392,200,166147,2,0,B|416:240|448:240,1,65,0|8
232,128,166560,6,0,B|264:200|232:256,1,130,0|8
192,320,166973,1,0
120,184,167248,2,0,B|96:144|64:144,1,65,0|8
208,224,167661,6,0,B|256:264|320:256|352:232,1,130,0|8
392,192,168074,2,0,B|404:181|412:117|372:69,1,130
296,64,168486,1,8
328,216,168762,6,0,B|307:156|248:130|208:134,1,130,0|8
153,148,169174,2,0,B|137:150|97:201|106:263,1,130
170,307,169587,1,8
328,320,169863,6,0,B|360:336,2,32.5
376,256,170138,2,0,B|344:232|288:248,1,65,8|0
256,296,170413,2,0,B|216:224|272:176,2,130,0|8|0
120,216,171239,6,0,B|160:288|104:336,2,130,0|8|0
256,136,172064,2,0,B|304:192|336:200,1,97.5
368,208,172340,2,0,B|408:224|432:272,1,65,8|0
352,288,172615,2,0,B|304:328|304:328|216:328,1,130,0|8
176,184,173165,6,0,B|108:184|108:184|60:224,1,130,0|8
144,96,173716,2,0,B|208:80,1,65
272,128,173991,2,0,B|344:112|424:128,1,130,8|0
272,128,174541,5,8
272,128,174679,1,8
168,248,174954,2,0,B|168:320,1,65,0|8
320,272,175367,2,0,B|320:224|224:256|224:176,1,130,0|8
200,120,175780,1,8
352,128,176055,2,0,B|344:176|304:200,1,65,0|8
200,120,176468,5,0
248,264,176743,1,8
248,264,176881,1,8
352,144,177156,2,0,B|352:72,1,65,0|8
200,120,177569,2,0,B|200:168|296:136|296:216,1,130,0|8
320,272,177982,1,8
168,264,178257,2,0,B|176:216|216:192,1,65,0|8
328,120,178670,6,0,B|408:128|424:208,1,130,0|10
184,264,179220,2,0,B|104:256|88:176,1,130,0|10
350,153,179771,6,0,B|420:192|404:272,1,130,0|10
161,230,180321,2,0,B|91:191|107:111,1,130,0|10
256,80,180872,6,0,B|280:128|232:168|256:224,2,130,0|10|0
256,80,181697,1,10
250,207,181973,5,4
328,344,182248,1,4
176,344,182523,1,4
320,160,183074,6,0,B|256:104|184:160,1,146.24999564141,0|2
136,216,183624,1,2
368,264,184037,1,2
352,336,184174,2,0,B|320:336|304:304|304:304|256:312,1,97.4999970942737,0|2
112,344,184725,1,0
208,224,185000,2,0,B|192:280,1,48.7499985471368,2|0
128,232,185275,2,0,B|136:184|128:120,1,97.4999970942737,2|0
384,192,185826,5,2
96,72,186376,1,2
136,224,186652,1,2
256,120,186927,1,2
136,224,187202,5,2
208,256,187340,1,0
200,176,187477,2,0,B|160:136|104:152,1,97.4999970942737,2|0
144,304,188028,1,2
368,88,188578,5,2
368,240,188853,1,2
232,168,189129,1,2
368,240,189404,5,8
296,272,189541,1,8
304,192,189679,2,0,B|344:152|400:168,1,97.4999970942737,4|0
360,320,190229,1,0
216,264,190505,2,0,B|112:264,1,97.4999970942737,0|8
64,208,190918,5,8
136,192,191055,1,8
118,264,191193,1,8
136,192,191330,6,8,B|200:168,2,65
320,280,191881,6,0,B|456:280,1,130,4|8
440,200,192294,1,0
360,192,192431,2,0,B|376:112|472:120,2,130,2|8|2
352,352,193257,1,8
224,264,193532,2,0,B|144:264,2,65,2|0|8
360,192,194083,5,2
288,168,194220,1,0
224,128,194358,2,0,B|160:104|72:136,1,130,8|2
128,200,194771,2,0,B|160:192|200:200,1,65,0|8
256,240,195046,1,0
296,304,195184,6,0,B|328:336|368:336,1,65,2|0
360,256,195459,2,0,B|400:232|448:272|496:248,2,130,8|2|8
232,168,196285,6,0,B|160:208|192:288,1,130,2|8
256,240,196697,1,0
280,312,196835,2,0,B|352:272|320:192,1,130,2|8
208,96,197385,5,2
256,240,197661,1,8
376,336,197936,1,2
304,96,198486,5,2
256,240,198762,1,8
136,336,199037,2,0,B|160:272|136:192,1,130,2|8
48,80,199587,6,0,B|88:136|176:128,1,130,0|8
256,240,200138,1,8
256,160,200275,1,8
256,160,200413,2,8,B|256:88,1,65
336,96,200688,6,0,B|352:144|352:144|352:176|352:176|368:224,1,130,4|8
288,216,201101,2,0,B|272:264|272:264|272:296|272:296|256:344,1,130,2|2
192,296,201514,1,8
72,192,201789,5,2
224,144,202064,1,8
192,296,202340,1,2
144,152,202615,2,8,B|120:80,1,65
200,64,202890,2,0,B|240:64|272:88,1,65,2|0
264,160,203165,2,0,B|304:160|336:184,1,65,8|0
336,256,203441,2,0,B|376:256|408:280,1,65,2|0
472,304,203716,2,0,B|488:256|448:216|448:216|480:160,2,130,8|2|8
336,256,204541,6,0,B|272:240|272:240|200:288,1,130,2|8
176,128,205092,2,0,B|240:144|240:144|312:96,1,130,4|8
440,160,205642,1,2
360,168,205780,1,0
288,192,205918,1,8
440,160,206193,6,0,B|480:240,1,65,2|0
424,280,206468,2,0,B|368:248|288:264,2,130,8|2|8
280,336,207294,5,2
144,256,207569,1,8
288,192,207844,1,2
200,320,208119,2,8,B|176:344|128:344,1,65
72,296,208395,2,0,B|48:224|112:176,1,130,2|8
240,256,208945,6,0,B|312:304|368:224,1,130,2|8
288,192,209358,1,8
304,272,209496,2,0,B|344:320|344:320|328:320|328:320|376:384,2,130,2|8|2
304,120,210321,1,8
168,192,210596,5,2
304,272,210872,1,8
304,120,211147,2,0,B|304:208,1,65,2|0
240,224,211422,6,0,B|224:264|224:264|240:304|240:304|224:368,1,130,8|2
160,312,211835,2,0,B|136:264|160:232,1,65,0|8
176,176,212110,1,0
248,144,212248,1,2
240,224,212385,5,0
112,216,212523,1,8
184,104,212661,1,0
184,104,212798,6,0,B|208:64|280:56|312:104,2,130,2|8|2
176,264,213624,2,8,B|176:328,1,65
256,312,213899,2,0,B|272:272|312:240|376:232,1,130,4|8
432,232,214312,1,0
360,192,214450,2,0,B|296:160|272:72,1,130,2|8
264,16,214863,1,0
208,72,215000,1,2
280,208,215275,1,8
128,192,215551,1,2
272,128,215826,5,8
352,120,215963,1,8
432,136,216101,2,0,B|432:96|408:56,1,65,2|0
344,256,216376,2,0,B|369:224|375:178,1,65,8|0
200,304,216652,2,0,B|239:301|278:275,2,65,2|0|2
48,304,217202,5,12
120,272,217340,1,8
176,216,217477,1,8
216,152,217615,1,8
232,80,217752,2,8,B|272:112|328:112,1,97.4999970942737
322,111,218165,1,8
322,111,218303,1,4
