osu file format v8

[General]
AudioFilename: kokoro-game-box.mp3
AudioLeadIn: 0
PreviewTime: 30505
Countdown: 1
SampleSet: Normal
StackLeniency: 0.7
Mode: 0
LetterboxInBreaks: 1

[Editor]
Bookmarks: 71694
DistanceSpacing: 0.899999976158142
BeatDivisor: 4
GridSize: 8

[Metadata]
Title:KOKORO-GAME-BOX
Artist:Hatsune Miku
Creator:ztrot
Version:Crazy
Source:Yuuyu-P
Tags:Vocaloid Vocaloid2 Shinde Krisom

[Difficulty]
HPDrainRate:7
CircleSize:4
OverallDifficulty:8
ApproachRate:8
SliderMultiplier:2
SliderTickRate:1

[Events]
//Background and Video events
0,0,"Background.png"
//Break Periods
2,93137,99809
//Storyboard Layer 0 (Background)
//Storyboard Layer 1 (Fail)
//Storyboard Layer 2 (Pass)
//Storyboard Layer 3 (Foreground)
//Storyboard Sound Samples
//Background Colour Transformations
3,100,163,162,255

[TimingPoints]
12505.4190644181,324.324324324324,4,1,1,70,1,0

[HitObjects]
72,64,12505,1,0
256,48,12829,1,8
160,224,13154,1,0
352,224,13478,1,8
448,56,13802,1,0
256,144,14127,1,8
256,360,14451,5,0
304,280,14613,1,0
208,280,14775,1,8
176,120,15100,2,0,B|32:136|88:280,1,200,0|8
24,88,15748,1,0
88,24,15910,1,0
176,40,16072,1,8
256,200,16397,6,0,B|384:248|112:288|272:336,1,200,0|8
432,344,17045,1,0
480,264,17208,1,0
432,184,17370,1,8
256,152,17694,2,0,B|192:32|192:272|120:136,1,200,2|8
32,296,18343,1,0
104,240,18505,1,0
120,328,18667,1,8
256,208,18991,6,0,B|344:288|448:200,1,200,2|8
368,40,19640,1,0
328,120,19802,1,0
256,64,19964,1,8
72,64,20289,2,0,B|-8:152|72:264,1,200,2|8
216,152,20937,1,0
256,232,21100,1,0
296,152,21262,1,8
48,40,21748,6,0,B|48:160|176:176,1,200,2|8
256,16,22397,1,2
256,104,22559,1,8
464,40,22883,6,0,B|464:160|336:176,1,200,2|8
256,328,23532,1,0
328,280,23694,1,0
256,224,23856,1,8
72,232,24181,2,0,B|16:288|88:320,2,100,8|2|8
256,224,24829,1,0
184,280,24991,1,0
256,328,25154,1,8
424,272,25478,6,0,B|512:192|416:88,1,200,2|8
256,32,26127,1,0
304,104,26289,1,0
208,104,26451,1,8
256,280,26775,2,0,B|160:352|56:272,1,200,2|8
48,104,27424,1,0
120,48,27586,1,0
128,136,27748,1,8
256,280,28072,5,4
464,320,28397,1,2
464,320,28559,1,4
384,72,28883,1,2
384,72,29045,1,4
48,320,29370,1,2
48,320,29532,1,4
128,72,29856,1,2
128,72,30018,1,4
424,40,30505,5,0
464,120,30667,1,2
376,128,30829,2,0,B|352:72|280:96,1,100
256,176,31154,1,0
218,92,31316,1,2
136,128,31478,2,0,B|88:32,1,100
48,160,31802,5,0
48,160,31964,1,2
120,208,32127,1,0
208,232,32289,2,0,B|312:232,1,100
392,208,32613,1,2
464,160,32775,2,0,B|440:96|504:80,1,100
400,48,33100,5,0
304,56,33262,2,0,B|200:56|160:176,1,200,2|0
112,48,33748,5,0
208,56,33910,2,0,B|312:56|352:176,1,200,2|0
256,328,34559,1,2
256,328,34721,2,0,B|256:224,1,100,0|2
256,232,35045,1,2
48,40,35694,5,0
128,80,35856,1,2
208,32,36018,2,0,B|264:128,1,100
464,40,36343,5,0
384,80,36505,1,2
304,32,36667,2,0,B|248:128,1,100
184,200,36991,1,0
328,200,37154,1,2
208,272,37316,1,0
304,272,37478,1,2
256,352,37640,1,0
208,272,37802,1,2
304,272,37964,1,0
256,192,38127,1,2
40,192,38451,5,2
104,24,38775,1,2
256,128,39100,1,2
408,24,39424,1,2
464,192,39748,2,0,B|496:304|360:360|240:288,1,300
40,344,40883,5,0
80,264,41045,1,6
168,264,41208,2,0,B|264:320,1,100
472,344,41532,5,0
432,264,41694,1,2
344,264,41856,2,0,B|248:320,1,100
256,224,42181,5,0
304,152,42343,1,2
208,152,42505,1,0
304,80,42667,1,2
208,80,42829,1,0
256,0,42991,1,2
168,80,43154,1,0
344,80,43316,1,2
256,224,43478,1,0
256,312,43640,5,4
40,312,43964,1,2
136,88,44289,1,4
256,312,44613,1,2
472,312,44937,1,2
400,256,45100,1,0
472,200,45262,1,2
400,144,45424,1,4
40,192,46072,5,0
96,264,46235,1,6
176,304,46397,2,0,B|272:232,1,100
472,192,46721,5,0
416,264,46883,1,2
336,304,47045,2,0,B|240:232,1,100
200,168,47370,1,0
256,96,47532,1,4
312,168,47694,1,0
368,96,47856,1,0
256,16,48018,1,0
144,96,48181,1,6
256,184,48343,1,0
256,184,48505,1,0
360,256,48829,5,2
152,256,49154,1,8
424,192,49478,1,2
88,192,49802,1,8
256,184,50127,2,0,B|256:320|400:320|400:184|304:120|304:120|408:88,1,400,2|0
120,352,51424,5,2
40,192,51748,2,0,B|16:80|144:48,1,200,8|2
144,136,52235,1,0
200,208,52397,1,8
256,136,52559,1,0
312,208,52721,2,0,B|408:280|504:208,1,200,2|8
456,128,53208,5,0
408,48,53370,1,2
328,96,53532,1,0
256,40,53694,1,8
256,40,53856,1,0
192,96,54018,5,2
256,336,54343,1,8
328,96,54667,1,2
256,264,54991,1,8
256,80,55316,1,2
208,152,55478,1,0
296,184,55640,1,8
232,248,55802,2,0,B|168:352|144:224|144:224|112:352|56:248,1,300,6|8
144,96,56613,1,2
368,96,56937,6,0,B|456:168|408:288,1,200,8|2
328,296,57424,2,8,B|240:224|288:104,1,200,0|0
296,24,57910,2,0,B|184:16|136:128,2,200,2|8|2
384,56,58721,1,0
360,144,58883,1,8
256,288,59208,5,4
56,128,59532,1,8
256,288,59856,1,4
456,128,60181,1,8
208,96,60505,1,2
208,96,60667,2,0,B|256:272|304:80,1,200,2|2
56,168,61478,6,0,B|104:56|240:80,1,200,2|4
295,308,62127,2,0,B|408:328|456:216,1,200,2|4
216,77,62775,2,0,B|104:56|56:168,1,200,2|4
295,77,63424,2,0,B|408:56|456:168,1,200,2|4
256,144,64072,1,2
120,256,64397,2,0,B|256:376|400:248,2,300,4|0|4
352,184,65694,2,0,B|256:8|256:8|152:184,1,400,2|4
256,56,66667,5,0
480,136,66991,1,2
480,136,67154,1,0
480,136,67316,1,4
104,280,67640,1,2
104,280,67802,1,0
104,280,67964,1,4
408,280,68289,1,2
408,280,68451,1,0
408,280,68613,1,4
32,136,68937,1,2
32,136,69100,1,0
32,136,69262,1,4
184,32,69586,5,2
256,80,69748,1,0
328,136,69910,1,2
256,184,70072,1,0
184,232,70235,1,2
256,288,70397,1,0
328,232,70559,1,2
256,184,70721,1,0
184,136,70883,2,0,B|256:0|344:160,2,200,2|2|2
72,72,72018,6,0,B|120:32|168:72,1,100,0|4
256,144,72343,1,0
256,144,72505,1,8
348,68,72667,2,0,B|392:32|440:72,1,100,0|2
392,144,72991,1,0
320,200,73154,1,8
256,264,73316,1,0
192,200,73478,1,2
120,144,73640,1,0
80,320,73964,5,0
80,232,74127,2,0,B|256:336,1,200,2|0
256,240,74613,2,0,B|448:344,1,200,2|0
432,248,75100,2,0,B|248:152,1,200,2|2
200,80,75586,1,2
312,80,75748,1,8
200,184,75910,1,0
312,184,76072,1,2
256,280,76235,1,0
256,280,76397,1,0
144,280,76559,2,0,B|24:256|48:128,1,200,2|4
200,80,77208,5,0
256,152,77370,1,2
312,80,77532,1,0
256,152,77694,1,8
312,224,77856,1,0
200,224,78018,1,2
256,296,78181,1,0
328,160,78343,1,8
184,160,78505,1,0
120,128,78667,5,0
256,40,78991,1,8
256,40,79154,1,2
392,128,79478,1,0
344,208,79640,1,8
344,296,79802,1,0
256,344,79964,5,2
256,344,80127,1,0
64,192,80451,1,2
64,192,80613,1,2
200,48,80937,5,0
312,48,81100,1,0
152,120,81262,1,2
360,120,81424,1,2
256,200,81586,1,0
256,88,81748,1,0
256,280,82072,1,0
72,80,82559,5,4
160,48,82721,1,0
232,104,82883,1,8
256,192,83045,1,0
440,80,83208,5,0
352,48,83370,1,0
280,104,83532,1,8
256,192,83694,1,0
152,216,83856,6,0,B|208:304|336:272,1,200,2|0
304,360,84343,2,0,B|200:376|112:296,1,200,2|0
64,232,84829,2,0,B|0:136|96:48,1,200,10|0
160,112,85316,2,0,B|256:152|360:112,1,200,2|0
422,53,85802,1,0
452,137,85964,1,0
395,207,86127,5,8
464,264,86289,1,0
328,272,86451,1,2
400,328,86613,1,0
328,272,86775,1,8
256,328,86937,1,4
256,144,87262,1,2
256,192,87748,12,6,90343
80,80,90991,5,6
440,320,91640,1,6
176,232,92289,1,2
256,104,92451,1,0
336,232,92613,1,2
256,24,92937,1,4
416,80,100559,5,0
464,160,100721,1,2
448,248,100883,2,0,B|424:304|352:280,1,100
376,192,101208,1,0
296,232,101370,1,2
208,256,101532,2,0,B|160:352,1,100
120,264,101856,5,0
40,216,102018,1,2
120,168,102181,1,0
208,152,102343,2,0,B|312:152,1,100
392,176,102667,1,2
464,224,102829,2,0,B|440:288|504:304,1,100
392,328,103154,5,0
304,328,103316,2,0,B|200:328|160:208,1,200,2|0
112,336,103802,5,0
200,328,103964,2,0,B|304:328|344:208,1,200,2|0
184,120,104613,1,2
320,120,104775,2,0,B|256:200,1,100,0|2
168,200,105099,1,2
432,192,105748,5,0
344,192,105910,1,2
256,192,106072,2,0,B|312:96,1,100
80,192,106397,5,0
168,200,106559,1,2
256,192,106721,2,0,B|200:96,1,100
256,32,107045,1,0
304,112,107208,1,2
256,192,107370,1,0
208,112,107532,1,2
256,32,107694,5,0
168,112,107856,1,2
256,232,108018,1,0
344,112,108181,1,2
40,192,108505,5,2
208,112,108829,1,2
256,256,109154,1,2
400,360,109478,1,2
464,192,109802,2,0,B|496:80|360:24|240:96,1,300
64,344,110937,5,0
152,320,111099,1,6
152,232,111262,2,0,B|248:176,1,100
448,344,111586,5,0
360,320,111748,1,2
360,232,111910,2,0,B|264:176,1,100
256,96,112235,5,0
304,176,112397,1,2
208,176,112559,1,0
256,248,112721,1,2
256,336,112883,1,0
160,288,113045,1,2
352,288,113208,1,0
160,288,113370,1,2
256,160,113532,1,0
256,72,113694,5,4
40,72,114018,1,2
136,296,114343,1,4
256,72,114667,1,2
472,72,114991,1,2
400,128,115154,1,0
352,48,115316,1,2
304,128,115478,1,4
40,192,116126,5,0
136,192,116289,1,6
88,272,116451,2,0,B|184:344,1,100
472,192,116775,5,0
376,192,116937,1,2
424,272,117099,2,0,B|328:344,1,100
256,288,117424,1,0
312,216,117586,1,4
200,216,117748,1,0
368,288,117910,1,0
256,368,118072,1,0
144,288,118235,1,6
256,200,118397,1,0
256,200,118559,1,0
360,128,118883,5,2
152,128,119208,1,0
256,352,119532,1,2
256,56,119856,1,0
256,200,120181,2,0,B|256:64|400:64|400:200|304:264|304:264|408:264,1,400,2|0
120,32,121478,5,2
40,192,121802,2,0,B|16:304|144:336,1,200,8|2
224,304,122289,1,0
168,232,122451,1,8
120,160,122613,1,0
112,72,122775,2,0,B|208:0|304:72,1,200,2|8
360,136,123262,5,0
432,184,123424,1,2
360,232,123586,1,0
280,184,123748,1,8
256,272,123910,1,0
168,288,124072,5,2
256,48,124397,1,8
344,288,124721,1,2
256,120,125045,1,8
256,304,125370,1,2
208,232,125532,1,0
296,200,125694,1,8
224,144,125856,2,0,B|288:40|312:168|312:168|344:40|400:144,1,300,6|8
256,256,126667,1,2
432,280,126991,6,0,B|520:208|472:88,1,200,8|2
408,184,127478,2,0,B|320:256|368:376,1,200,0|0
272,360,127964,2,0,B|160:368|112:256,2,200,2|8|2
224,280,128775,1,0
168,208,128937,1,0
256,48,129262,5,4
56,256,129586,1,0
256,48,129910,1,4
456,256,130235,1,0
208,288,130559,1,2
208,288,130721,2,0,B|256:112|304:304,1,200,2|2
56,216,131532,6,0,B|104:328|240:304,1,200,2|4
296,56,132181,2,0,B|409:36|457:148,1,200,2|4
216,307,132829,2,0,B|104:328|56:216,1,200,2|4
296,56,133478,2,0,B|409:35|457:147,1,200,2|4
256,240,134126,1,2
120,128,134451,2,0,B|256:8|400:136,2,300,4|0|4
352,200,135748,2,0,B|256:376|256:376|152:200,1,400,2|4
256,328,136721,5,0
480,248,137045,1,2
416,184,137208,1,0
376,264,137370,1,4
104,104,137694,1,2
32,48,137856,1,0
24,136,138018,1,4
408,104,138343,1,2
320,120,138505,1,0
344,32,138667,1,4
32,248,138991,1,2
56,336,139154,1,0
112,264,139316,1,4
328,344,139640,5,2
248,296,139802,1,0
328,248,139964,1,2
256,200,140126,1,0
184,248,140289,1,2
184,152,140451,1,0
256,96,140613,1,2
328,152,140775,1,0
256,200,140937,2,0,B|328:336|416:176,2,200,2|2|2
72,312,142072,6,0,B|120:352|168:312,1,100,0|4
256,240,142397,1,0
256,240,142559,1,0
348,316,142721,2,0,B|392:352|440:312,1,100,0|2
392,240,143045,1,0
320,184,143208,1,0
256,120,143370,1,0
192,184,143532,1,2
120,240,143694,1,0
80,64,144018,5,0
80,152,144181,2,0,B|256:48,1,200,2|0
256,144,144667,2,0,B|448:40,1,200,2|0
432,136,145154,2,0,B|248:232,1,200,2|0
200,304,145640,1,2
312,304,145802,1,0
200,200,145964,1,0
312,200,146126,1,2
256,104,146289,1,0
256,104,146451,1,0
144,104,146613,2,0,B|24:128|48:256,1,200,2|4
200,304,147262,5,0
256,232,147424,1,2
312,304,147586,1,0
256,232,147748,1,0
312,160,147910,1,0
200,160,148072,1,2
256,88,148235,1,0
328,224,148397,1,0
184,224,148559,1,0
120,256,148721,5,0
256,344,149045,1,0
256,344,149208,1,2
392,256,149532,1,0
344,176,149694,1,0
344,88,149856,1,0
256,40,150018,5,2
256,40,150181,1,0
64,192,150505,1,2
64,192,150667,1,2
200,336,150991,5,0
312,336,151154,1,0
152,264,151316,1,2
360,264,151478,1,2
256,184,151640,1,0
256,296,151802,1,0
256,104,152126,1,0
72,304,152613,5,4
160,336,152775,1,0
232,280,152937,1,0
256,192,153099,1,0
440,304,153262,5,0
352,336,153424,1,0
280,280,153586,1,0
256,192,153748,1,0
152,168,153910,6,0,B|208:80|336:112,1,200,2|0
304,24,154397,2,0,B|200:8|112:88,1,200,2|0
64,152,154883,2,0,B|0:248|96:336,1,200,10|0
160,272,155370,2,0,B|256:232|360:272,1,200,2|0
422,331,155856,1,0
452,247,156018,1,0
395,177,156181,5,0
464,120,156343,1,0
328,112,156505,1,2
400,56,156667,1,0
328,112,156829,1,0
256,56,156991,1,4
256,240,157316,5,2
256,192,157802,12,0,160397
256,192,160559,12,0,161694
256,368,162667,5,0
256,192,162991,1,0
80,192,163316,1,8
168,192,163478,1,0
344,192,163802,1,0
432,192,163964,1,8
256,16,164289,5,0
256,192,164613,1,8
168,192,164775,1,0
344,192,165100,1,0
432,192,165262,1,8
256,192,165586,12,4,167532
