osu file format v6

[General]
AudioFilename: Hatsune Miku - Joker.mp3
AudioLeadIn: 0
PreviewTime: 82422
Countdown: 0
SampleSet: Normal
StackLeniency: 0.7
Mode: 0
LetterboxInBreaks: 1

[Editor]
DistanceSpacing: 1
BeatDivisor: 4
GridSize: 8

[Metadata]
Title:Joker
Artist:Hatsune Miku
Creator:Saturos-fangirl
Version:SFG Insane
Source:Chibideko-P
Tags:

[Difficulty]
HPDrainRate:6
CircleSize:5
OverallDifficulty:8
SliderMultiplier:1.9
SliderTickRate:2

[Events]
//Background and Video events
Video,0,"Joker - Hatsune_Miku_HQ.avi"
0,0,"mikuJokerWall.jpg"
//Break Periods
2,42481,48292
2,96143,102376
//Storyboard Layer 0 (Background)
//Storyboard Layer 1 (Fail)
//Storyboard Layer 2 (Pass)
//Storyboard Layer 3 (Foreground)
//Storyboard Sound Samples
//Background Colour Transformations
3,100,163,162,255

[TimingPoints]
11859,422.535211267606,4,1,0,84,1,0
48205,-100,4,2,0,84,0,0
55697,-100,4,1,0,84,0,0
69189,-100,4,2,2,95,0,0
77240,-100,4,2,1,94,0,0
78085,-100,4,2,0,100,0,0
82844,-100,4,1,0,89,0,1
96365,-100,4,2,0,84,0,0
109781,-100,4,1,0,87,0,0
123197,-100,4,2,0,100,0,0
136718,-100,4,1,0,80,0,0
143547,-100,4,1,0,85,0,0
150410,-100,4,1,0,90,0,1
163714,-100,4,1,0,85,0,0
163971,-100,4,1,0,93,0,1
177281,-100,4,1,0,84,0,0

[Colours]
Combo1 : 255,95,17
Combo2 : 255,111,255
Combo3 : 0,168,168
Combo4 : 215,215,0

[HitObjects]
88,96,28760,1,4
168,152,28971,1,0
80,184,29182,1,8
160,232,29394,1,0
248,208,29605,1,4
248,112,29816,5,0
344,112,30028,1,8
248,112,30239,1,0
208,200,30450,2,0,B|240:248|288:256|272:200|312:152|368:176,1,190,4|0
432,112,31084,1,0
488,184,31295,1,2
464,224,31401,1,0
416,240,31506,1,2
368,224,31612,1,0
336,184,31718,1,4
144,184,32140,5,4
144,88,32351,1,8
336,88,32774,1,8
336,184,32985,1,4
256,136,33197,5,0
280,224,33408,1,0
368,264,33619,1,0
280,224,33830,2,0,B|240:176|200:224,1,95,8|0
104,224,34253,2,0,B|64:176|24:224,1,95,8|0
64,304,34675,1,8
112,320,34781,1,0
152,296,34887,1,8
168,248,34992,1,0
176,200,35098,1,4
256,24,35520,5,0
320,96,35732,1,0
320,96,35837,1,0
256,168,36049,1,0
256,168,36154,1,2
192,96,36366,1,0
192,96,36471,1,0
144,96,36577,6,0,B|40:96,2,95
216,32,37211,2,0,B|256:0|304:0|352:0|400:32,1,190,4|0
480,80,37844,1,0
440,168,38056,1,8
368,104,38267,1,8
336,144,38373,1,0
360,184,38478,1,4
256,336,38901,5,0
112,192,39112,5,8
256,48,39323,5,0
400,192,39535,5,8
256,192,39746,5,0
384,56,40168,5,0
456,112,40380,1,0
368,144,40591,1,4
368,144,40697,1,0
368,144,40802,2,0,B|304:216,1,95,0|4
304,215,41119,1,0
304,215,41225,1,0
256,208,41436,12,4,42281
72,104,49042,6,0,B|144:40,1,95,8|0
184,128,49464,1,0
184,32,49675,2,0,B|264:88,1,95,0|8
336,144,50098,1,0
336,48,50309,2,0,B|424:104,1,95,8|0
448,184,50732,6,0,B|392:264,1,95,2|0
296,272,51154,1,0
296,176,51366,2,0,B|200:224,1,95,0|2
200,312,51788,2,0,B|120:256,1,95,0|2
48,200,52211,1,0
64,32,52422,5,0
104,72,52528,1,0
144,32,52633,1,2
448,32,52844,5,0
408,72,52950,1,0
368,32,53055,1,2
216,312,53267,5,2
256,352,53373,1,0
296,312,53478,1,0
216,72,53689,5,2
256,32,53795,1,0
296,72,53901,1,0
136,152,54112,5,8
96,192,54218,1,0
136,232,54323,1,10
376,152,54535,5,8
416,192,54640,1,0
376,232,54746,1,8
256,192,54957,5,4
256,192,55168,1,4
256,192,55380,1,4
256,192,55591,1,4
72,240,55802,6,0,B|72:120,1,95,4|8
448,240,56225,2,0,B|448:112,1,95,0|8
256,192,56647,1,0
336,144,56859,5,0
256,88,57070,1,0
176,144,57281,1,0
256,88,57492,1,4
304,88,57598,1,0
304,40,57704,1,0
256,88,57915,5,0
208,88,58020,1,0
208,40,58126,1,0
256,88,58337,6,8,B|256:248,1,142.5
256,230,58760,1,4
448,336,59182,5,0
352,336,59394,1,2
64,336,59816,5,2
168,336,60028,1,0
256,230,60239,5,0
256,144,60450,1,0
256,48,60661,1,0
256,48,60873,2,0,B|168:104,1,95
256,48,61295,2,0,B|336:99,1,95
256,48,61718,1,8
257,98,61823,1,0
257,144,61929,1,4
256,192,62035,1,0
256,232,62140,1,4
424,192,62563,5,4
472,192,62668,1,0
256,192,62985,5,8
208,192,63091,1,0
256,48,63408,5,0
392,128,63619,6,0,B|296:128,1,95,0|4
112,192,64042,2,0,B|208:192,1,95,0|4
304,192,64464,1,0
352,192,64570,1,8
352,288,64781,1,0
304,288,64887,1,8
224,240,65098,1,8
176,224,65204,1,0
144,184,65309,1,8
176,144,65415,1,0
224,128,65520,1,4
304,192,65732,1,4
440,40,66154,5,2
440,336,66577,5,2
440,144,66999,5,0
440,88,67105,1,0
440,40,67211,1,0
344,88,67422,1,0
248,88,67633,2,8,B|64:88,1,142.5,0|0
105,88,68056,1,8
40,152,68267,1,0
40,152,68373,2,0,B|200:152,1,142.5,8|12
280,152,68901,1,4
336,208,69323,6,0,B|256:296,1,95,2|0
176,176,69746,2,0,B|256:88,1,95,2|0
256,192,70168,1,0
337,64,70380,6,0,B|425:128,1,95,0|2
457,152,70697,1,0
425,200,70802,2,0,B|353:288,1,95,0|2
329,312,71119,1,0
281,280,71225,2,0,B|205:225,1,95,0|2
161,192,71542,1,0
217,192,71647,2,0,B|401:192,1,142.5,0|0
359,192,72070,5,8
256,98,72281,1,8
162,192,72492,1,8
256,286,72704,1,8
256,160,72915,2,0,B|160:192,1,95,8|0
256,160,73337,2,0,B|376:200,1,95,2|0
256,96,73760,2,0,B|256:288,1,190,2|0
376,152,74605,5,0
352,120,74711,1,0
376,96,74816,1,2
360,64,74922,1,0
384,40,75028,1,2
432,56,75133,1,0
456,88,75239,1,2
464,136,75344,1,0
440,176,75450,1,4
328,176,75661,1,4
112,177,76084,5,0
112,177,76189,1,0
112,177,76295,1,8
184,177,76506,1,0
256,177,76718,1,8
328,177,76929,1,0
256,56,77140,6,0,B|320:56|368:88|400:128|400:176,1,190
352,240,77774,2,0,B|280:240|224:224|208:168|184:136,1,190,2|0
160,64,78408,1,0
249,74,78619,1,0
196,153,78830,6,0,B|140:129|116:241,1,95,2|0
240,200,79253,2,0,B|296:224|320:112,1,95,0|2
320,56,79675,1,0
320,56,79781,1,0
456,128,80098,6,0,B|456:192|392:208|392:208,3,95
360,120,80943,1,8
360,120,81049,1,0
360,120,81154,1,4
256,208,81366,12,4,82422
448,64,82844,5,4
64,64,83267,5,4
256,64,83689,5,0
328,232,83901,2,0,B|328:120,1,95
328,64,84218,1,0
256,64,84323,1,0
184,232,84535,2,0,B|184:128,1,95
40,128,84957,1,0
56,48,85063,1,0
128,24,85168,1,0
256,40,85380,2,0,B|256:200,1,142.5,4|8
256,200,85802,1,8
56,48,86225,5,4
456,48,86647,5,4
256,39,87070,5,0
368,56,87281,1,0
424,96,87387,1,0
480,136,87492,1,0
424,176,87598,1,0
368,208,87704,1,0
256,232,87915,2,0,B|256:40,1,190
144,64,88549,1,0
80,96,88654,1,0
136,136,88760,2,0,B|312:136,1,142.5,4|8
296,136,89182,1,8
456,40,89605,5,4
456,344,90028,5,4
144,192,90450,5,0
256,192,90661,1,0
384,192,90873,1,0
320,112,91084,1,0
256,192,91295,5,0
256,256,91401,1,0
256,320,91506,1,0
200,192,91718,5,0
136,192,91823,1,0
72,192,91929,1,0
200,136,92140,5,8
200,72,92246,1,0
200,8,92351,1,8
256,136,92563,5,4
48,40,92985,5,4
48,344,93408,5,4
56,192,93830,6,0,B|248:192,1,190
384,192,94464,1,0
408,24,94675,2,0,B|504:56,1,95
352,24,95098,2,0,B|248:56,1,95
384,128,95520,1,4
384,192,95626,1,0
384,256,95732,1,4
384,320,95837,1,0
384,256,95943,1,4
432,120,103126,6,0,B|352:48,1,95,8|0
328,128,103549,1,0
328,48,103760,2,0,B|248:104,1,95,0|8
184,144,104182,1,0
200,64,104394,2,0,B|112:120,1,95,8|0
24,192,104816,6,0,B|80:280,1,95,2|0
168,232,105239,1,0
200,144,105450,2,0,B|296:184,1,95,0|2
312,272,105873,2,0,B|392:216,1,95,0|2
480,152,106295,1,0
64,32,106506,5,0
104,72,106612,1,0
144,32,106718,1,2
440,32,106929,5,0
400,72,107035,1,0
360,32,107140,1,2
216,312,107351,5,2
256,352,107457,1,0
296,312,107563,1,0
216,72,107774,5,2
256,32,107880,1,0
296,72,107985,1,0
136,152,108197,5,8
96,192,108302,1,0
136,232,108408,1,8
376,152,108619,5,8
416,192,108725,1,0
376,232,108830,1,8
256,192,109042,5,4
256,192,109253,1,4
256,192,109464,1,4
256,192,109675,1,4
256,32,109887,5,0
440,192,110309,5,0
256,352,110732,5,0
256,192,110943,1,0
104,192,111154,5,0
256,192,111366,1,0
168,144,111577,6,0,B|208:104|256:88|304:104|344:144,1,190
256,192,112211,1,0
168,232,112422,1,8
208,264,112528,1,0
256,272,112633,1,8
304,264,112739,1,0
336,232,112844,1,4
256,112,113267,6,0,B|256:16,1,95
128,168,113689,5,0
176,168,113795,1,0
128,168,113901,1,8
384,168,114112,5,0
336,168,114218,1,0
384,168,114324,1,8
256,264,114535,6,0,B|256:168,1,95
304,72,114957,1,8
208,72,115168,1,0
304,120,115380,1,0
208,120,115591,1,0
256,40,115802,1,8
256,88,115908,1,0
256,136,116013,2,0,B|256:200,2,47.5,8|0|4
256,344,116647,5,2
376,232,116964,5,0
352,192,117070,1,2
256,88,117281,5,4
112,192,117704,6,0,B|216:192,2,95
112,96,118337,2,0,B|56:96,2,47.5,4|0|0
112,96,118760,2,0,B|168:96,2,47.5,4|0|0
112,192,119182,2,0,B|152:232|240:216|264:184,1,142.5,4|8
245,199,119605,1,8
245,199,119816,1,0
480,32,120239,5,2
480,344,120661,5,2
256,328,121084,6,0,B|304:320|296:264,2,47.5
280,160,121506,2,0,B|248:168|240:200,2,47.5
144,208,121929,1,0
224,232,122140,1,0
304,256,122351,1,0
384,280,122563,1,8
424,256,122668,1,0
424,208,122774,1,8
432,160,122880,1,0
472,136,122985,1,4
176,208,123408,6,0,B|256:296,1,95,2|0
336,176,123830,2,0,B|256:88,1,95,2|0
256,192,124253,1,0
175,64,124464,6,0,B|87:128,1,95,0|2
55,152,124781,1,0
87,200,124887,2,0,B|159:288,1,95,0|2
183,312,125204,1,0
231,280,125309,2,0,B|307:225,1,95,0|2
351,192,125626,1,0
295,192,125732,2,0,B|111:192,1,142.5,0|0
153,192,126154,5,8
256,98,126366,1,8
350,192,126577,1,8
256,286,126788,1,8
256,160,126999,2,0,B|352:192,1,95,8|0
256,160,127422,2,0,B|136:200,1,95,2|0
256,96,127844,2,0,B|256:288,1,190,2|0
136,152,128689,5,0
160,120,128795,1,0
136,96,128900,1,2
152,64,129006,1,0
128,40,129112,1,2
80,56,129217,1,0
56,88,129323,1,2
48,136,129428,1,0
72,176,129534,1,4
184,176,129745,1,4
400,177,130168,5,0
400,177,130274,1,0
400,177,130380,1,8
328,177,130591,1,0
256,177,130802,1,8
184,177,131013,1,0
256,56,131225,6,0,B|192:56|144:88|112:128|112:176,1,190
160,240,131858,2,0,B|232:240|288:224|304:168|328:136,1,190,2|0
352,64,132492,1,0
263,74,132704,1,0
316,153,132915,6,0,B|372:129|396:241,1,95,2|0
272,200,133337,2,0,B|216:224|192:112,1,95,0|2
192,56,133760,1,0
192,56,133866,1,0
56,128,134182,6,0,B|56:192|120:208|120:208,3,95
152,120,135027,1,8
152,120,135133,1,0
152,120,135239,1,4
256,208,135450,12,8,136506
400,136,136929,5,4
360,192,137140,1,0
288,216,137351,1,0
288,184,137457,1,0
288,144,137563,1,0
224,184,137774,1,8
152,192,137985,1,0
88,160,138197,1,0
88,120,138302,1,0
88,80,138408,1,0
200,104,138619,6,0,B|288:144,1,95,4|0
392,128,139042,2,0,B|304:88,1,95,0|0
304,160,139464,1,8
304,200,139570,1,0
304,232,139675,1,0
256,152,139887,1,0
256,120,139992,1,0
254,82,140098,1,0
448,56,140309,5,4
64,320,140732,5,0
224,216,141154,5,4
176,240,141260,1,0
136,264,141366,1,0
288,184,141577,5,4
336,208,141683,1,0
376,232,141789,1,0
224,144,141999,5,4
176,168,142105,1,0
136,192,142211,1,0
288,104,142422,5,4
336,128,142528,1,0
376,152,142634,1,0
136,192,142844,5,8
256,320,143056,1,2
384,192,143267,1,2
256,64,143478,1,2
432,64,143689,5,4
80,320,144112,5,4
96,192,144535,6,0,B|40:192,2,47.5,4|0|4
160,232,144957,2,0,B|216:232,2,47.5
96,264,145380,2,0,B|16:264,2,47.5,8|0|8
160,232,145802,1,0
192,168,146013,1,0
248,120,146225,1,4
320,128,146436,1,2
376,168,146647,1,2
408,232,146859,1,2
464,328,147070,5,4
464,192,147281,5,0
464,48,147492,5,0
464,48,147704,5,0
328,48,147915,5,8
192,48,148126,5,4
56,48,148337,5,0
56,192,148549,5,0
56,336,148760,5,4
80,304,148866,1,0
122,290,148971,1,2
168,280,149077,1,0
200,240,149182,1,2
216,200,149288,1,0
256,192,149394,1,2
256,88,149605,5,4
304,144,149711,1,0
368,192,149816,1,8
312,240,149922,1,0
256,296,150028,1,8
200,240,150133,1,0
136,192,150239,1,8
72,48,150450,5,4
440,48,150873,5,4
256,128,151295,5,0
168,192,151506,1,0
256,248,151718,1,0
344,192,151929,1,0
333,74,152140,2,0,B|253:130,1,95
179,74,152563,2,0,B|259:130,1,95
255,129,152985,1,8
256,184,153091,1,0
256,232,153197,1,0
256,280,153302,1,0
256,328,153408,1,4
456,328,153830,5,4
56,328,154253,5,4
256,184,154675,5,0
256,88,154887,1,0
312,0,155098,1,0
208,0,155309,1,0
136,88,155520,2,0,B|248:88,1,95,4|0
344,88,155943,2,0,B|248:88,1,95
224,184,156366,2,0,B|176:184|192:256|256:264|288:232|288:168|280:176,1,142.5,4|8
288,176,156788,1,8
64,56,157211,5,4
448,328,157633,5,4
64,336,158056,5,0
152,296,158267,1,0
216,280,158373,1,0
232,216,158478,1,0
208,152,158584,1,0
256,104,158689,1,0
200,8,158901,2,0,B|296:80,1,95
336,40,159218,1,0
280,8,159323,2,0,B|200:72,1,95
152,104,159640,1,0
96,144,159746,2,8,B|80:184|96:208|112:232|224:224,1,142.5
248,224,160168,1,4
48,56,160591,5,4
464,336,161013,5,4
384,224,161436,5,0
306,288,161647,2,0,B|265:287|253:257|246:208,1,95
152,224,162070,2,0,B|193:223|205:193|212:144,1,95
304,160,162492,2,0,B|263:159|251:129|244:80,1,95
232,1,162915,2,0,B|191:1|179:31|172:80,1,95,0|8
168,112,163232,2,0,B|160:160,3,47.5,0|8|0|4
448,312,163971,5,4
64,312,164394,5,4
256,64,164816,5,0
184,232,165028,2,0,B|184:120,1,95
184,64,165344,1,0
256,64,165450,1,0
328,232,165662,2,0,B|328:128,1,95
472,128,166084,1,0
464,48,166190,1,0
384,24,166295,1,0
256,40,166507,2,0,B|256:200,1,142.5,4|8
256,200,166929,1,8
56,328,167351,5,4
464,328,167774,5,4
256,328,168197,5,0
368,320,168408,1,0
424,280,168513,1,0
480,240,168619,1,0
424,200,168725,1,0
368,168,168830,1,0
256,144,169042,2,0,B|256:336,1,190
144,312,169675,1,0
80,280,169781,1,0
136,240,169887,2,0,B|312:240,1,142.5,4|8
296,240,170309,1,8
456,336,170732,5,4
456,32,171154,5,4
144,184,171577,5,0
256,184,171788,1,0
384,184,171999,1,0
320,264,172211,1,0
256,184,172422,5,0
256,120,172528,1,0
256,56,172633,1,0
200,184,172844,5,0
136,184,172950,1,0
72,184,173056,1,0
200,240,173267,5,8
200,304,173373,1,0
200,368,173478,1,8
256,240,173689,5,4
48,336,174112,5,4
48,32,174535,5,4
56,184,174957,6,0,B|248:184,1,190
384,184,175591,1,0
408,352,175802,2,0,B|504:320,1,95
352,352,176225,2,0,B|248:312,1,95
384,248,176647,1,4
384,184,176753,1,0
384,120,176859,1,4
384,56,176964,1,0
384,120,177070,1,4
256,192,177492,5,4
