osu file format v6

[General]
AudioFilename: Hatsune Miku - Joker.mp3
AudioLeadIn: 0
PreviewTime: 82844
Countdown: 0
SampleSet: Normal
StackLeniency: 0.6
Mode: 0
LetterboxInBreaks: 1

[Editor]
DistanceSpacing: 1
BeatDivisor: 4
GridSize: 8

[Metadata]
Title:Joker
Artist:Hatsune Miku
Creator:Saturos-fangirl
Version:Larto Normal
Source:Chibideko-P
Tags:

[Difficulty]
HPDrainRate:4
CircleSize:4
OverallDifficulty:4
SliderMultiplier:1.5
SliderTickRate:2

[Events]
//Background and Video events
Video,0,"Joker - Hatsune_Miku_HQ.avi"
0,0,"mikuJokerWall.jpg"
//Break Periods
2,42058,47722
2,96565,108567
//Storyboard Layer 0 (Background)
//Storyboard Layer 1 (Fail)
//Storyboard Layer 2 (Pass)
//Storyboard Layer 3 (Foreground)
//Storyboard Sound Samples
//Background Colour Transformations
3,100,163,162,255

[TimingPoints]
11859,422.535211267606,4,1,0,84,1,0
48205,-100,4,2,0,84,0,0
55490,-100,4,1,0,84,0,0
69189,-100,4,2,2,100,0,0
77240,-100,4,2,1,100,0,0
78085,-100,4,2,0,100,0,0
82844,-100,4,1,0,89,0,1
96365,-100,4,2,0,84,0,0
109655,-100,4,1,0,93,0,0
123381,-100,4,2,0,100,0,0
136895,-100,4,1,0,80,0,0
143547,-100,4,1,0,85,0,0
149499,-100,4,1,0,90,0,0
150410,-100,4,1,0,96,0,1
163714,-100,4,1,0,90,0,0
163971,-100,4,1,0,94,0,1
177439,-100,4,1,0,84,0,0

[Colours]
Combo1 : 255,95,17
Combo2 : 255,111,255
Combo3 : 0,168,168
Combo4 : 215,215,0

[HitObjects]
256,192,28760,1,4
176,312,29182,1,0
336,312,29605,2,0,B|416:280|440:192|416:104|344:40,1,300,0|8
320,112,30661,1,8
192,112,31084,1,8
152,56,31295,2,0,B|99:102|75:190|99:278|179:310,1,300,8|4
312,320,32563,5,0
440,240,32985,1,0
440,112,33408,5,0
384,72,33619,1,0
320,40,33830,2,8,B|256:32|208:48|168:88,3,150
96,192,35520,5,4
256,192,35943,1,0
416,192,36366,1,0
384,256,36577,6,0,B|376:328|272:360|216:352|168:344,1,225,0|0
200,224,37633,2,8,B|249:232|296:232|320:144,1,150,8|8
200,104,38478,1,8
352,56,38901,6,0,B|400:104|416:80|416:80|440:48|496:120,2,150,4|0|0
288,24,39957,6,0,C|240:40|192:24|144:40|88:24|32:40|-8:24,1,300
0,104,41013,2,8,C|48:120|96:104|144:120|200:104|256:120|296:104,1,300
48,216,49042,6,2,B|48:280|48:280|48:360|144:360|144:360|192:360,1,225,2|0
160,280,49887,2,2,B|182:280|182:280|278:280|278:200|278:200|278:136,1,225,2|0
272,56,50732,2,2,B|294:56|294:56|390:56|390:136|390:136|390:200,1,225,2|0
392,280,51577,2,2,B|371:280|371:280|275:280|275:200|275:200|275:136,1,225,2|0
256,208,52422,12,4,55802
256,344,56647,5,0
176,344,56859,2,0,B|96:328|88:264|80:208,1,150
144,192,57492,2,8,B|216:184|232:112|240:56,3,150
384,88,59182,5,4
464,216,59605,1,0
392,344,60028,1,0
320,344,60239,5,0
248,344,60450,2,0,B|160:360|88:336,1,150
104,192,61295,2,8,B|192:176|264:200,1,150,8|8
252,196,62140,1,8
320,264,62563,6,0,B|368:264|416:248|472:208|464:176,2,150,4|0|0
192,184,63830,6,0,B|144:184|96:168|40:128|48:96,2,150,0|0|0
256,144,64887,1,0
320,112,65098,2,8,B|368:112|416:96|472:56|464:24,1,150
448,200,65943,5,4
312,264,66366,1,0
160,272,66788,1,0
64,152,67211,6,0,B|48:200|0:208,2,75
216,136,68056,2,8,B|232:88|280:80,2,75,0|8|0
160,272,68901,1,8
312,264,69323,5,0
456,216,69746,1,0
312,184,70168,1,2
456,136,70591,1,2
312,104,71013,5,0
168,152,71436,1,0
312,184,71858,1,2
168,232,72281,1,2
264,344,72704,6,2,B|192:368|184:336|184:336|176:296|96:328,1,150,2|0
0,344,73549,2,2,B|72:368|80:336|80:336|88:296|168:328,1,150,2|0
48,192,74394,5,2
136,64,74816,1,0
216,192,75239,1,2
136,320,75661,1,4
280,296,76084,6,0,B|320:296|320:296|384:296|384:256|384:256|384:200,1,150,0|0
248,136,76929,2,2,B|208:136|208:136|144:136|144:176|144:176|144:232,1,150,2|2
288,224,77774,2,0,B|328:224|328:224|392:224|392:184|392:184|392:128,1,150
224,224,78619,2,2,B|187:224|187:224|120:224|120:264|120:264|120:320,1,150,2|2
256,352,79464,6,0,B|304:352|304:288|256:288|256:288|208:288|208:224|256:224|256:224|304:224|304:168|256:168|256:168|208:168|208:104|256:104|256:104|304:104|304:24|248:24,1,525
168,24,81154,2,0,B|112:56|128:112,6,75,0|8|8|0|0|8|8
304,72,82844,6,0,L|288:117|232:117|216:64,2,150,4|0|0
256,192,84112,2,0,L|168:192|128:104,1,150,4|0
256,192,84957,2,8,L|344:192|384:280,1,150
256,312,85802,1,8
112,264,86225,6,0,B|72:216|72:168|120:112,2,150,4|0|0
184,136,87492,2,0,B|264:184|360:120,1,150,0|0
400,262,88337,2,8,B|440:216|440:168|403:127,2,150
256,224,89605,6,0,B|240:248|240:248|264:280|264:280|240:296|240:296|264:320|264:320|240:352,2,150,4|0|0
136,144,90873,2,0,B|168:80|240:64|272:56,1,150
374,144,91718,2,8,B|342:80|270:64|238:56,1,150
257,60,92563,1,8
216,208,92985,6,0,B|216:280|216:280|256:280|256:280|256:208|256:208|296:208|296:208|296:288,1,300,4|0
384,168,94253,2,0,B|384:8,1,150
256,16,95098,2,8,B|256:166,1,150
128,168,95943,2,0,B|128:8,1,150,8|4
128,312,109887,6,0,B|80:256|88:216|96:160,1,150,4|0
200,88,110732,2,0,B|248:144|240:184|232:240,1,150
384,311,111577,2,0,B|432:256|424:216|417:172,1,150
311,88,112422,2,8,B|264:144|272:184|278:227,1,150
192,336,113267,6,0,B|24:336,2,150,4|0|0
256,216,114535,1,0
320,336,114957,2,8,B|488:336,2,150
256,216,116225,1,8
400,112,116647,6,0,C|256:72|104:112,1,300,4|0
112,272,117915,2,0,C|256:312|408:272,1,300
256,192,119182,1,8
256,192,119605,1,8
416,272,120028,6,0,B|464:192|392:120,1,150,4|0
224,120,120873,2,0,B|176:80|200:8,2,75
288,264,121718,2,8,B|336:304|312:376,2,75
107,250,122563,2,8,B|48:192|96:112,1,150
152,336,123408,6,0,B|320:336,1,150
456,240,124253,2,0,B|288:240,1,150,2|2
152,144,125098,6,0,B|320:144,1,150
456,48,125943,2,2,B|288:48,1,150,2|2
56,48,126788,6,0,B|206:48,1,150,0|0
360,144,127633,2,2,B|210:144,1,150
56,240,128478,6,0,B|206:240,1,150,0|0
360,336,129323,2,2,B|210:336,1,150,2|4
120,152,130168,5,0
256,96,130591,1,0
392,152,131013,1,2
256,216,131436,1,2
256,24,131859,5,0
312,160,132282,1,0
256,296,132704,1,2
192,160,133127,1,2
328,104,133549,6,0,B|376:112|376:160|376:160|368:208|320:216,1,150
176,212,134394,2,2,B|144:208|136:168|136:168|136:112|184:104,1,150
296,160,135239,1,0
296,160,135450,2,8,B|392:160,1,75
216,160,136084,1,0
216,160,136295,2,8,B|112:160,1,75
176,56,136929,6,0,B|80:56,6,75,0|0|0|8|8|0|0
32,128,138619,2,0,B|128:128,6,75,4|0|0|8|8|0|0
184,192,140309,6,0,B|88:192,6,75,4|0|0|8|8|0|0
32,256,141999,2,0,B|128:256,6,75,4|0|0|8|8|0|0
232,352,143689,6,0,B|128:352,2,75,4|0|0
224,256,144535,2,0,B|328:256,2,75,8|0|0
224,152,145380,2,0,B|120:152,3,75,4|0|8|0
224,80,146226,2,0,B|328:80,3,75,0|8|8|8
392,64,147070,6,0,B|440:136,1,75,8|0
448,224,147492,2,0,B|392:312,1,75,8|0
320,336,147915,2,0,B|240:320,1,75,8|0
152,304,148337,2,0,B|112:208,1,75,8|0
96,144,148760,2,8,B|160:72,1,75
232,40,149182,2,8,B|296:96,1,75
256,192,149605,1,4
256,346,150450,5,6
256,346,150873,1,6
256,346,151295,1,8
256,346,151718,2,0,B|336:346|384:274|384:194|384:194|384:114|352:34|248:34,1,450,8|4
256,35,153408,1,4
256,34,153830,5,6
256,34,154253,1,6
256,34,154675,1,8
256,34,155098,2,0,B|176:34|128:106|128:186|128:186|128:266|160:346|264:346,1,450,8|4
256,346,156788,1,4
257,346,157211,6,6,B|321:290|321:258|321:258|321:226|249:186,1,150
209,161,158056,2,8,B|192:160|192:128|192:128|192:96|256:40,1,150
312,136,158901,2,4,B|184:264,3,150
256,344,160591,6,2,B|192:288|192:256|192:256|192:224|264:184,1,150
302,161,161436,2,8,B|320:160|320:128|320:128|320:96|256:40,1,150
200,136,162281,2,4,B|328:264,3,150
456,264,163971,6,2,B|456:112,1,150
328,48,164816,2,8,B|178:48,1,150
56,120,165661,2,2,B|56:272,1,150
184,336,166506,2,8,B|334:336,1,150
432,144,167351,6,2,B|312:24,1,150
186,37,168197,2,8,B|80:144,1,150
80,240,169042,2,2,B|200:360,1,150
325,346,169888,2,8,B|432:240,1,150
256,192,170732,6,2,B|432:192,1,150
256,192,171577,2,8,B|80:192,1,150
256,192,172422,2,2,B|256:368,1,150
256,192,173267,2,8,B|256:16,1,150
328,112,174112,5,6
184,112,174535,1,6
256,208,175168,12,4,177492
