osu file format v6

[General]
AudioFilename: Hatsune Miku - Joker.mp3
AudioLeadIn: 0
PreviewTime: 82422
Countdown: 0
SampleSet: Normal
StackLeniency: 0.7
Mode: 0
LetterboxInBreaks: 1

[Editor]
DistanceSpacing: 1
BeatDivisor: 4
GridSize: 8

[Metadata]
Title:Joker
Artist:Hatsune Miku
Creator:Saturos-fangirl
Version:Hard
Source:Chibideko-P
Tags:

[Difficulty]
HPDrainRate:6
CircleSize:5
OverallDifficulty:7
SliderMultiplier:1.6
SliderTickRate:2

[Events]
//Background and Video events
Video,0,"Joker - Hatsune_Miku_HQ.avi"
0,0,"mikuJokerWall.jpg"
//Break Periods
2,42058,48142
2,96143,102226
//Storyboard Layer 0 (Background)
//Storyboard Layer 1 (Fail)
//Storyboard Layer 2 (Pass)
//Storyboard Layer 3 (Foreground)
//Storyboard Sound Samples
//Background Colour Transformations
3,100,163,162,255

[TimingPoints]
11859,422.535211267606,4,1,0,84,1,0
48205,-100,4,2,0,84,0,0
55596,-100,4,1,1,75,0,0
69189,-100,4,2,1,100,0,0
82844,-100,4,1,0,90,0,1
96365,-100,4,2,0,84,0,0
109655,-100,4,1,0,93,0,0
112316,-100,4,2,2,100,0,0
112527,-100,4,1,0,90,0,0
123302,-100,4,2,0,100,0,0
131330,-100,4,2,2,100,0,0
131541,-100,4,2,0,84,0,0
132175,-100,4,2,2,100,0,0
132386,-100,4,2,0,84,0,0
136718,-100,4,1,0,80,0,0
143547,-100,4,1,0,88,0,0
150450,-100,4,1,0,95,0,1
163714,-100,4,1,0,84,0,0
163971,-100,4,1,0,95,0,1
177439,-100,4,1,0,90,0,0

[Colours]
Combo1 : 255,95,17
Combo2 : 255,111,255
Combo3 : 0,168,168
Combo4 : 215,215,0

[HitObjects]
304,232,28760,2,0,B|200:232,1,80
192,176,29182,2,0,B|296:176,1,80,8|0
312,128,29605,1,0
288,64,29816,6,0,B|256:32|248:32|216:80,1,80
184,112,30239,1,0
136,160,30450,2,0,B|312:160,1,160,8|0
344,120,31084,2,0,B|344:216,1,80,0|8
344,328,31718,1,8
224,272,32140,6,0,B|224:160,1,80
224,48,32774,1,0
344,96,33197,5,0
392,136,33408,1,0
408,200,33619,1,0
344,176,33830,2,0,B|240:176,1,80,8|0
200,176,34253,2,0,B|104:176,1,80
152,120,34675,2,8,B|328:120,1,160
416,48,35520,5,0
480,152,35943,1,0
416,264,36366,1,0
448,320,36577,5,0
480,264,36788,1,0
448,208,36999,1,0
384,208,37211,2,0,B|376:264|312:264|296:160|256:192,1,160,8|0
208,160,37844,1,0
152,136,38056,2,8,B|160:72|208:56|232:88|240:120|288:80,1,160
432,64,38901,6,0,B|432:152,1,80,4|0
432,208,39323,1,0
376,240,39535,1,4
320,208,39746,1,0
376,176,39957,5,0
376,112,40168,2,0,B|352:80|296:64|264:80|216:128,1,160,0|8
288,144,40802,2,0,B|272:192|232:192|208:192,1,80
168,192,41225,1,0
144,128,41436,2,8,B|96:152|80:200|88:256|120:296|128:296,1,160
72,192,49042,6,0,B|136:128,1,80,8|0
176,200,49464,1,0
176,120,49675,2,0,B|248:168,1,80,0|8
304,216,50098,1,0
304,136,50309,2,0,B|384:192,1,80,8|0
448,184,50732,6,0,B|400:256,1,80,2|0
328,216,51154,1,0
304,136,51366,2,0,B|216:176,1,80,0|10
192,240,51788,2,0,B|120:192,1,80,0|10
64,144,52211,1,0
0,192,52422,5,8
160,160,52844,1,2
256,32,53267,1,8
352,160,53689,1,2
512,192,54112,1,8
352,224,54535,1,2
256,352,54957,1,8
160,224,55380,1,2
288,136,55802,6,0,B|192:136,1,80,8|0
168,80,56225,2,0,B|264:80,1,80,2|0
312,80,56647,1,8
408,80,56859,6,0,B|432:136|432:208|400:248|344:256|280:256,1,240,0|8
264,208,57704,1,0
216,256,57915,2,0,B|152:200,1,80
112,152,58337,2,2,B|312:152,1,160,2|8
376,56,59182,5,0
440,56,59394,1,8
488,96,59605,1,0
440,144,59816,1,8
464,272,60239,5,0
400,272,60450,1,0
336,272,60661,1,0
312,216,60873,2,0,B|240:208|208:280|320:376|392:352,1,240,8|0
432,336,61718,2,2,B|520:280|456:168,1,160,2|8
256,192,62563,5,8
256,128,62774,1,0
256,192,62985,1,8
256,256,63197,1,0
336,232,63619,6,0,B|432:232,2,80
376,176,64253,1,8
376,176,64464,1,0
256,120,64887,1,0
320,120,65098,1,8
192,120,65520,1,4
256,232,65943,5,8
256,232,66154,1,0
256,104,66577,1,0
360,168,66999,5,0
360,168,67211,2,0,B|312:248,1,80
384,240,67633,2,2,B|352:296|336:312|296:320|248:312|232:304,1,160,2|0
256,248,68267,2,2,B|168:248|168:96,1,160,2|8
169,133,68901,1,8
288,96,69323,5,2
256,32,69535,1,0
224,96,69746,1,2
224,168,69957,1,0
256,232,70168,1,0
296,168,70380,5,0
224,168,70591,1,2
168,208,70802,1,0
152,136,71013,2,0,B|104:136|80:168|72:200,1,80,2|0
32,216,71436,1,0
64,280,71647,1,0
288,104,72070,5,8
344,144,72281,1,8
384,208,72492,1,0
416,144,72704,1,8
456,208,72915,1,0
416,344,73337,2,8,B|368:352|336:320|320:288|328:216,1,160,2|8
256,56,74182,5,8
256,200,74605,1,0
256,128,74816,2,0,B|360:128,1,80
336,56,75239,2,0,B|248:56,1,80,0|4
256,56,75661,1,4
112,192,76084,5,0
112,192,76295,1,8
184,192,76506,1,0
256,192,76718,1,8
328,192,76929,1,0
368,128,77140,6,0,B|408:120|464:152|480:184|480:200|464:232|408:264|368:256,1,240,2|0
328,191,77985,2,0,B|290:184|234:216|218:248|218:264|234:296|290:328|320:328,1,240,2|0
384,256,78830,5,0
384,256,79042,1,2
384,256,79253,1,0
384,184,79464,2,0,B|464:224,1,80,8|0
256,208,80098,12,0,81999
256,200,82422,5,4
424,64,82844,5,4
72,64,83267,5,4
256,200,83689,5,0
328,232,83901,2,0,B|328:120,1,80
256,200,84323,1,0
184,232,84535,2,0,B|184:128,1,80
120,104,84957,1,0
176,48,85168,1,0
256,40,85380,2,8,B|256:208,1,160
72,48,86225,5,4
448,48,86647,5,4
256,48,87070,5,0
320,88,87281,1,0
376,136,87492,1,0
320,192,87704,1,0
256,232,87915,2,0,B|256:56,1,160
176,64,88549,1,0
168,136,88760,2,8,B|352:136,1,160
456,56,89605,5,4
456,336,90028,5,4
200,192,90450,5,0
280,192,90661,1,0
360,192,90873,1,0
312,128,91084,1,0
280,192,91295,2,0,B|280:240,2,40
200,192,91718,2,0,B|144:192,2,40
200,112,92140,2,0,B|200:56,2,40,8|0|0
280,112,92563,1,8
64,56,92985,5,4
64,328,93408,5,4
64,192,93830,6,0,B|232:192,1,160
312,192,94464,1,0
312,72,94675,2,0,B|408:72,1,80
312,72,95098,2,0,B|208:72,1,80
312,72,95520,2,0,B|312:224,1,120,0|8
312,208,95943,1,8
440,192,103126,6,0,B|376:128,1,80,8|0
336,200,103549,1,0
336,120,103760,2,0,B|264:168,1,80,0|8
208,216,104182,1,0
208,136,104394,2,0,B|128:192,1,80,8|0
64,184,104816,6,0,B|112:256,1,80,2|0
184,216,105239,1,0
208,136,105450,2,0,B|296:176,1,80,0|10
320,240,105873,2,0,B|392:192,1,80,0|10
448,144,106295,1,0
512,192,106506,5,8
352,160,106929,1,2
256,32,107351,1,8
160,160,107774,1,2
0,192,108197,1,8
160,224,108619,1,2
256,352,109042,1,8
352,224,109464,1,2
256,96,109887,6,0,B|256:0,1,80
256,96,110309,2,0,B|360:96,1,80,8|0
256,96,110732,2,0,B|256:184,1,80
256,96,111154,1,8
136,144,111577,5,0
80,112,111788,1,0
24,144,111999,1,0
80,184,112211,1,0
136,216,112422,2,0,B|168:200|192:200|216:200|176:112|296:152|304:176,1,160,4|8
464,48,113267,5,0
416,88,113478,1,0
464,128,113689,2,0,B|464:312,1,160
400,288,114323,5,0
336,304,114535,1,0
272,288,114746,1,0
304,232,114957,2,0,B|272:216|240:224|216:256,3,80,8|0|0|0
200,296,115802,2,8,B|152:256|144:216|168:176|200:152,1,160
360,104,116647,5,0
312,56,116859,1,8
200,56,117281,1,8
152,104,117492,1,0
256,112,117704,6,0,B|256:16,2,80
312,88,118337,1,8
312,152,118549,1,0
256,176,118760,1,0
200,152,118971,1,0
200,88,119182,2,8,B|248:136|240:120|264:104|268:68|268:68|282:96|332:84,1,160
400,192,120028,5,8
272,192,120450,1,0
144,192,120873,1,0
144,256,121084,5,0
200,224,121295,1,0
224,168,121506,1,0
224,104,121718,2,0,B|224:56|264:0|360:8|376:128|296:152|248:136|240:88|296:72|312:88,1,240,8|0
282,87,122563,1,0
336,160,122880,1,8
336,160,122985,1,8
336,160,123197,1,0
408,208,123408,5,0
392,288,123619,1,2
248,288,124042,1,2
104,288,124464,6,0,B|152:272|160:208,1,80,0|2
88,207,124887,2,0,B|92:167|140:151,1,80
192,200,125309,2,0,B|240:184|248:120,1,80
264,72,125732,1,2
408,72,126154,5,8
336,72,126366,1,0
264,72,126577,1,0
208,24,126788,2,0,B|168:48|176:96,1,80,8|0
272,200,127422,1,2
336,72,127844,1,2
464,136,128267,1,2
344,216,128689,5,0
296,272,128901,1,0
248,216,129112,1,0
296,160,129323,1,0
248,104,129535,1,4
200,160,129746,1,4
56,48,130168,5,0
128,48,130380,1,2
96,184,130802,1,2
48,320,131225,6,0,B|112:352|128:304|152:280|200:280,1,160
128,240,131859,1,2
192,216,132070,2,0,B|256:184|272:232|296:256|344:256,1,160
256,120,132915,5,0
328,192,133126,1,2
256,264,133337,1,0
184,192,133548,1,2
256,192,133760,1,0
368,80,134182,6,0,B|368:144|400:152,1,80,0|2
440,80,134605,1,0
256,208,134816,12,4,136084
256,192,136506,5,4
400,136,136929,5,4
360,192,137141,1,0
288,216,137352,1,0
288,144,137563,1,0
224,184,137774,1,8
152,192,137986,1,0
88,160,138197,1,0
152,192,138408,1,0
152,120,138619,6,0,B|232:152,1,80,4|0
328,136,139042,2,0,B|248:104,1,80,0|0
256,176,139464,1,8
256,248,139676,1,2
256,176,139887,1,2
254,106,140098,1,2
456,48,140310,5,4
56,328,140732,5,4
160,192,141155,6,0,B|256:240,1,80,8|0
296,248,141577,2,0,B|200:296,1,80
152,296,142000,2,0,B|248:344,1,80,4|0
296,320,142422,1,0
296,248,142634,1,0
352,288,142845,1,8
416,320,143056,1,2
416,248,143267,1,2
416,176,143479,1,2
416,40,143690,5,4
96,344,144112,5,4
96,192,144535,6,0,B|48:192,2,40,4|0|0
160,232,144957,2,0,B|216:232,2,40
96,264,145380,2,0,B|16:264,2,40,8|0|0
160,232,145803,1,0
192,168,146014,1,0
248,120,146225,1,4
320,128,146436,1,2
376,168,146648,1,2
432,128,146859,1,2
440,40,147070,5,4
432,336,147493,5,0
432,336,147704,1,0
432,336,147915,1,4
48,336,148338,5,0
56,48,148760,5,4
122,94,148972,1,2
188,142,149183,1,2
256,192,149394,1,2
256,96,149605,5,4
352,192,149817,1,8
256,288,150028,1,8
160,192,150239,1,8
64,48,150450,5,4
448,48,150873,5,4
256,128,151295,5,0
168,192,151507,1,0
256,248,151718,1,0
344,192,151929,1,0
325,88,152141,2,0,B|245:136,1,80
187,88,152563,2,0,B|267:136,1,80
255,129,152986,1,8
256,184,153091,1,0
256,232,153197,1,0
256,280,153303,1,0
256,328,153408,1,8
464,328,153831,5,4
48,328,154253,5,4
256,192,154676,5,0
256,88,154887,1,0
312,0,155098,1,0
208,0,155310,1,0
152,88,155521,2,0,B|256:88,1,80
336,88,155943,2,0,B|248:88,1,80
224,184,156366,2,0,B|184:184|192:248|256:248|288:232|288:168|280:176,1,120,0|8
288,184,156788,1,8
56,48,157211,5,4
440,336,157634,5,4
56,336,158056,5,0
152,296,158267,1,0
224,224,158479,1,0
256,128,158690,1,0
208,32,158901,2,0,B|296:96,1,80
320,56,159218,1,0
272,32,159324,2,0,B|200:88,1,80
168,112,159641,1,0
128,144,159746,2,8,B|112:184|128:208|144:232|256:224,1,160
448,56,160591,5,4
64,336,161014,5,4
256,192,161436,5,0
256,88,161648,1,0
256,88,161859,1,0
256,88,162070,1,0
360,88,162281,2,0,B|440:128|440:160|344:200,1,160
256,141,162915,1,0
152,88,163126,2,8,B|72:128|72:160|168:200,1,160
88,64,163972,5,4
440,64,164394,5,4
256,200,164817,5,0
184,232,165028,2,0,B|184:120,1,80
256,200,165450,1,0
328,232,165662,2,0,B|328:128,1,80,4|0
392,104,166084,1,0
336,48,166295,1,0
256,40,166507,2,0,B|256:200,1,120,0|8
256,200,166929,1,8
440,48,167352,5,4
64,48,167774,5,4
256,48,168197,5,0
192,88,168408,1,0
136,136,168619,1,0
192,192,168831,1,0
256,232,169042,2,0,B|256:56,1,160
336,64,169676,1,0
344,136,169887,2,8,B|160:136,1,160
56,56,170732,5,4
56,336,171155,5,4
312,192,171577,5,0
232,192,171788,1,0
152,192,172000,1,0
200,128,172211,1,0
232,192,172422,2,0,B|232:240,2,40
312,192,172845,2,0,B|368:192,2,40
312,112,173267,2,0,B|312:56,2,40,8|0|0
232,112,173690,1,8
448,56,174112,5,4
448,328,174535,5,4
448,192,174957,6,0,B|280:192,1,160
200,192,175591,1,0
200,72,175803,2,0,B|104:72,1,80
200,72,176225,2,0,B|304:72,1,80
200,72,176648,2,0,B|200:224,1,120,0|8
200,208,177070,1,8
200,336,177492,5,4
