osu file format v9

[General]
AudioFilename: Hatsune miku-Inochi no Uta.mp3
AudioLeadIn: 1000
PreviewTime: 39483
Countdown: 0
SampleSet: Soft
StackLeniency: 0.7
Mode: 0
LetterboxInBreaks: 0

[Editor]
DistanceSpacing: 0.8
BeatDivisor: 4
GridSize: 8

[Metadata]
Title:Inochi no Uta
Artist:Hatsune Miku
Creator:kanpakyin
Version:Normal
Source:TravoltaP
Tags:Song of Life Project DIVA Original VOCALOID

[Difficulty]
HPDrainRate:4
CircleSize:4
OverallDifficulty:3
ApproachRate:5
SliderMultiplier:1
SliderTickRate:1

[Events]
//Background and Video events
0,0,"BG.jpg"
//Break Periods
2,91069,98669
2,124069,125669
//Storyboard Layer 0 (Background)
//Storyboard Layer 1 (Fail)
//Storyboard Layer 2 (Pass)
//Storyboard Layer 3 (Foreground)
//Storyboard Sound Samples
//Background Colour Transformations
3,100,163,162,255

[TimingPoints]
869,375,4,2,1,39,1,0
10056,-100,4,2,1,10,0,0
12494,-100,4,2,1,34,0,0
25525,-100,4,2,1,19,0,0
25806,-100,4,2,1,34,0,0
69869,-100,4,2,1,39,0,1
87869,-100,4,2,1,39,0,0
126869,-100,4,2,1,39,0,1
144869,-100,4,2,1,39,0,0
150869,-100,4,2,1,39,0,1
171869,-100,4,2,1,39,0,1
174869,-100,4,2,1,39,0,0
180494,-100,4,2,1,39,0,0
181654,428.571428571429,4,2,1,39,1,0
184674,375,4,2,1,39,1,0

[Colours]
Combo1 : 172,216,255
Combo2 : 172,255,179

[HitObjects]
195,137,869,2,0,B|156:114|124:151|83:121,2,100,6|0|2
305,252,2369,2,0,B|345:233|388:272|423:244,2,100,2|0|2
166,332,3869,2,0,B|126:296|62:285,2,100,2|0|2
259,183,5369,2,0,B|356:208|458:274,2,200,2|2|2
301,114,7244,2,0,B|235:88|198:86,1,100,0|2
200,166,7994,2,0,B|139:162|79:176,1,100,0|2
153,323,9119,1,2
311,300,9869,1,4
256,192,10056,12,2,12119
255,168,12869,5,2
255,168,13244,1,0
255,248,13619,2,0,B|254:348,2,100,2|0|2
255,168,14744,1,0
255,87,15119,2,0,B|269:37|338:23,1,100,2|0
340,104,15869,6,0,B|453:103,1,100,4|0
414,179,16619,1,2
414,179,16994,2,0,B|303:179,1,100,0|2
153,179,18119,1,4
243,310,18869,5,2
305,259,19244,1,0
305,259,19619,2,0,B|305:184,2,66.6666666666667,2|0|0
353,280,20369,6,0,B|357:310|357:310|374:342|374:342|374:382,2,100,2|0|2
432,278,21494,2,0,B|431:176,1,100,0|2
399,104,22244,2,0,B|350:103|362:142|288:143,1,100,0|2
292,62,22994,2,0,B|182:62,1,100,0|4
256,192,23556,12,0,25619
192,201,26369,5,2
144,136,26744,1,0
144,136,27119,1,2
229,132,27494,2,0,B|345:132,1,100,0|2
343,210,28244,1,0
343,210,28619,2,0,B|292:212|292:212|254:258,1,100,2|0
329,290,29369,6,0,B|330:351|397:368,2,100,2|0|2
409,288,30494,1,0
409,288,30869,2,0,B|518:288,2,100,2|0|6
279,194,32369,5,2
279,194,32744,2,0,B|226:174|169:196,1,100,0|2
180,245,33369,2,0,B|180:100,1,133.333333333333,0|2
100,114,34244,1,0
138,44,34619,1,2
217,44,34994,1,0
260,111,35369,1,2
300,42,35744,1,0
340,110,36119,2,0,B|451:110,2,100,2|0|6
256,192,37056,12,0,39494
252,158,39869,6,0,B|153:136|43:155,2,200,6|2|2
239,237,41744,1,0
313,208,42119,1,2
299,286,42494,2,0,B|299:388,2,100,0|2|0
378,292,43619,1,2
378,292,43994,2,0,B|384:184|375:73,1,200,0|2
308,134,45119,5,2
308,134,45494,2,0,B|289:84|216:64,2,100,2|2|0
308,134,46619,1,2
252,192,46994,1,0
252,192,47181,1,0
252,192,47369,2,0,B|255:227|255:227|265:261|265:261|265:304,2,100,2|0|2
331,203,48494,5,0
331,203,48869,2,0,B|228:182|121:196,2,200,2|2|6
404,171,50744,2,0,B|378:122|308:113,2,100,0|2|0
363,239,51869,6,0,B|364:345,2,100,2|0|2
282,241,52994,2,0,B|281:299|224:317,1,100,0|2
190,244,53744,1,0
190,244,53931,1,0
190,244,54119,2,0,B|141:235|141:235|88:245,2,100,2|0|2
241,182,55244,1,0
241,182,55619,6,0,B|336:200|336:200|440:184,2,200,4|2|2
160,184,57494,1,0
160,184,57869,2,0,B|57:184,2,100,2|0|2
160,104,58994,1,0
160,104,59369,6,0,B|91:124|93:248|179:270,1,200,4|2
229,305,60494,1,0
288,251,60869,2,0,B|397:250,2,100,2|0|2
302,172,61994,5,0
302,172,62181,1,0
302,172,62369,2,0,B|213:163|222:102|117:102,1,200,2|8
138,179,63494,1,0
138,179,63869,6,0,B|33:178,2,100,2|0|2
138,259,64994,1,0
138,259,65369,2,0,B|203:257|212:194,2,100,12|0|10
210,116,66869,1,4
256,192,67244,12,8,69119
214,137,69869,5,4
214,137,70244,2,0,B|155:126,2,50,2|0|8
208,217,70994,2,0,B|234:270|202:329,2,100,2|0|2
288,215,72119,2,0,B|387:252|485:224,2,200,8|2|8
234,155,73994,1,2
174,101,74369,1,2
174,101,74556,1,2
174,101,74744,2,0,B|123:87|69:100,2,100,2|8|0
151,177,75869,6,0,B|171:232|151:280,1,100,6|2
231,259,76619,2,0,B|208:309|236:359,2,100,8|2|2
295,306,77744,2,0,B|336:267|392:264,1,100,2|8
385,344,78494,2,0,B|438:319|498:323,2,100,0|2|2
332,283,79619,1,8
332,283,80369,6,0,B|336:224|284:193,1,100,2|0
224,242,81119,2,0,B|122:210|21:243,2,200,10|2|8
304,256,82994,1,2
304,256,83369,6,0,B|303:189,1,50,2|0
269,183,83744,1,2
269,183,83931,1,0
269,183,84119,2,0,B|269:146|269:146|279:109|279:109|278:69,2,100,8|0|2
194,154,85244,2,0,B|91:153,2,100,2|8|2
191,233,86369,5,2
191,233,86556,1,0
191,233,86744,2,0,B|242:233|237:265|308:264,1,100,0|8
256,192,87869,12,2,90869
157,156,99869,6,0,B|117:120|117:120|61:90,2,100,2|0|2
226,115,100994,1,0
228,194,101369,2,0,B|228:255|285:283,1,100,2|0
307,204,102119,2,0,B|410:196|410:196|515:214,2,200,2|2|2
341,276,103994,5,0
341,276,104369,2,0,B|286:284|286:284|238:271,2,100,2|0|6
413,308,105494,1,0
400,228,105869,1,2
267,139,106619,6,0,B|236:113|236:113|190:97,2,66.6666666666667,2|0|0
307,173,107369,2,0,B|307:279,1,100,2|0
233,242,108119,2,0,B|233:350,2,100,2|0|2
205,166,109244,2,0,B|187:139|144:121|110:128,1,100,0|2
122,206,109994,2,0,B|146:259|121:304,1,100,0|6
272,256,111119,1,0
307,99,111869,6,0,B|226:56|175:144|94:78,2,200,6|2|2
368,150,113744,2,0,B|369:257,1,100,0|2
441,283,114494,1,0
441,283,114869,2,0,B|422:360|316:363|291:271,1,200,2|2
291,202,115994,1,0
287,122,116369,6,0,B|276:49|143:51|131:125,1,200,2|2
71,179,117494,1,0
119,242,117869,2,0,B|141:296|141:296|187:325,1,100,2|0
208,245,118619,6,0,B|300:247,2,66.6666666666667,2|0|0
218,192,119369,1,2
218,192,119744,1,0
218,192,120119,2,0,B|110:190|131:137|20:136,2,200,2|2|2
208,112,121994,1,0
208,112,122369,1,4
256,192,122556,12,4,123869
154,167,126869,6,0,B|123:136|123:135|67:110,2,100,6|0|8
96,222,127994,1,2
96,222,128181,1,0
96,222,128369,2,0,B|95:262|95:262|106:292|106:292|106:328,1,100,2|0
181,293,129119,1,8
335,250,129869,5,2
335,250,130056,1,0
335,250,130244,2,0,B|448:251,2,100,2|8|0
287,185,131369,1,2
287,185,131556,1,0
287,185,131744,2,0,B|237:181|247:156|181:155,2,100,0|0|2
285,105,132869,6,0,B|336:106|336:106|382:99|382:99|424:110|424:110|489:110,2,200,6|8|2
218,149,134744,1,2
218,149,135119,2,0,B|242:177|242:218|216:248,1,100,8|2
153,198,135869,6,0,B|369:197,2,200,2|8|2
181,272,137744,1,0
181,272,138119,2,0,B|132:263|132:263|81:269,2,100,8|2|4
253,305,139244,5,2
253,305,139619,2,0,B|308:303|308:303|359:276,1,100,8|2
287,228,140369,2,0,B|324:205|331:173|313:136,1,100,2|0
236,152,141119,2,0,B|223:123|187:99|142:108,1,100,8|0
153,186,141869,5,2
218,231,142244,1,2
218,231,142431,1,0
218,231,142619,2,0,B|218:336,2,100,8|0|2
251,210,143556,1,0
287,226,143744,2,0,B|344:248|393:223,1,100
256,192,144869,12,6,147869
213,147,150119,5,2
213,147,150494,1,2
213,147,150869,2,0,B|149:146|166:168|95:168,2,100,6|0|8
188,223,151994,1,2
188,223,152181,1,0
188,223,152369,2,0,B|210:275|187:322,2,100,2|0|8
267,230,153494,1,0
267,230,153869,6,0,B|240:179|268:125,2,100,2|0|8
331,182,154994,1,2
331,182,155181,1,2
331,182,155369,2,0,B|443:183,2,100,2|0|8
290,112,156494,1,2
290,112,156869,2,0,B|228:94|144:92|81:112,2,200,6|8|2
266,188,158744,1,0
343,170,159119,6,0,B|442:170,2,100,14|0|2
321,246,160244,1,0
321,246,160431,1,2
321,246,160619,1,0
251,206,160994,1,2
251,206,161181,1,2
251,206,161369,2,0,B|131:206,3,100,4|2|10|2
84,161,162869,6,0,B|47:211|94:268,1,100,6|0
159,219,163619,2,0,B|188:273|156:324,1,100,8|0
91,275,164369,2,0,B|300:275,1,200,2|8
276,196,165494,1,0
276,196,165869,6,0,B|385:198,2,100,2|2|8
242,268,166994,1,2
242,268,167181,1,2
242,268,167369,2,0,B|175:238|177:137|257:113,1,200,2|8
320,158,168494,1,0
320,158,168869,6,0,B|384:123|453:196|526:138,2,200,6|8|2
363,225,170744,1,0
363,225,171119,2,0,B|357:283|299:310,1,100,8|2
253,247,171869,2,0,B|211:265|143:248,1,100,4|2
183,176,172619,2,0,B|81:163|0:92,2,200,2|0|8
343,182,174869,6,0,B|303:141|248:134,1,100
248,215,175619,2,0,B|147:178|32:214,2,200,8|2|8
312,267,177494,1,0
312,267,177869,2,0,B|312:366,2,100,2|0|8
389,285,178994,2,0,B|389:233|386:179,1,100,2|2
426,116,179744,2,0,B|376:85|329:118,1,100,0|8
267,164,180494,1,0
198,205,180869,2,0,B|147:234|96:198,1,100,2|2
103,202,181654,1,8
256,192,181868,12,4,184674
