osu file format v6

[General]
AudioFilename: Innocence[1].mp3
AudioLeadIn: 0
PreviewTime: 78830
Countdown: 1
SampleSet: Soft
StackLeniency: 0.7
Mode: 0
LetterboxInBreaks: 1

[Editor]
Bookmarks: 5995,53755,57595,174955
DistanceSpacing: 2
BeatDivisor: 4
GridSize: 8

[Metadata]
Title:Innocence
Artist:Hatsune Miku
Creator:al2e10
Version:Hard
Source:
Tags:Vocaliod

[Difficulty]
HPDrainRate:8
CircleSize:5
OverallDifficulty:6
SliderMultiplier:1.6
SliderTickRate:2

[Events]
//Background and Video events
Video,0,"mikumikulegendinnocence3dsankakucomplex_xvid.avi"
0,0,"AnimeMahou-31829.jpg"
//Break Periods
2,32985,47815
2,142425,154615
//Storyboard Layer 0 (Background)
//Storyboard Layer 1 (Fail)
//Storyboard Layer 2 (Pass)
//Storyboard Layer 3 (Foreground)
//Storyboard Sound Samples
//Background Colour Transformations
3,100,163,162,255

[TimingPoints]
2065,480,4,2,0,70,1,0
4915,-200,4,2,0,69,0,0
5395,-100,4,2,0,69,0,0
7795,-200,4,2,0,69,0,0
9355,-100,4,2,0,69,0,0
15235,-200,4,2,0,69,0,0
15715,-100,4,2,0,69,0,0
32635,-100,4,2,0,39,0,0
48115,-100,4,2,0,71,0,0
62515,-100,4,1,0,71,0,0
63715,-100,4,2,0,59,0,0
77875,-200,4,2,0,59,0,0
78355,-100,4,2,0,59,0,0
78835,-100,4,1,0,59,0,1
96115,-200,4,1,0,59,0,1
96595,-100,4,1,0,59,0,1
109915,-100,4,2,0,59,0,0
170035,-200,4,2,0,59,0,0
170515,-100,4,2,0,59,0,0
172435,-200,4,2,0,59,0,0
172675,-100,4,2,0,59,0,0
186355,-100,4,2,0,59,0,1

[Colours]
Combo1 : 192,192,192
Combo2 : 128,255,255
Combo3 : 7,248,152

[HitObjects]
56,48,1105,2,2,B|232:48,1,160
56,264,2065,1,0
120,336,2305,1,0
168,336,2425,1,2
312,328,2785,6,0,B|384:272,1,80
280,280,3265,2,0,B|352:224,2,80
256,184,3985,1,2
256,184,4345,1,4
256,40,4705,1,2
256,40,4945,2,0,B|352:40,1,80
392,120,5665,5,0
432,208,5905,1,2
392,296,6145,1,0
304,336,6385,1,0
208,336,6625,1,0
208,336,6745,1,2
56,120,7105,5,0
128,64,7345,1,0
224,64,7585,1,0
304,112,7825,2,0,B|304:200,1,80
480,112,8785,2,0,B|480:208,1,80
392,240,9505,1,0
296,240,9745,2,0,B|240:272|256:336,1,80
252,303,10105,2,0,B|224:216|136:224,1,120,2|0
168,128,10705,6,0,B|256:120|280:56,1,120
168,176,11425,2,0,B|120:176|96:216,1,80
136,296,11905,2,0,B|184:304|208:256,1,80,0|2
392,288,12625,6,0,B|448:216|384:120,1,160,2|0
280,288,13585,1,0
280,288,13825,1,2
88,296,14305,6,2,B|120:256|88:208,1,80
256,112,15025,1,0
256,112,15265,2,0,B|256:208,1,80
256,288,15985,5,8
256,272,16225,1,0
256,256,16465,1,0
256,240,16705,1,0
256,224,16945,1,8
256,208,17185,1,4
256,72,17425,5,0
336,128,17665,1,0
408,192,17905,1,2
480,256,18145,1,8
424,336,18385,2,0,B|352:288|264:336,2,160,0|8|0
256,80,19585,5,4
176,136,19825,1,2
96,184,20065,1,10
16,240,20305,2,0,B|88:280|176:232,2,160,0|8|0
256,336,21505,5,4
336,288,21745,1,2
416,232,21985,1,8
488,176,22225,2,0,B|424:104|488:24,2,160,0|8|0
32,176,23665,6,0,B|72:104|24:16,2,160,0|8|0
128,192,24865,1,4
40,232,25105,2,8,B|40:320|144:352,1,160,0|8
200,280,25825,1,2
256,200,26065,1,4
304,280,26305,2,0,B|384:352|464:264,1,160
312,40,27265,5,4
256,120,27505,1,2
208,40,27745,2,0,B|128:112|56:32,2,160,8|0|0
400,32,29185,5,4
456,104,29425,1,2
400,184,29665,1,8
128,352,30145,5,4
56,280,30385,1,2
120,208,30625,1,8
184,136,30865,6,0,B|264:88|344:144,1,160,4|0
184,256,31825,2,0,B|264:312|352:248,1,160,4|0
256,200,32545,1,2
256,200,32785,1,4
256,56,48865,5,0
344,96,49105,1,2
432,136,49345,1,0
344,184,49585,1,2
256,232,49825,1,0
256,232,50065,2,0,B|112:272|32:120,1,240
56,64,51025,5,2
56,64,51145,1,0
152,64,51385,1,2
152,64,51505,1,0
248,64,51745,1,0
344,64,51985,2,0,B|400:136|336:224,1,160
440,192,52705,5,0
488,272,52945,1,2
432,352,53185,1,0
336,352,53425,1,0
280,272,53665,1,2
224,352,53905,2,0,B|96:296|88:152,1,240
168,120,54865,2,0,B|304:208|304:320,1,240
360,232,55825,2,0,B|376:192|416:64,1,160
328,24,56545,5,0
256,88,56785,1,0
256,184,57025,1,0
192,256,57265,1,0
256,328,57505,1,0
320,256,57745,2,0,B|384:192|480:264|456:320|400:368,1,240
488,224,58705,2,0,B|440:144|496:56,1,160,0|0
256,192,59665,12,0,60625
256,192,60865,5,0
256,192,61105,1,4
256,192,61345,1,4
136,40,61825,5,0
56,96,62065,1,0
40,192,62305,1,4
416,192,62785,5,0
448,192,62905,1,0
424,240,63145,1,0
392,240,63265,1,0
424,304,63505,1,0
256,104,64225,5,0
184,168,64465,1,0
280,152,64705,1,0
208,216,64945,1,4
304,200,65185,1,0
232,264,65425,2,0,B|328:296|408:248,1,160,0|4
387,258,66145,2,0,B|440:320|504:232|504:184|480:128|416:160|392:160|400:88|432:48|496:48|504:120|488:168|432:176,1,400
168,232,68065,6,0,B|200:312|288:344,1,160,4|0
304,248,68785,2,0,B|400:256|440:336,1,160,4|0
456,232,69505,1,0
448,232,69625,1,0
440,232,69745,1,4
376,184,69985,2,0,B|328:152|280:208,1,80,0|0
144,72,70705,5,4
48,96,70945,1,2
136,136,71185,1,2
256,280,71665,6,0,B|336:336|416:280,3,160,4|8|4|8
120,328,73825,1,0
48,264,74065,2,2,B|24:176|64:96,1,160,2|6
448,104,75025,2,2,B|488:200|440:280,1,160,2|6
352,248,75745,1,0
288,320,75985,2,0,B|176:344|112:296,1,160,0|4
216,256,76705,1,0
256,224,76825,5,0
288,192,76945,2,0,B|360:112|456:168,1,160,4|8
464,344,77905,6,0,B|464:248,1,80
288,344,78865,1,4
192,344,79105,1,0
144,344,79225,1,0
136,200,79585,2,0,B|240:200,2,80
136,104,80305,2,0,B|232:104,1,80,0|0
392,104,80785,6,2,B|264:104,1,120
392,184,81505,1,2
296,184,81745,2,0,B|296:288,1,80,2|0
200,264,82225,2,0,B|120:304,1,80
176,216,82705,2,0,B|104:256,1,80
152,168,83185,1,0
248,184,83425,1,0
248,184,83545,1,0
456,352,83905,5,0
432,256,84145,1,0
456,160,84385,1,0
432,64,84625,2,0,B|336:72|304:152,3,160,2|2|2|2
392,192,86305,1,0
312,248,86545,1,0
232,296,86785,1,0
232,296,86905,2,2,B|136:232|168:96,1,200
256,40,88225,5,0
256,136,88465,1,0
256,232,88705,2,0,B|256:320,1,80,0|4
80,304,90145,6,0,B|32:208|88:136,1,160
144,216,90865,1,8
184,304,91105,1,8
280,304,91345,2,0,B|328:216|272:144,1,160
232,240,92065,1,0
208,144,92305,1,2
272,72,92545,1,2
336,144,92785,2,2,B|376:224,1,80
88,80,93745,6,0,B|16:168|96:240,1,160,0|4
256,136,94465,1,8
256,136,94705,1,8
424,80,94945,2,0,B|480:152|424:232,1,160
328,224,95665,1,8
192,224,95905,1,8
256,296,96145,2,0,B|256:384,1,80
160,344,96865,5,0
80,288,97105,2,0,B|16:192|120:120,1,160,0|8
176,184,97825,1,8
272,184,98065,2,0,B|320:112|264:16,1,160
176,56,98785,1,0
176,56,98905,1,0
480,56,99265,5,8
480,152,99505,1,8
480,248,99745,1,4
480,344,99985,5,2
352,48,100465,1,2
248,344,100945,1,2
96,48,101425,1,2
32,120,101665,1,0
96,192,101905,2,0,B|152:264,1,80
145,255,102265,1,0
256,40,102865,6,4,B|256:168,2,120
352,32,103825,6,0,B|480:152,1,160
48,256,104785,2,0,B|168:376,1,160
256,192,105745,1,8
256,192,105985,1,8
256,0,106465,1,2
256,96,106705,1,2
256,288,107185,1,4
256,192,107425,12,0,109585
408,56,110305,5,0
472,128,110545,1,2
408,200,110785,1,0
472,272,111025,1,2
408,344,111265,1,0
312,344,111505,2,0,B|240:288|160:344,1,160
160,264,112225,2,0,B|232:208|316:226,1,160
336,160,112945,5,0
240,160,113185,1,2
160,200,113425,1,0
72,160,113665,2,0,B|32:88|96:40|144:112,1,160,2|0
72,160,114385,6,0,B|112:232|48:280|0:208,1,160,2|0
16,120,115105,1,0
112,104,115345,2,0,B|144:32|256:32|280:120|232:160,1,240
144,200,116305,2,0,B|152:288|240:320|312:288|320:208,1,240
464,344,117985,5,0
400,272,118225,1,0
464,200,118465,1,0
400,128,118705,1,0
464,56,118945,1,0
368,48,119185,2,0,B|288:112|352:192,1,160
256,168,119905,5,0
256,168,120145,2,0,B|182:250|270:322,1,160
256,312,120745,2,0,B|327:262|375:230,1,120
408,328,121345,1,0
464,248,121585,1,0
408,168,121825,1,4
120,32,122305,5,0
48,96,122545,1,0
120,160,122785,2,0,B|208:216|280:152,1,160,4|0
268,161,123505,2,0,B|320:248|264:336,1,160,4|0
276,313,124225,2,0,B|200:264|112:328,1,160,4|0
125,318,124945,1,4
256,56,125665,5,0
352,88,125905,1,2
352,184,126145,1,2
384,280,126385,1,0
480,304,126625,1,0
448,208,126865,6,0,B|488:128|440:40,1,160,2|0
368,128,127585,1,0
288,56,127825,2,0,B|248:144|288:216,1,160,2|0
208,256,128545,1,0
208,256,128785,1,4
16,280,129505,5,2
104,312,129745,1,0
192,280,129985,1,2
280,304,130225,1,0
368,272,130465,1,2
432,224,130705,6,0,B|384:160|472:152|488:184|504:184|480:232,1,160
432,224,131425,2,0,B|392:160|320:152|280:208|328:264|384:272,1,240
304,296,132385,2,0,B|248:256|224:336|256:360|256:344,1,80,0|4
376,304,133105,5,0
376,304,133345,1,0
456,248,133585,2,0,B|368:184|424:80,1,160
256,224,134545,1,0
56,48,135265,2,0,B|120:120|48:208,1,160
248,192,136225,5,0
248,192,136465,1,2
488,144,137185,2,0,B|472:176|512:208|488:232,1,80
40,152,137905,1,0
40,152,138145,2,0,B|16:208|72:288|24:336,1,160
128,344,138865,5,8
168,256,139105,1,0
200,344,139345,1,0
240,256,139585,1,0
272,344,139825,1,0
312,256,140065,1,4
256,192,140305,12,0,142225
448,48,155665,5,0
400,128,155905,1,2
304,128,156145,1,0
248,48,156385,1,2
184,120,156625,2,0,B|144:184|192:240,2,120
480,336,157825,5,2
400,288,158065,1,0
320,232,158305,1,2
400,176,158545,2,2,B|464:112|424:56,2,120,0|2|0
256,192,159505,12,0,160945
56,40,161425,5,0
128,104,161665,1,2
56,160,161905,1,0
128,224,162145,1,2
56,288,162385,2,0,B|120:352|176:280,2,120
432,40,163585,5,2
432,136,163825,1,0
432,232,164065,1,2
488,304,164305,2,0,B|400:352|360:280,2,120
56,328,165505,5,0
56,232,165745,1,0
56,136,165985,1,0
56,40,166225,2,0,B|136:32|136:120,2,120
56,40,167185,5,2
464,40,168145,5,2
256,360,169105,5,2
256,352,170065,6,0,B|256:264,1,80
256,80,171025,1,0
256,80,171265,2,0,B|256:144,1,40
128,192,171745,5,0
96,224,171865,1,2
104,272,171985,1,2
144,304,172105,1,0
184,288,172225,1,0
256,224,172465,2,0,B|256:272,1,40
320,336,172945,6,0,B|408:344|408:256,1,120,2|2
472,144,173665,2,2,B|456:200|488:192|464:248,1,80
256,48,174385,5,0
168,80,174625,1,0
80,112,174865,2,0,B|24:184,1,80,2|0
80,256,175345,2,0,B|136:336,1,80,2|0
125,321,175705,2,0,B|176:280|224:296|200:376,1,120
256,264,176305,5,0
256,168,176545,1,0
336,112,176785,2,0,B|392:192|336:280,1,160,2|2
176,112,177745,2,0,B|120:192|184:296,1,160,2|2
256,224,178465,1,0
256,128,178705,1,0
256,128,178945,1,0
256,128,179065,2,0,B|256:48|328:40|368:80|344:160,1,200
56,288,180385,6,2,B|112:368,1,80
256,280,180865,2,2,B|200:360,1,80
392,280,181585,2,0,B|440:232|448:184|400:144,2,120
352,192,182545,5,0
256,192,182785,1,0
256,192,183025,1,0
256,192,183265,1,0
256,192,183505,1,0
256,192,183745,1,0
448,192,184225,5,0
448,288,184465,1,4
352,192,184705,1,0
256,288,184945,1,0
160,192,185185,2,0,B|88:264|160:352,1,160
72,336,185905,5,0
168,336,186145,1,0
168,240,186385,1,4
168,144,186625,1,0
168,144,186745,2,0,B|224:96,1,120
256,256,187345,5,2
408,216,187585,1,2
256,192,187825,1,2
408,160,188065,1,2
256,128,188305,2,0,B|304:104|320:168|384:160,1,120,2|0
256,256,189025,1,2
256,256,189265,2,0,B|192:232|136:304|88:272,1,160,2|0
64,192,189985,5,0
104,104,190225,1,0
192,64,190465,1,0
192,64,190705,1,0
280,104,190945,1,0
280,104,191065,1,0
376,192,191425,5,0
256,312,191665,1,0
136,192,191905,1,0
136,192,192145,5,4
376,192,192625,1,4
136,192,193105,5,4
376,192,193585,1,4
256,192,193825,5,0
256,192,194065,1,0
256,192,194305,1,0
256,192,194545,2,0,B|256:24,1,160
40,368,195745,5,0
96,288,195985,1,0
40,208,196225,1,0
40,208,196465,2,0,B|88:128|40:48,1,160
256,192,197425,5,0
472,192,197905,1,8
472,192,198145,1,8
32,192,198625,1,8
32,192,198865,1,8
256,192,199345,1,0
256,192,199585,12,4,201745
