osu file format v9

[General]
AudioFilename: Hatsune miku-infinity.mp3
AudioLeadIn: 0
PreviewTime: 3692
Countdown: 0
SampleSet: Normal
StackLeniency: 0.4
Mode: 1
LetterboxInBreaks: 1

[Editor]
Bookmarks: 74427,146427,219690
DistanceSpacing: 1
BeatDivisor: 4
GridSize: 16

[Metadata]
Title:Infinity
Artist:Hatsune Miku
Creator:kanpakyin
Version:Taiko Collab
Source:cosMo
Tags:KanaRin eveless Sandpig aabc271 TW-KUMA01 Vocaloid2 goodbye bousouP Alace

[Difficulty]
HPDrainRate:6
CircleSize:5
OverallDifficulty:6
ApproachRate:6
SliderMultiplier:1.4
SliderTickRate:1

[Events]
//Background and Video events
0,0,"Taiko_BG.jpg"
//Break Periods
//Storyboard Layer 0 (Background)
//Storyboard Layer 1 (Fail)
//Storyboard Layer 2 (Pass)
//Storyboard Layer 3 (Foreground)
Sprite,Foreground,Centre,"aabc271.png",320,240 F,0,3058,3690,0,1 M,0,3058,4006,98,438,115,438 M,0,4006,4953,115,438,126,438 M,0,4953,5585,126,438,131,438 M,0,5585,73795,131,438,128,438 M,0,73795,74427,128,438 F,0,73795,74427,1,0
Sprite,Foreground,Centre,"kanpakyin.png",320,240 F,0,73795,74427,0,1 M,0,73795,74742,84,442,99,442 M,0,74742,75690,99,442,113,442 M,0,75690,76321,113,442,117,442 M,0,76321,146427,117,442 F,0,145795,146427,1,0
Sprite,Foreground,Centre,"TW-KUMA01.png",320,240 F,0,145795,146427,0,1 M,0,145795,146742,123,440,137,439 M,0,146742,147690,137,439,148,439 M,0,147690,148321,148,439,154,438 M,0,148321,219690,154,438 F,0,219058,219690,1,0
Sprite,Foreground,Centre,"alace.png",320,240 F,0,219058,219690,0,1 M,0,219058,220006,72,438,87,438 M,0,220006,220953,87,438,99,438 M,0,220953,221585,99,438,102,438 M,0,221585,278427,102,438 F,0,277795,278427,1,0
Sprite,Foreground,Centre,"aabc271.png",320,240 M,0,3690,4321,109,438 F,0,3690,4321,1,0 S,0,3690,4321,1,2.55648 S,0,4321,,2.55648
Sprite,Foreground,Centre,"kanpakyin.png",320,240 M,0,74427,75058,94,442 F,0,74427,75058,1,0 S,0,74427,75058,1,2.24928
Sprite,Foreground,Centre,"TW-KUMA01.png",320,240 M,0,146427,147058,133,440 F,0,146427,147058,1,0 S,0,146427,147058,1,2.2288
Sprite,Foreground,Centre,"alace.png",320,240 M,0,219690,220321,82,438 F,0,219690,220321,1,0 S,0,219690,220321,1,3.33472
//Storyboard Sound Samples
//Background Colour Transformations
3,100,163,162,255

[TimingPoints]
1164,315.789473684211,4,1,1,55,1,0
250006,-100,4,1,1,55,0,1
278427,-100,4,1,1,55,0,0

[Colours]
Combo1 : 149,134,115
Combo2 : 176,111,147

[HitObjects]
256,192,3690,5,12
256,192,4953,1,0
256,192,6216,1,0
256,192,6848,5,8
256,192,7479,5,0
256,192,7795,1,0
256,192,8111,5,8
256,192,8742,5,0
256,192,9058,1,0
256,192,9374,1,0
256,192,10006,5,8
256,192,10321,1,8
256,192,10637,1,8
256,192,11269,5,0
256,192,11585,1,0
256,192,11900,5,8
256,192,12216,5,0
256,192,12532,5,8
256,192,12690,5,0
256,192,12848,1,0
256,192,13164,1,0
256,192,13795,1,0
256,192,14427,5,8
256,192,15058,5,0
256,192,15374,1,0
256,192,15690,5,8
256,192,15848,5,0
256,192,16006,5,8
256,192,16321,1,8
256,192,16953,1,8
256,192,17585,5,0
256,192,17742,1,0
256,192,17900,5,8
256,192,18058,5,0
256,192,18216,5,8
256,192,18532,1,8
256,192,18848,5,0
256,192,19479,5,8
256,192,20111,1,8
256,192,20269,5,0
256,192,20427,1,0
256,192,20742,5,8
256,192,21058,5,0
256,192,21216,5,8
256,192,21374,2,0,B|256:0|512:0|512:384,1,560
256,192,23900,1,8
256,192,24216,1,8
256,192,24532,1,8
256,192,24848,1,8
256,192,25164,1,12
256,192,25479,5,0
256,192,25585,1,0
256,192,25690,1,0
256,192,25795,5,8
256,192,26111,5,0
256,192,26216,1,0
256,192,26321,1,0
256,192,26427,5,8
256,192,26532,5,0
256,192,26637,1,0
256,192,26742,5,8
256,192,26848,5,0
256,192,26953,1,0
256,192,27058,5,8
256,192,27164,1,8
256,192,27269,5,0
256,192,27374,5,8
256,192,27479,1,8
256,192,27585,5,0
256,192,27690,1,0
256,192,27848,1,0
256,192,28006,5,8
256,192,28164,5,0
256,192,28321,5,8
256,192,28479,1,8
256,192,28558,1,8
256,192,28637,1,8
256,192,28716,1,8
256,192,28795,1,8
256,192,28953,5,4
256,192,29269,5,8
256,192,29427,1,8
256,192,29506,1,8
256,192,29585,1,8
256,192,29900,5,0
256,192,30058,1,0
256,192,30137,1,0
256,192,30216,5,8
256,192,30374,5,0
256,192,30532,5,8
256,192,30690,5,0
256,192,30848,5,8
256,192,31006,5,0
256,192,31164,5,8
256,192,31321,1,8
256,192,31479,1,8
256,192,31795,5,0
256,192,31953,1,0
256,192,32032,5,8
256,192,32111,5,0
256,192,32427,1,0
256,192,32585,5,8
256,192,32664,5,0
256,192,32742,5,8
256,192,32900,5,0
256,192,33058,5,8
256,192,33216,1,8
256,192,33374,5,0
256,192,33532,5,8
256,192,33690,1,8
256,192,33848,5,0
256,192,34006,1,4
256,192,34321,1,0
256,192,34479,5,8
256,192,34558,1,8
256,192,34637,1,8
256,192,34953,5,0
256,192,35111,1,0
256,192,35190,5,8
256,192,35269,1,8
256,192,35427,5,0
256,192,35585,5,8
256,192,35742,5,0
256,192,35900,5,8
256,192,36058,1,8
256,192,36216,5,0
256,192,36374,5,8
256,192,36532,1,8
256,192,36848,5,0
256,192,37006,1,0
256,192,37085,1,0
256,192,37164,1,0
256,192,37479,1,0
256,192,37637,5,8
256,192,37716,1,8
256,192,37795,5,0
256,192,37953,5,8
256,192,38111,5,0
256,192,38190,1,0
256,192,38269,5,8
256,192,38348,1,8
256,192,38427,5,0
256,192,38742,5,8
256,192,39058,5,4
256,192,39216,1,0
256,192,39295,1,0
256,192,39374,1,0
256,192,39532,1,0
256,192,39690,5,8
256,192,39927,5,0
256,192,40006,5,8
256,192,40164,5,0
256,192,40321,5,8
256,192,40400,1,8
256,192,40479,1,8
256,192,40637,5,0
256,192,40716,1,0
256,192,40795,1,0
256,192,40953,1,0
256,192,41032,1,0
256,192,41111,1,0
256,192,41190,1,0
256,192,41269,5,8
256,192,41427,5,0
256,192,41585,5,8
256,192,41742,5,0
256,192,41821,1,0
256,192,41900,1,0
256,192,42058,5,8
256,192,42216,5,0
256,192,42453,1,0
256,192,42532,1,0
256,192,42690,5,8
256,192,42848,1,8
256,192,42927,1,8
256,192,43006,5,0
256,192,43085,1,0
256,192,43164,1,0
256,192,43321,5,8
256,192,43479,5,0
256,192,43558,1,0
256,192,43637,5,8
256,192,43716,5,0
256,192,43795,1,0
256,192,44111,1,4
256,192,44269,1,0
256,192,44348,1,0
256,192,44427,1,0
256,192,44585,5,8
256,192,44742,1,8
256,192,44979,5,0
256,192,45058,5,8
256,192,45216,5,0
256,192,45374,5,8
256,192,45453,1,8
256,192,45532,1,8
256,192,45611,1,8
256,192,45690,5,0
256,192,45848,1,0
256,192,46006,1,0
256,192,46085,1,0
256,192,46164,1,0
256,192,46242,1,0
256,192,46321,5,8
256,192,46479,5,0
256,192,46637,5,8
256,192,46795,5,0
256,192,46874,5,8
256,192,46953,5,0
256,192,47111,1,0
256,192,47269,1,0
256,192,47506,1,0
256,192,47585,1,0
256,192,47742,5,8
256,192,47900,12,0,48848
256,192,49164,5,0
256,192,49269,1,0
256,192,49374,1,0
256,192,49479,5,8
256,192,49585,5,0
256,192,49690,1,0
256,192,49795,5,8
256,192,49900,5,0
256,192,50006,1,0
256,192,50111,5,8
256,192,50216,5,0
256,192,50321,1,0
256,192,50427,1,0
256,192,50532,1,0
256,192,50637,1,0
256,192,50742,5,8
256,192,50848,5,0
256,192,50953,1,0
256,192,51058,5,8
256,192,51164,5,0
256,192,51269,1,0
256,192,51374,5,8
256,192,51479,5,0
256,192,51585,5,8
256,192,51690,1,8
256,192,52006,5,0
256,192,52111,5,8
256,192,52216,5,0
256,192,52321,5,8
256,192,52637,5,0
256,192,52742,5,8
256,192,52848,1,8
256,192,52953,1,8
256,192,53164,5,0
256,192,53269,5,8
256,192,53374,5,0
256,192,53479,1,0
256,192,53585,5,8
256,192,53690,5,0
256,192,53795,1,0
256,192,53900,5,8
256,192,54006,1,8
256,192,54111,5,0
256,192,54216,1,0
256,192,54374,1,0
256,192,54453,1,0
256,192,54532,1,0
256,192,54690,5,8
256,192,55006,5,0
256,192,55164,5,8
256,192,55321,5,0
256,192,55479,1,0
256,192,55637,1,0
256,192,55716,1,0
256,192,55795,1,0
256,192,55953,5,8
256,192,56111,1,8
256,192,56348,5,0
256,192,56427,5,8
256,192,56585,5,0
256,192,56742,5,8
256,192,56900,1,8
256,192,56979,5,0
256,192,57058,1,0
256,192,57216,5,8
256,192,57374,1,8
256,192,57611,5,0
256,192,57690,5,8
256,192,57848,5,0
256,192,58006,1,0
256,192,58085,1,0
256,192,58164,1,0
256,192,58321,1,0
256,192,58479,5,8
256,192,58637,1,8
256,192,58874,5,0
256,192,58953,5,8
256,192,59111,5,0
256,192,59269,5,8
256,192,59348,1,8
256,192,59427,1,8
256,192,59506,1,8
256,192,59585,5,0
256,192,59742,5,8
256,192,59900,1,8
256,192,60137,5,0
256,192,60216,5,8
256,192,60374,5,0
256,192,60532,1,0
256,192,60611,5,8
256,192,60690,5,0
256,192,60769,5,8
256,192,60848,1,8
256,192,61006,1,8
256,192,61164,1,8
256,192,61400,5,0
256,192,61479,5,8
256,192,61637,1,0
256,192,61795,1,8
256,192,61874,5,0
256,192,61953,1,0
256,192,62032,1,0
256,192,62111,5,8
256,192,62190,5,0
256,192,62269,5,8
256,192,62427,1,8
256,192,62664,5,0
256,192,62742,5,8
256,192,62900,5,0
256,192,63058,5,8
256,192,63137,1,8
256,192,63216,5,0
256,192,63295,1,0
256,192,63374,5,8
256,192,63453,1,8
256,192,63532,5,0
256,192,63611,5,8
256,192,63690,1,8
256,192,63927,5,0
256,192,64006,5,8
256,192,64085,1,8
256,192,64164,5,0
256,192,64321,5,12
256,192,64479,5,0
256,192,64558,1,0
256,192,64637,1,0
256,192,64795,1,0
256,192,64953,5,8
256,192,65190,5,0
256,192,65269,1,0
256,192,65427,1,0
256,192,65585,5,8
256,192,65664,5,0
256,192,65821,5,8
256,192,65979,5,0
256,192,66058,5,8
256,192,66216,5,0
256,192,66295,1,0
256,192,66453,5,8
256,192,66611,5,0
256,192,66690,5,8
256,192,66848,1,8
256,192,67006,5,0
256,192,67085,1,0
256,192,67164,1,0
256,192,67321,5,8
256,192,67479,5,0
256,192,67716,1,0
256,192,67795,1,0
256,192,67953,1,0
256,192,68111,5,8
256,192,68190,5,0
256,192,68269,1,0
256,192,68348,5,8
256,192,68506,5,0
256,192,68585,5,8
256,192,68742,5,0
256,192,68979,1,0
256,192,69058,1,0
256,192,69216,1,0
256,192,69374,5,12
256,192,69532,1,8
256,192,69611,1,8
256,192,69690,1,8
256,192,69848,5,0
256,192,70006,1,0
256,192,70242,1,0
256,192,70321,5,8
256,192,70479,5,0
256,192,70637,5,8
256,192,70795,5,0
256,192,70874,5,8
256,192,71032,5,0
256,192,71111,1,0
256,192,71269,1,0
256,192,71427,5,8
256,192,71506,5,0
256,192,71664,1,0
256,192,71742,5,8
256,192,71900,1,8
256,192,72058,5,0
256,192,72137,1,0
256,192,72216,1,0
256,192,72374,5,8
256,192,72532,5,0
256,192,72769,1,0
256,192,72848,5,8
256,192,73006,5,0
256,192,73164,5,8
256,192,73242,1,8
256,192,73321,1,8
256,192,73400,1,8
256,192,73479,5,0
256,192,73637,5,8
256,192,73795,5,0
256,192,74032,1,0
256,192,74111,5,8
256,192,74269,5,0
323,148,74427,1,0
323,148,74506,1,8
323,148,74664,1,0
323,148,74742,1,8
323,148,74900,1,0
323,148,75058,1,8
323,148,75137,1,0
323,148,75295,1,8
323,148,75374,1,0
323,148,75532,1,0
323,148,75690,1,8
323,148,75848,1,0
323,148,75927,1,0
323,148,76006,1,8
323,148,76164,1,0
323,148,76321,1,8
323,148,76479,1,0
323,148,76637,1,0
323,148,76795,1,0
323,148,76874,1,8
323,148,76953,1,0
323,148,77111,1,8
323,148,77190,1,8
323,148,77269,1,0
323,148,77427,1,0
323,148,77585,1,8
323,148,77664,1,0
323,148,77821,1,8
323,148,77900,1,0
323,148,78058,1,0
323,148,78216,1,8
323,148,78374,1,0
323,148,78453,1,0
323,148,78532,1,8
323,148,78690,1,0
323,148,78848,1,8
323,148,79006,1,8
323,148,79085,1,0
323,148,79164,1,0
323,148,79321,1,0
323,148,79479,1,8
323,148,79795,5,0
323,148,79953,1,8
323,148,80111,1,0
323,148,80190,1,0
323,148,80269,1,8
323,148,80348,1,0
323,148,80427,1,8
323,148,80585,1,0
323,148,80664,1,8
323,148,80742,1,0
323,148,80900,1,0
323,148,81058,1,8
323,148,81216,1,0
323,148,81374,1,8
323,148,81532,1,8
323,148,81690,1,0
323,148,81848,1,8
323,148,82164,1,0
323,148,82321,1,8
323,148,82637,1,0
323,148,82795,1,0
323,148,82953,1,8
323,148,83269,1,0
323,148,83427,1,8
323,148,83585,1,0
323,148,83900,1,8
323,148,84058,1,0
323,148,84216,1,0
323,148,84532,1,8
323,148,84690,1,0
323,148,84769,1,0
323,148,84848,1,8
323,148,85006,1,0
323,148,85085,1,8
323,148,85164,1,8
323,148,85400,1,0
323,148,85479,1,8
323,148,85637,1,0
323,148,85795,1,8
323,148,85874,1,0
323,148,86032,1,0
323,148,86111,1,8
323,148,86269,1,0
323,148,86427,1,8
323,148,86585,1,0
323,148,86742,1,0
323,148,86900,1,8
323,148,86979,1,8
323,148,87058,1,0
323,148,87216,1,0
323,148,87295,1,8
323,148,87453,1,0
323,148,87532,1,0
323,148,87611,1,8
323,148,87690,1,0
323,148,87848,1,0
323,148,87927,1,8
323,148,88085,1,0
323,148,88164,1,0
323,148,88242,1,0
323,148,88321,1,8
323,148,88637,1,8
323,148,88795,1,0
323,148,88874,1,0
323,148,88953,1,0
323,148,89111,1,8
323,148,89190,1,8
323,148,89269,1,8
323,148,89427,1,0
323,148,89585,1,8
323,148,89742,1,0
323,148,89821,1,8
323,148,89900,1,0
323,148,90058,1,8
323,148,90216,1,0
323,148,90295,1,8
323,148,90374,1,8
323,148,90453,1,8
323,148,90532,1,0
323,148,90690,1,0
323,148,90769,1,8
323,148,90848,1,0
323,148,91006,1,0
323,148,91164,1,0
323,148,91321,1,0
323,148,91479,1,0
323,148,91637,1,8
323,148,91795,1,8
323,148,91953,1,8
323,148,92111,1,0
323,148,92190,1,8
323,148,92348,1,0
323,148,92427,1,8
323,148,92585,1,0
323,148,92664,1,8
323,148,92821,1,0
323,148,92900,1,8
323,148,93058,1,0
323,148,93137,1,8
323,148,93216,1,0
323,148,93295,1,0
323,148,93374,1,8
323,148,93453,1,8
323,148,93532,1,8
323,148,93611,1,8
323,148,93690,1,0
323,148,93848,1,0
323,148,93927,1,0
323,148,94006,1,8
323,148,94164,1,0
323,148,94321,1,0
323,148,94479,1,8
323,148,94558,1,0
323,148,94637,1,0
323,148,94795,1,8
323,148,94874,1,0
323,148,95032,1,8
323,148,95111,1,0
323,148,95269,1,0
323,148,95348,1,8
323,148,95506,1,0
323,148,95585,1,8
323,148,95742,1,0
323,148,95900,1,8
323,148,96058,1,0
323,148,96216,1,8
323,148,96374,1,0
323,148,96532,1,8
323,148,96611,1,0
323,148,96690,1,8
323,148,96769,1,0
323,148,96848,1,8
323,148,96927,1,8
323,148,97006,1,0
323,148,97085,1,8
323,148,97164,1,0
323,148,97321,1,0
323,148,97637,5,0
323,148,97716,1,0
323,148,97795,1,8
323,148,97953,1,0
323,148,98032,1,0
323,148,98111,1,8
323,148,98190,1,8
323,148,98269,1,0
323,148,98348,1,0
323,148,98427,1,8
323,148,98585,1,0
323,148,98742,1,8
323,148,98900,1,0
323,148,98979,1,8
323,148,99058,1,0
323,148,99137,1,8
323,148,99216,1,0
323,148,99295,1,8
323,148,99374,1,0
323,148,99453,1,8
323,148,99532,1,0
323,148,99611,1,8
323,148,99690,1,8
323,148,99848,1,0
323,148,99927,1,8
323,148,100006,1,8
323,148,100164,1,0
323,148,100321,1,8
323,148,100400,1,0
323,148,100558,1,8
323,148,100637,1,0
323,148,100795,1,0
323,148,100953,1,8
323,148,101111,1,8
323,148,101190,1,8
323,148,101269,1,8
323,148,101348,1,0
323,148,101506,1,0
323,148,101585,1,8
323,148,101742,1,0
323,148,101900,1,8
323,148,102058,1,0
323,148,102137,1,0
323,148,102216,1,8
323,148,102374,1,0
323,148,102453,1,8
323,148,102611,1,0
323,148,102690,1,8
323,148,102848,1,8
323,148,102927,1,0
323,148,103085,1,8
323,148,103164,1,0
323,148,103321,1,0
323,148,103479,1,8
323,148,103637,1,0
323,148,103716,1,8
323,148,103795,1,0
323,148,103874,1,0
323,148,103953,1,8
323,148,104032,1,0
323,148,104111,1,0
323,148,104190,1,8
323,148,104269,1,0
323,148,104348,1,0
323,148,104427,1,8
323,148,104585,1,0
323,148,104742,1,8
323,148,104900,1,8
323,148,105058,1,8
323,148,105216,1,0
323,148,105295,1,0
323,148,105374,1,8
323,148,105532,1,8
323,148,105611,1,8
323,148,105690,1,0
323,148,105848,1,8
323,148,105927,1,8
323,148,106006,1,8
323,148,106164,1,0
323,148,106242,1,8
323,148,106400,1,0
323,148,106479,1,8
323,148,106637,1,0
323,148,106716,1,8
323,148,106795,1,8
323,148,106874,1,0
323,148,107032,1,8
323,148,107111,1,0
323,148,107269,1,8
323,148,107427,1,0
323,148,107506,1,0
323,148,107585,1,8
323,148,107742,1,0
323,148,107821,1,8
323,148,107900,1,0
323,148,108058,1,0
323,148,108216,1,8
323,148,108374,1,8
323,148,108532,1,8
323,148,108769,1,0
323,148,108848,1,8
323,148,109006,1,0
323,148,109164,1,8
323,148,109400,1,0
323,148,109479,1,8
323,148,109637,1,0
323,148,109716,1,0
323,148,109795,1,8
323,148,109953,1,8
323,148,110032,1,8
323,148,110111,1,0
323,148,110269,1,0
323,148,110427,1,8
323,148,110585,1,8
323,148,110742,1,0
323,148,110900,1,8
323,148,110979,1,8
323,148,111058,1,8
323,148,111216,1,8
323,148,111295,1,8
323,148,111374,1,0
323,148,111453,1,8
323,148,111532,1,8
323,148,111611,1,0
323,148,111690,1,8
323,148,111769,1,0
323,148,111848,1,8
323,148,111927,1,0
323,148,112006,1,8
323,148,112164,1,8
323,148,112242,1,8
323,148,112321,1,0
323,148,112637,1,8
323,148,112716,1,0
323,148,112874,1,0
323,148,112953,1,8
323,148,113111,1,0
323,148,113190,1,8
323,148,113269,1,8
323,148,113427,1,0
323,148,113506,1,8
323,148,113585,1,8
323,148,113742,1,8
323,148,113821,1,8
323,148,113900,1,8
323,148,114058,1,0
323,148,114216,1,8
323,148,114374,1,8
323,148,114532,1,0
323,148,114611,1,8
323,148,114690,1,8
323,148,114769,1,8
323,148,114848,1,0
323,148,115006,1,8
323,148,115085,1,8
323,148,115164,1,8
323,148,115321,1,8
323,148,115400,1,8
323,148,115479,1,0
323,148,115637,1,8
323,148,115716,1,8
323,148,115795,1,0
323,148,115874,1,0
323,148,115953,1,8
323,148,116032,1,8
323,148,116111,1,0
323,148,116269,1,8
323,148,116348,1,0
323,148,116427,1,8
323,148,116506,1,0
323,148,116585,1,8
323,148,116664,1,0
323,148,116742,1,8
323,148,116821,1,0
323,148,116900,1,8
323,148,116979,1,8
323,148,117058,1,8
323,148,117137,1,0
323,148,117216,1,8
323,148,117374,1,4
323,148,117690,1,0
323,148,117795,1,8
323,148,117900,1,8
323,148,118006,1,8
323,148,118321,1,8
323,148,118427,1,8
323,148,118532,1,0
323,148,118637,1,8
323,148,118742,1,8
323,148,118848,1,8
323,148,118953,1,8
323,148,119058,1,0
323,148,119164,1,8
323,148,119269,1,8
323,148,119374,1,0
323,148,119479,1,8
323,148,119585,1,8
323,148,119690,1,0
323,148,119795,1,8
323,148,119900,1,0
323,148,120006,1,8
323,148,120111,1,0
323,148,120216,1,8
323,148,120321,1,8
323,148,120427,1,8
323,148,120532,1,8
323,148,120637,1,0
323,148,120742,1,8
323,148,120848,1,0
323,148,120953,1,8
323,148,121058,1,8
323,148,121164,1,0
323,148,121479,1,0
323,148,121637,1,8
323,148,121795,1,0
323,148,121953,1,8
323,148,122032,1,8
323,148,122111,1,0
323,148,122269,1,0
323,148,122427,1,8
323,148,122742,1,8
323,148,122821,1,0
323,148,122979,1,0
323,148,123058,1,8
323,148,123216,1,0
323,148,123374,1,8
323,148,123532,1,0
323,148,123611,1,0
323,148,123690,1,8
323,148,123848,1,0
323,148,124006,1,8
323,148,124164,1,0
323,148,124242,1,0
323,148,124321,1,0
323,148,124637,1,0
323,148,124795,1,8
323,148,124953,1,8
323,148,125111,1,0
323,148,125269,1,8
323,148,125427,1,8
323,148,125506,1,8
323,148,125585,1,0
323,148,125742,1,0
323,148,125900,1,8
323,148,126058,1,8
323,148,126137,1,8
323,148,126216,1,0
323,148,126374,1,0
323,148,126453,1,0
323,148,126532,1,8
323,148,126690,1,0
323,148,126848,1,8
323,148,127006,1,0
323,148,127085,1,0
323,148,127164,1,0
323,148,127242,1,0
323,148,127321,1,0
323,148,127400,1,0
323,148,127479,1,8
323,148,127637,1,0
323,148,127795,1,8
323,148,128111,1,0
323,148,128427,1,8
323,148,128585,1,0
323,148,128664,1,0
323,148,128742,1,8
323,148,128900,1,0
323,148,129058,1,8
323,148,129216,1,0
323,148,129374,1,0
323,148,129690,1,8
323,148,129848,1,8
323,148,130006,1,0
323,148,130085,1,8
323,148,130164,1,0
323,148,130321,1,0
323,148,130479,1,8
323,148,130637,1,8
323,148,130953,1,0
323,148,131269,1,4
323,148,131742,1,0
323,148,131900,1,8
323,148,132216,1,0
323,148,132374,1,8
323,148,132532,1,8
323,148,132690,1,0
323,148,132769,1,0
323,148,132848,1,8
323,148,133006,1,0
323,148,133164,1,8
323,148,133479,1,8
323,148,133637,1,0
323,148,133795,1,8
323,148,133953,1,0
323,148,134032,1,8
323,148,134111,1,8
323,148,134269,1,0
323,148,134427,1,8
323,148,134742,1,8
323,148,134900,1,0
323,148,135058,1,8
323,148,135216,1,8
323,148,135295,1,8
323,148,135374,1,8
323,148,135532,1,0
323,148,135690,1,8
323,148,136006,1,0
323,148,136164,1,8
323,148,136321,1,8
323,148,136637,1,0
323,148,136795,1,8
323,148,136953,1,0
323,148,137111,1,0
323,148,137190,1,8
323,148,137269,1,0
323,148,137427,1,0
323,148,137585,1,8
323,148,137900,1,8
323,148,138216,1,0
323,148,138532,1,8
323,148,138690,1,0
323,148,138848,1,0
323,148,139006,1,0
323,148,139085,1,8
323,148,139164,1,0
323,148,139321,1,0
323,148,139479,1,8
323,148,139637,1,0
323,148,139716,1,0
323,148,139795,1,8
323,148,139953,1,0
323,148,140111,1,0
323,148,140269,1,8
323,148,140427,1,0
323,148,140585,1,8
323,148,140742,1,8
323,148,140848,1,8
323,148,140953,1,0
323,148,141058,1,8
323,148,141164,1,8
323,148,141269,1,8
323,148,141374,1,8
323,148,141479,1,0
323,148,141585,1,8
323,148,141690,1,0
323,148,141795,1,8
323,148,141900,1,0
323,148,142006,1,8
323,148,142111,1,0
323,148,142216,1,8
323,148,142321,1,0
323,148,142427,1,8
323,148,142532,1,8
323,148,142637,1,0
323,148,142742,1,8
323,148,142953,1,0
323,148,143058,1,8
323,148,143164,1,0
323,148,143269,1,8
323,148,143374,1,8
323,148,143479,1,0
323,148,143585,1,0
323,148,143690,1,8
323,148,143795,1,8
323,148,143900,1,0
323,148,144006,1,8
323,148,144111,1,8
323,148,144216,1,8
323,148,144321,1,0
323,148,144427,1,0
323,148,144532,1,8
323,148,144637,1,8
323,148,144742,1,0
323,148,144848,1,8
323,148,144953,1,8
323,148,145058,1,0
323,148,145164,1,8
323,148,145269,1,8
323,148,145374,1,8
323,148,145479,1,0
323,148,145585,1,0
323,148,145690,1,0
323,148,145795,1,0
323,148,145900,1,0
323,148,146006,1,0
323,148,146111,1,0
323,148,146216,1,8
323,148,146321,1,8
323,148,146427,1,0
148,264,146664,5,0
216,40,146900,1,0
216,40,147058,1,8
216,40,147216,1,0
144,80,147374,1,0
60,180,147453,1,0
60,180,147532,1,8
148,264,147690,1,0
172,248,147927,1,0
172,248,148164,1,0
344,320,148321,1,8
344,320,148400,1,8
344,320,148479,1,0
344,320,148558,1,0
344,320,148637,1,8
328,360,148795,1,0
116,202,148953,1,0
60,180,149190,1,0
307,304,149427,1,8
167,74,149585,1,8
294,257,149742,1,0
328,360,149821,1,0
328,360,149900,1,8
344,320,150058,1,0
344,320,150137,1,0
328,360,150216,1,0
307,304,150453,1,0
307,304,150690,1,0
79,192,150848,1,8
79,192,150927,1,0
79,192,151006,1,0
79,192,151085,1,8
79,192,151164,1,0
344,320,151321,1,0
344,320,151400,1,0
277,281,151479,1,8
344,320,151637,1,0
344,320,151716,1,0
277,281,151795,1,0
349,365,151953,1,0
349,365,152032,1,0
349,365,152111,1,8
157,70,152348,1,0
298,313,152585,1,0
298,313,152742,1,0
298,313,152979,1,0
298,313,153216,1,8
140,195,153374,1,8
345,328,153532,1,0
345,328,153611,1,0
106,197,153690,1,8
106,197,153848,1,0
106,197,153927,1,0
142,64,154006,1,0
106,197,154479,1,8
106,197,154637,1,8
281,310,154953,1,0
281,310,155032,1,0
281,310,155111,1,0
329,332,155269,1,0
329,332,155506,1,0
329,332,155742,1,8
329,332,155900,1,8
311,307,156216,1,0
311,307,156295,1,0
311,307,156374,1,8
311,307,156453,1,8
311,307,156532,1,0
311,307,156848,1,8
329,332,157006,1,0
329,332,157085,1,0
329,332,157164,1,0
329,332,157321,1,0
329,332,157479,1,8
311,307,157637,1,0
311,307,157716,1,0
311,307,157795,1,0
311,307,157953,1,0
311,307,158032,1,0
311,307,158111,1,8
311,307,158269,1,0
311,307,158348,1,0
311,307,158427,1,0
329,332,158664,1,0
329,332,158900,1,0
329,332,159058,1,0
329,332,159216,1,0
329,332,159295,1,0
329,332,159374,1,8
329,332,159532,1,0
329,332,159611,1,0
329,332,159690,1,0
329,332,159848,1,0
329,332,159927,1,0
329,332,160006,1,8
220,240,160164,1,0
320,304,160321,1,8
320,304,160558,1,8
320,304,160795,1,8
320,304,160953,1,0
329,332,161111,1,0
329,332,161190,1,0
329,332,161269,1,8
329,332,161348,1,8
329,332,161427,1,0
172,224,161585,1,0
64,172,161742,1,0
64,172,161821,1,0
64,172,161900,1,8
64,172,162058,1,0
64,172,162137,1,0
64,172,162216,1,0
64,172,162374,1,0
64,172,162532,1,8
173,111,162690,1,8
173,111,162848,1,0
212,161,163006,1,0
140,224,163085,1,8
142,193,163242,1,0
142,193,163321,1,0
156,257,163479,1,8
340,343,163637,1,0
340,343,163716,1,0
157,293,163874,1,0
157,293,163953,1,8
340,343,164111,1,0
152,248,164585,1,8
96,208,164742,1,8
272,320,165216,1,8
296,344,165295,1,8
328,360,165374,1,0
264,240,165690,1,0
336,360,166006,1,0
296,304,166164,1,0
336,360,166321,1,8
312,328,166400,1,8
312,328,166479,1,8
312,328,166637,1,8
312,328,166795,1,0
296,296,166874,1,8
232,264,167032,1,0
200,248,167111,1,8
256,288,167269,1,8
320,312,167427,1,0
352,328,167506,1,8
352,328,167664,1,0
352,328,167742,1,8
344,344,167900,1,0
352,328,168058,1,8
352,328,168137,1,8
352,328,168216,1,8
352,328,168374,1,8
352,328,168532,1,0
224,272,168848,1,0
192,256,168927,1,0
160,240,169006,1,0
192,256,169085,1,0
224,272,169164,1,8
320,304,169400,1,8
424,328,169637,1,0
360,296,169795,1,0
320,304,169953,1,0
320,304,170032,1,0
320,304,170111,1,0
368,352,170269,1,0
320,304,170427,1,8
392,304,170585,1,0
360,304,170664,1,0
328,288,170742,1,8
296,224,170900,1,0
328,288,171058,1,8
344,320,171137,1,8
344,320,171216,1,8
344,336,171374,1,0
344,336,171453,1,0
344,336,171532,1,0
344,336,171690,1,0
328,272,171848,1,8
336,304,171927,1,8
336,304,172006,1,8
336,304,172164,1,0
328,288,172321,1,0
328,288,172479,1,0
328,288,172637,1,8
256,272,172795,1,0
328,288,173111,1,0
328,288,173190,1,0
328,288,173269,1,0
360,352,173427,1,0
328,288,173585,1,8
360,352,173742,1,8
304,312,173900,1,0
360,352,174058,1,8
304,312,174216,1,0
336,328,174295,1,0
336,328,174374,1,8
336,328,174453,1,8
336,328,174532,1,8
336,328,174611,1,8
336,328,174690,1,0
336,328,174848,1,0
304,312,174927,1,0
304,312,175006,1,0
280,280,175085,1,0
256,248,175164,1,0
224,240,175242,1,0
192,232,175321,1,0
312,288,175479,1,8
336,312,175558,1,8
336,312,175637,1,8
336,312,175716,1,8
336,312,175795,1,8
320,280,175874,1,8
296,248,175953,1,8
336,312,176111,1,0
336,312,176190,1,0
336,312,176269,1,0
336,312,176348,1,0
336,312,176427,1,0
320,280,176506,1,0
336,312,176585,1,0
272,344,176742,1,0
336,312,176900,1,8
304,320,176979,1,8
336,312,177137,1,0
336,312,177216,1,8
272,280,177374,1,0
328,320,177532,1,0
352,344,177611,1,8
352,344,177769,1,8
352,344,177848,1,8
352,344,178006,1,8
352,344,178242,1,8
352,344,178479,1,8
352,344,178637,1,0
328,320,178953,1,0
328,320,179032,1,0
328,320,179111,1,0
328,320,179190,1,8
328,320,179269,1,8
352,344,179506,1,8
352,344,179742,1,8
304,296,179900,1,0
232,224,180137,1,0
152,152,180374,1,0
168,224,180532,1,8
104,208,180690,1,0
72,192,180769,1,0
104,208,180848,1,0
40,184,181006,1,0
112,200,181164,1,8
112,200,181242,1,8
112,200,181321,1,8
112,200,181479,1,8
176,232,181637,1,8
232,272,181795,1,0
296,304,181953,1,8
328,328,182032,1,8
360,344,182111,1,8
344,280,182269,1,8
360,344,182427,1,0
328,280,182585,1,8
344,312,182664,1,8
344,312,182742,1,8
328,328,182900,1,8
328,328,183058,1,0
328,328,183216,1,0
328,328,183295,1,8
312,296,183374,1,8
328,328,183532,1,8
288,272,183690,1,0
328,328,183848,1,0
328,328,183927,1,8
328,328,184006,1,8
328,328,184164,1,8
328,328,184321,1,12
328,328,184479,1,0
328,328,184558,1,0
328,328,184716,1,0
328,328,184795,1,0
384,368,184953,1,0
352,344,185032,1,0
352,344,185111,1,0
352,344,185190,1,0
352,344,185269,1,0
352,344,185427,1,0
352,344,185585,1,4
352,344,185742,1,0
352,344,185821,1,0
296,304,185979,1,0
296,304,186058,1,0
296,304,186216,1,0
296,304,186295,1,0
296,304,186374,1,0
296,304,186453,1,0
296,304,186532,1,0
232,280,186690,1,0
232,208,186848,1,4
160,192,187006,1,0
128,184,187085,1,0
352,344,187242,1,0
352,344,187321,1,0
352,344,187479,1,0
352,344,187558,1,0
352,344,187637,1,0
336,312,187716,1,0
336,312,187795,1,0
352,344,187953,1,0
352,344,188111,1,0
352,344,188190,1,0
352,344,188269,1,0
352,344,188348,1,0
352,344,188427,1,0
288,312,188585,1,0
352,344,188742,1,0
352,344,188821,1,0
352,344,188900,1,0
352,344,188979,1,0
352,344,189058,1,0
352,344,189137,1,0
352,344,189216,1,0
352,344,189295,1,0
352,344,189374,1,0
296,296,189690,1,0
240,256,189848,1,0
184,208,190006,1,8
72,120,190321,1,0
128,160,190479,1,8
80,112,190637,1,8
192,200,190953,1,0
304,280,191269,1,8
352,344,191585,1,0
352,344,191742,1,8
352,344,191900,1,0
352,344,192058,1,8
352,344,192137,1,8
320,328,192216,1,8
352,344,192374,1,8
352,344,192532,1,0
352,344,192690,1,8
344,312,192769,1,8
344,312,192848,1,8
344,312,193006,1,0
328,376,193164,1,0
352,344,193795,1,8
352,344,194427,1,0
352,344,194742,1,0
352,344,194900,1,0
344,272,195058,1,8
344,272,195374,1,0
344,272,195532,1,8
344,272,195690,1,8
96,152,196321,1,8
312,328,196953,1,0
368,200,197269,1,8
344,264,197427,1,0
312,328,197585,1,8
344,264,197742,1,0
312,328,197900,1,0
344,264,198058,1,0
312,328,198216,1,8
440,80,198848,1,8
376,208,199164,1,8
320,336,199479,1,0
216,240,199795,1,8
328,328,200111,1,0
384,368,200269,1,0
344,344,200427,1,8
224,272,200742,1,0
160,240,200900,1,0
320,336,200979,1,0
320,336,201058,1,8
328,328,201216,1,0
344,344,201374,1,8
288,304,201532,1,0
224,272,201690,1,0
192,256,201769,1,0
160,240,201848,1,8
104,200,202006,1,8
232,248,202321,1,0
352,320,202637,1,8
352,320,202795,1,8
352,320,202953,1,0
352,320,203111,1,8
296,280,203269,1,0
240,240,203427,1,8
352,320,203585,1,0
352,320,203664,1,0
352,320,203743,1,8
352,320,203822,1,0
352,320,203901,1,0
352,320,204058,1,0
352,320,204216,1,8
224,264,204532,1,0
96,200,204848,1,8
216,272,205164,1,0
160,240,205321,1,0
104,200,205479,1,8
104,200,205637,1,0
104,200,205795,1,8
104,200,205953,1,0
104,200,206111,1,8
176,208,206269,1,0
176,136,206427,1,0
176,136,206506,1,0
176,136,206585,1,0
176,208,206742,1,8
112,184,206900,1,0
96,256,207058,1,8
112,192,207216,1,8
104,224,207295,1,8
104,224,207374,1,0
104,224,207532,1,8
144,280,207690,1,8
144,280,207848,1,0
144,280,208006,1,8
144,280,208164,1,0
144,280,208321,1,0
120,216,208479,1,0
136,248,208558,1,8
136,248,208637,1,8
136,248,208716,1,8
136,248,208795,1,0
144,216,208874,1,8
152,184,208953,1,0
208,224,209111,1,0
208,224,209269,1,8
72,192,209585,1,0
136,248,209821,1,0
144,216,210058,1,8
144,216,210216,1,8
208,248,210374,1,0
272,280,210532,1,0
304,296,210611,1,0
336,320,210690,1,8
336,320,210848,1,0
224,240,211085,1,0
128,192,211321,1,8
64,160,211479,1,8
128,184,211637,1,0
160,200,211716,1,0
192,216,211795,1,0
192,216,211953,1,8
192,216,212111,1,0
200,112,212348,1,0
328,184,212585,1,8
264,200,212742,1,8
328,320,213058,1,0
392,352,213374,1,0
320,272,213611,1,0
272,224,213848,1,0
224,176,214006,1,8
88,176,214321,1,0
56,184,214400,1,0
56,184,214479,1,0
56,184,214558,1,0
56,184,214637,1,0
112,224,214795,1,0
168,264,214953,1,8
224,304,215111,1,0
256,320,215190,1,0
288,336,215269,1,0
240,288,215427,1,0
352,360,215585,1,8
304,312,215742,1,0
280,288,215821,1,0
256,264,215900,1,0
160,216,216137,1,0
248,272,216374,1,0
304,312,216532,1,8
304,312,216848,1,0
320,344,216927,1,0
320,344,217006,1,0
320,344,217085,1,0
320,344,217164,1,0
448,288,217400,1,0
360,232,217637,1,8
296,200,217795,1,8
336,336,218111,1,0
336,304,218190,1,0
336,304,218269,1,0
336,304,218348,1,0
336,304,218427,1,0
352,376,218664,1,0
272,312,218900,1,8
216,264,219058,1,8
152,224,219216,1,0
152,224,219295,1,0
184,248,219374,1,0
152,224,219532,1,0
240,112,219690,1,4
240,112,219848,1,0
240,112,220006,1,2
240,112,220085,1,2
240,112,220164,1,0
240,112,220242,1,0
240,112,220321,1,2
232,152,220479,1,0
232,152,220558,1,0
232,152,220637,1,2
232,152,220716,1,2
232,152,220795,1,0
232,152,220953,1,2
196,132,221190,1,2
196,132,221427,1,2
92,176,221585,1,0
156,128,221742,1,2
156,128,221900,1,0
156,128,221979,1,0
156,128,222058,1,2
156,128,222137,1,2
272,212,222216,1,0
232,152,222374,1,2
232,152,222532,1,0
232,152,222690,1,2
232,152,222848,1,0
232,152,222927,1,0
232,152,223006,1,2
232,152,223085,1,2
232,152,223164,1,0
232,152,223321,1,2
232,152,223479,1,2
232,152,223716,1,2
232,152,223953,1,2
268,200,224111,1,0
268,200,224190,1,0
268,200,224269,1,2
268,200,224348,1,2
268,200,224427,1,0
184,136,224585,1,2
184,48,224742,1,0
184,48,224900,1,0
232,152,225058,1,2
232,152,225216,1,2
232,152,225295,1,0
232,152,225374,1,2
232,152,225532,1,0
232,152,225611,1,2
232,152,225690,1,0
232,152,225848,1,2
152,104,226006,1,0
184,48,226164,1,2
152,104,226242,1,2
184,48,226321,1,0
152,104,226479,1,2
256,132,226558,1,2
256,132,226637,1,0
256,132,226795,1,2
256,132,226874,1,2
256,132,226953,1,0
256,132,227032,1,0
160,136,227111,1,2
160,136,227269,1,4
260,160,227585,1,4
160,136,227742,1,0
160,136,227821,1,0
160,136,227900,1,0
352,216,228216,1,4
352,216,228374,1,4
160,136,228532,1,4
160,136,228848,1,4
312,176,229006,1,0
312,176,229085,1,0
312,176,229164,1,0
312,176,229242,1,0
312,176,229321,1,0
312,176,229400,1,0
312,176,229479,1,0
312,176,229558,1,0
312,176,229637,1,0
312,176,229716,1,0
312,176,229795,5,0
176,36,230032,1,2
224,172,230111,1,2
176,36,230269,1,0
164,80,230427,1,2
164,80,230585,1,0
164,80,230664,1,0
164,80,230742,1,2
164,80,230900,1,0
228,120,231058,1,2
228,120,231295,1,2
228,120,231532,1,2
304,156,231690,1,0
304,156,231769,1,0
304,156,231848,1,0
332,224,231927,1,0
332,224,232006,1,2
332,224,232085,1,2
332,224,232164,1,2
332,224,232242,1,2
228,120,232321,1,0
228,120,232558,1,0
332,224,232637,1,2
228,120,232795,1,0
332,224,232953,1,2
332,224,233111,1,0
332,224,233190,1,2
332,224,233269,1,0
332,224,233427,1,2
332,224,233506,1,0
332,224,233585,1,2
272,152,233742,1,0
272,152,233821,1,2
272,152,233900,1,0
272,152,234058,1,2
272,152,234216,1,2
272,152,234295,1,0
272,152,234453,1,2
272,152,234532,1,0
272,152,234690,1,2
356,200,234848,1,0
356,200,235164,1,0
356,200,235321,1,2
356,200,235400,1,2
356,200,235479,1,0
356,200,235558,1,0
356,200,235637,1,2
356,200,235795,1,0
356,200,235953,1,2
196,152,236111,1,0
196,152,236269,1,2
196,152,236348,1,2
196,152,236427,1,0
196,152,236585,1,2
196,152,236742,1,0
196,152,236900,1,2
196,152,237058,1,2
196,152,237216,1,0
196,152,237374,1,4
196,152,237532,1,0
196,152,237611,1,0
196,152,237690,1,0
196,152,237769,1,0
196,152,237848,1,0
196,152,238006,1,4
196,152,238164,1,0
196,152,238242,1,0
196,152,238321,1,0
196,152,238400,1,0
196,152,238479,1,0
196,152,238637,1,4
196,152,238953,1,4
196,152,239269,1,4
196,152,239427,1,4
196,152,239585,1,4
196,152,239742,1,4
312,176,239900,5,4
176,36,240137,1,2
224,172,240216,1,2
176,36,240374,1,0
164,80,240532,1,0
164,80,240690,1,0
164,80,240769,1,0
164,80,240847,1,2
164,80,241005,1,0
228,120,241163,1,0
204,44,241321,1,0
228,120,241400,1,0
204,44,241479,1,2
228,120,241637,1,2
304,156,241795,1,0
304,156,241874,1,0
304,156,241953,1,0
332,224,242032,1,0
332,224,242111,1,2
332,224,242190,1,2
332,224,242269,1,2
332,224,242347,1,2
228,120,242426,1,0
228,120,242663,1,2
332,224,242742,1,2
228,120,242900,1,0
332,224,243058,1,2
332,224,243216,1,0
332,224,243295,1,0
332,224,243374,1,2
332,224,243532,1,0
332,224,243611,1,0
332,224,243690,1,2
272,152,243847,1,0
228,120,243927,1,0
272,152,244005,1,2
272,152,244163,1,0
272,152,244321,1,2
272,152,244400,1,2
228,120,244479,1,0
272,152,244558,1,0
272,152,244637,1,2
260,48,244716,1,2
104,72,244795,1,0
172,136,244953,1,4
172,136,245111,1,0
172,136,245190,1,0
172,136,245269,1,2
272,152,245427,1,0
320,224,245742,1,0
320,224,245900,1,2
320,224,246058,1,0
320,224,246216,1,4
320,224,246532,1,4
320,224,246848,1,4
320,224,247164,1,4
320,224,247479,1,0
320,224,247558,1,0
320,224,247637,1,0
320,224,247716,1,0
320,224,247795,1,0
320,224,247953,1,2
320,224,248032,1,2
320,224,248190,1,2
320,224,248269,1,2
320,224,248427,1,2
320,224,248506,1,2
320,224,248585,1,2
320,224,248742,1,0
320,224,248821,1,0
320,224,248900,1,0
320,224,248979,1,0
320,224,249058,1,0
320,224,249216,1,2
320,224,249295,1,2
320,224,249453,1,2
320,224,249532,1,2
320,224,249690,1,2
320,224,249769,1,2
320,224,249848,1,2
312,176,250006,5,0
156,160,250164,1,0
156,160,250242,1,0
224,172,250322,1,2
176,36,250480,1,0
164,80,250638,1,0
164,80,250796,1,0
164,80,250875,1,0
164,80,250953,1,2
164,80,251111,1,0
228,120,251269,1,2
228,120,251506,1,2
228,120,251743,1,2
304,156,251901,1,0
304,156,251980,1,0
304,156,252059,1,0
332,224,252138,1,0
332,224,252217,1,2
332,224,252296,1,2
332,224,252375,1,2
332,224,252453,1,2
228,120,252532,1,0
228,120,252769,1,2
332,224,252848,1,2
228,120,253006,1,0
332,224,253164,1,2
332,224,253322,1,0
332,224,253401,1,2
332,224,253480,1,0
332,224,253638,1,2
332,224,253717,1,0
332,224,253796,1,2
272,152,253953,1,0
272,152,254032,1,2
272,152,254111,1,0
272,152,254269,1,2
272,152,254427,1,2
272,152,254506,1,0
272,152,254664,1,0
272,152,254743,1,2
272,152,254901,1,2
356,200,255059,1,0
160,108,255216,1,2
160,108,255295,1,2
356,200,255375,1,0
356,200,255532,1,2
356,200,255611,1,2
356,200,255690,1,0
356,200,255769,1,0
356,200,255848,1,2
356,200,256006,1,0
356,200,256164,1,2
196,152,256322,1,0
196,152,256480,1,2
196,152,256559,1,2
196,152,256638,1,0
196,152,256796,1,2
196,152,256953,1,0
196,152,257111,1,2
196,152,257269,1,2
196,152,257427,1,0
196,152,257585,1,4
196,152,257743,1,0
196,152,257822,1,0
196,152,257901,1,2
196,152,257980,1,2
196,152,258059,1,0
196,152,258217,1,4
196,152,258375,1,0
196,152,258453,1,0
196,152,258532,1,2
196,152,258611,1,2
196,152,258690,1,0
196,152,258848,1,4
196,152,259164,1,4
196,152,259480,1,4
196,152,259638,1,4
196,152,259796,1,4
196,152,259953,1,4
312,176,260111,5,4
156,160,260269,1,0
156,160,260347,1,0
224,172,260427,1,2
176,36,260585,1,0
164,80,260743,1,2
164,80,260901,1,0
164,80,260980,1,0
164,80,261058,1,2
164,80,261216,1,0
228,120,261374,1,2
228,120,261611,1,2
228,120,261848,1,2
304,156,262006,1,0
304,156,262085,1,0
304,156,262164,1,2
332,224,262243,1,2
332,224,262322,1,0
332,224,262401,1,0
332,224,262480,1,2
332,224,262558,1,2
228,120,262637,1,0
228,120,262874,1,2
332,224,262953,1,2
228,120,263111,1,0
332,224,263269,1,2
332,224,263427,1,0
332,224,263506,1,2
332,224,263585,1,0
332,224,263743,1,2
332,224,263822,1,0
332,224,263901,1,2
272,152,264058,1,0
272,152,264137,1,2
272,152,264216,1,0
272,152,264374,1,2
272,152,264532,1,2
272,152,264611,1,0
272,152,264769,1,0
272,152,264848,1,2
272,152,265006,1,2
356,200,265164,1,0
160,108,265321,1,2
356,200,265480,1,2
356,200,265637,1,2
356,200,265795,1,0
356,200,265953,1,0
356,200,266111,1,2
356,200,266269,1,2
196,152,266427,1,0
196,152,266585,1,2
196,152,266664,1,2
196,152,266743,1,0
196,152,266901,1,2
172,48,266979,1,2
196,152,267058,1,0
196,152,267216,1,2
196,152,267374,1,0
196,152,267532,1,2
200,104,267690,1,0
200,104,267769,1,0
200,104,267927,1,0
200,104,268006,1,0
200,104,268164,1,0
200,104,268242,1,0
200,104,268400,1,0
200,104,268479,1,0
200,104,268637,1,2
200,104,268716,1,2
200,104,268795,1,2
200,104,268953,1,0
200,104,269032,1,0
200,104,269190,1,0
200,104,269269,1,0
200,104,269427,1,0
200,104,269505,1,0
200,104,269663,1,0
200,104,269742,1,0
200,104,269900,1,2
200,104,269979,1,2
200,104,270058,1,2
200,104,270216,1,0
200,104,270295,1,0
200,104,270453,1,0
200,104,270532,1,0
200,104,270690,1,0
200,104,270768,1,0
200,104,270926,1,0
200,104,271005,1,0
200,104,271163,1,2
200,104,271242,1,2
200,104,271321,1,2
144,84,271479,1,6
144,84,271637,1,6
144,84,271795,1,6
144,84,271953,1,6
144,84,272111,1,6
144,84,272269,1,6
144,84,272427,1,6
144,84,272585,1,6
200,104,272742,1,2
200,104,272821,1,2
200,104,272979,1,2
200,104,273058,1,2
200,104,273216,1,2
200,104,273294,1,2
200,104,273452,1,2
200,104,273531,1,2
200,104,273689,1,0
200,104,273768,1,0
200,104,273847,1,0
200,104,274005,1,2
200,104,274084,1,2
200,104,274242,1,2
200,104,274321,1,2
200,104,274479,1,2
200,104,274557,1,2
200,104,274715,1,2
200,104,274794,1,2
200,104,274952,1,0
200,104,275031,1,0
200,104,275110,1,0
200,104,275268,1,2
200,104,275347,1,2
200,104,275506,1,2
200,104,275584,1,2
200,104,275742,1,2
200,104,275820,1,2
200,104,275978,1,2
200,104,276057,1,2
200,104,276215,1,0
200,104,276294,1,0
200,104,276373,1,0
144,84,276531,1,4
144,84,276689,1,4
144,84,276847,1,4
144,84,277005,1,4
144,84,277163,1,4
144,84,277321,1,4
144,84,277479,1,4
144,84,277637,1,4
208,100,278111,1,4
208,100,278269,1,4
